osu file format v14

[General]
AudioFilename: NA.mp3
AudioLeadIn: 0
PreviewTime: 63457
Countdown: 0
SampleSet: Normal
StackLeniency: 0.7
Mode: 0
LetterboxInBreaks: 1
WidescreenStoryboard: 0

[Editor]
DistanceSpacing: 0.5
BeatDivisor: 4
GridSize: 4
TimelineZoom: 1

[Metadata]
Title:That Bat Ngo
TitleUnicode:Thật Bất Ngờ
Artist:Truc Nhan
ArtistUnicode:Trúc Nhân
Creator:tsukiko299
Version:Extra
Source:
Tags:Vietnamese
BeatmapID:766622
BeatmapSetID:347393

[Difficulty]
HPDrainRate:8
CircleSize:4
OverallDifficulty:7
ApproachRate:9.5
SliderMultiplier:1.2
SliderTickRate:1

[Events]
//Background and Video events
0,0,"Funny-Face-Anime-Image-_2.jpg",0,0
//Break Periods
//Storyboard Layer 0 (Background)
//Storyboard Layer 1 (Fail)
//Storyboard Layer 2 (Pass)
//Storyboard Layer 3 (Foreground)
//Storyboard Sound Samples

[TimingPoints]
3941.83908145728,241.935483870968,4,1,0,100,1,0
63457,-100,4,1,0,100,0,0
63941,-100,4,1,0,100,0,1
79425,-100,4,1,0,100,0,0
94909,-100,4,1,0,5,0,0
96361,-100,4,1,0,20,0,0
98296,-100,4,1,0,40,0,0
100232,-100,4,1,0,70,0,0
100957,-100,4,1,0,90,0,0
101925,-100,4,1,0,100,0,0
126845,-100,4,1,0,100,0,1
143054,-100,4,1,0,100,0,0
143296,-100,4,1,0,100,0,1
145232,-100,4,1,0,100,0,0
147167,-100,4,1,0,100,0,1
149103,-100,4,1,0,100,0,0
151038,-100,4,1,0,100,0,1
152974,-100,4,1,0,100,0,0
154909,-100,4,1,0,100,0,1
156845,-100,4,1,0,100,0,0
158780,-200,4,1,0,50,0,0
162651,-200,4,1,0,5,0,0
165554,-200,4,1,0,5,0,0
165796,-200,4,1,0,50,0,0
170393,-200,4,1,0,5,0,0
173780,-200,4,1,0,50,0,0
177046,2142.85714285714,4,1,0,50,1,0
179188,-100,4,1,0,20,0,0
180086,241.935483870968,4,1,0,20,1,0
183042,-100,4,1,0,20,0,0
183163,-100,4,1,0,40,0,0
183284,-100,4,1,0,60,0,0
183465,-100,4,1,0,80,0,0
183647,-100,4,1,0,100,0,0
184924,-100,4,1,0,100,0,1
207908,-100,4,1,0,5,0,0
211235,-100,4,1,0,5,0,0

[HitObjects]
224,120,2006,6,0,P|152:88|8:172,1,240
16,251,2732,1,0,0:0:0:0:
83,318,2974,2,0,P|128:288|304:328,1,240
394,322,3699,1,0,0:0:0:0:
308,192,3941,1,0,0:0:0:0:
480,192,4183,1,0,0:0:0:0:
392,128,4425,6,0,P|312:72|276:72,1,120
196,70,4909,2,0,B|108:112|188:236|72:256,1,240
204,276,5877,6,0,P|264:284|424:208,1,240
353,142,6603,1,0,0:0:0:0:
256,192,6845,2,0,P|212:144|48:144,1,240
47,240,7570,1,0,0:0:0:0:
132,308,7812,1,0,0:0:0:0:
256,308,8054,1,0,0:0:0:0:
372,336,8296,6,0,P|352:284|360:216,1,120
424,268,8780,2,0,P|436:204|380:36,1,240
287,41,9506,1,0,0:0:0:0:
238,41,9627,1,0,0:0:0:0:
189,41,9748,2,0,B|144:88|184:208|104:272,1,240
209,263,10474,5,0,0:0:0:0:
336,192,10716,1,0,0:0:0:0:
404,300,10957,1,0,0:0:0:0:
209,263,11199,1,0,0:0:0:0:
336,192,11441,2,0,B|308:164|336:108|300:64,1,120
212,77,11925,5,0,0:0:0:0:
100,172,12167,1,0,0:0:0:0:
108,76,12409,5,0,0:0:0:0:
208,180,12651,1,0,0:0:0:0:
264,252,12893,5,0,0:0:0:0:
297,285,13014,1,0,0:0:0:0:
330,318,13135,1,0,0:0:0:0:
384,244,13377,6,0,P|400:196|376:112,1,120
315,68,13861,2,0,P|309:127|328:184,1,120
231,183,14345,5,0,0:0:0:0:
104,260,14587,1,0,0:0:0:0:
224,304,14828,5,0,0:0:0:0:
112,140,15070,1,0,0:0:0:0:
188,72,15312,5,0,0:0:0:0:
272,44,15433,1,0,0:0:0:0:
348,84,15554,1,0,0:0:0:0:
296,144,15796,6,0,P|273:198|225:234,1,120
232,140,16280,2,0,P|254:194|302:230,1,120
398,230,16764,5,0,0:0:0:0:
296,144,17006,1,0,0:0:0:0:
398,230,17248,1,0,0:0:0:0:
256,232,17490,1,0,0:0:0:0:
160,120,17974,1,0,0:0:0:0:
128,240,18457,6,0,P|176:288|228:300,1,120
321,299,18941,1,0,0:0:0:0:
352,192,19183,1,0,0:0:0:0:
352,143,19304,1,0,0:0:0:0:
335,98,19425,1,0,0:0:0:0:
256,152,19667,6,0,B|224:128|172:172|112:148,2,120
216,232,20393,2,0,P|260:260|448:220,1,240
296,68,21361,5,0,0:0:0:0:
468,68,21603,1,0,0:0:0:0:
300,192,21845,1,0,0:0:0:0:
220,124,22087,5,0,0:0:0:0:
144,168,22207,1,0,0:0:0:0:
224,212,22328,2,0,P|204:284|148:328,1,120
76,252,22812,5,0,0:0:0:0:
132,176,23054,1,0,0:0:0:0:
188,292,23296,1,0,0:0:0:0:
256,332,23417,1,0,0:0:0:0:
308,272,23538,2,0,B|288:240|320:208|296:152,1,120
380,184,24022,6,0,P|368:124|324:76,1,120
234,80,24506,5,0,0:0:0:0:
185,80,24627,1,0,0:0:0:0:
136,80,24748,2,0,B|104:104|124:164|88:192,2,120
184,168,25474,5,0,0:0:0:0:
256,240,25595,1,0,0:0:0:0:
308,172,25716,2,0,P|360:180|392:248,2,120
184,168,26441,5,0,0:0:0:0:
256,320,26683,1,0,0:0:0:0:
308,172,26925,1,0,0:0:0:0:
256,92,27167,6,0,P|224:60|144:60,1,120
256,91,27651,2,0,P|300:54|368:56,1,120
400,76,28135,2,0,P|408:156|388:200,1,120
400,76,28619,1,0,0:0:0:0:
304,192,29103,6,0,P|224:172|72:208,2,240
400,192,30312,1,0,0:0:0:0:
308,308,30554,1,0,0:0:0:0:
184,240,30796,1,0,0:0:0:0:
68,216,31038,6,0,P|32:160|56:88,1,120
104,148,31522,2,0,B|136:116|92:68|132:32,2,120
192,152,32248,5,0,0:0:0:0:
225,118,32369,1,0,0:0:0:0:
258,84,32490,2,0,P|304:68|376:104,1,120
304,172,32974,5,0,0:0:0:0:
432,252,33216,1,0,0:0:0:0:
248,256,33457,2,0,P|200:248|112:264,1,120
380,168,33941,5,0,0:0:0:0:
296,64,34425,2,0,P|236:72|192:120,1,120
268,136,34909,2,0,P|236:172|160:184,1,120
71,185,35393,1,0,0:0:0:0:
37,218,35514,1,0,0:0:0:0:
37,266,35635,2,0,P|84:280|152:252,1,120
148,255,36119,1,0,0:0:0:0:
208,244,36361,6,0,P|236:216|312:216,2,120
140,184,37087,1,0,0:0:0:0:
106,150,37207,1,0,0:0:0:0:
106,101,37328,1,0,0:0:0:0:
188,116,37570,6,0,B|232:104|260:80|260:80|300:96|284:128,2,120
188,116,38296,1,0,0:0:0:0:
240,200,38538,5,0,0:0:0:0:
400,180,38780,1,0,0:0:0:0:
224,244,39022,1,0,0:0:0:0:
432,140,39264,1,0,0:0:0:0:
308,120,39506,6,0,P|272:76|196:48,1,120
336,300,39990,1,0,0:0:0:0:
224,244,40232,2,0,B|156:224|156:224|168:176|100:168|100:168|144:128|144:128|108:104,1,240
256,124,41441,6,0,P|288:64|344:48,1,120
340,152,42409,2,0,P|316:216|276:260,1,120
229,254,43377,6,0,P|191:208|172:152,1,120
104,68,44103,5,0,0:0:0:0:
28,192,44587,1,0,0:0:0:0:
104,296,44828,2,0,P|180:352|204:336,1,120
264,312,45312,5,0,0:0:0:0:
320,224,45433,1,0,0:0:0:0:
416,268,45554,1,0,0:0:0:0:
412,160,45796,2,0,P|384:116|312:80,1,120
229,82,46280,1,0,0:0:0:0:
168,164,46401,1,0,0:0:0:0:
72,108,46522,2,0,P|44:160|48:232,2,120
148,264,47248,5,0,0:0:0:0:
352,192,47490,1,0,0:0:0:0:
140,80,47732,1,0,0:0:0:0:
348,16,47974,1,0,0:0:0:0:
256,112,48216,5,0,0:0:0:0:
256,160,48337,1,0,0:0:0:0:
256,207,48457,2,0,P|264:272|312:332,2,120
340,128,49183,5,0,0:0:0:0:
172,128,49425,1,0,0:0:0:0:
400,192,49667,5,0,0:0:0:0:
96,192,49909,1,0,0:0:0:0:
256,296,50151,5,0,0:0:0:0:
256,247,50272,1,0,0:0:0:0:
256,198,50393,2,0,P|256:144|244:80,1,120
172,128,50877,1,0,0:0:0:0:
400,192,51119,1,0,0:0:0:0:
96,192,51361,6,0,P|96:268|112:332,1,120
468,160,51845,6,0,P|468:84|452:20,1,120
256,32,52328,6,0,B|240:88|288:212|248:296,1,240
124,188,53054,5,0,0:0:0:0:
380,260,53296,1,0,0:0:0:0:
124,296,53538,5,0,0:0:0:0:
376,164,53780,1,0,0:0:0:0:
256,208,54022,2,0,P|220:164|168:120,2,120
256,208,54748,1,0,0:0:0:0:
376,164,54990,5,0,0:0:0:0:
444,224,55111,1,0,0:0:0:0:
376,276,55232,2,0,B|332:296|292:268|240:292,2,120
260,212,55957,5,0,0:0:0:0:
180,112,56199,2,0,P|128:88|72:120,2,120
124,184,56925,1,0,0:0:0:0:
252,332,57167,1,0,0:0:0:0:
388,184,57409,6,0,P|360:148|264:148,1,120
312,204,57893,2,0,P|264:204|212:144,2,120
336,292,58619,5,0,0:0:0:0:
256,192,58861,1,0,0:0:0:0:
104,52,59103,1,0,0:0:0:0:
408,52,59587,5,0,0:0:0:0:
256,192,60070,1,0,0:0:0:0:
424,340,60796,6,0,L|332:256,1,120
88,44,61764,6,0,L|180:128,1,120
240,48,62248,2,0,L|252:104,1,30
324,112,62490,2,0,L|328:72,1,30
408,92,62732,2,0,L|416:124,1,30
432,208,62974,6,0,B|328:256|156:180|52:232,1,360
88,280,63941,1,0,0:0:0:0:
424,280,64183,1,0,0:0:0:0:
256,316,64425,5,0,0:0:0:0:
256,267,64546,1,0,0:0:0:0:
256,218,64667,2,0,P|244:160|196:128,1,120
352,188,65393,6,0,P|360:128|400:80,1,120
314,32,65877,1,0,0:0:0:0:
265,32,65998,1,0,0:0:0:0:
216,32,66119,1,0,0:0:0:0:
124,96,66361,2,0,P|176:136|232:144,2,120
76,192,67328,5,0,0:0:0:0:
76,320,67570,1,0,0:0:0:0:
204,320,67812,1,0,0:0:0:0:
204,188,68054,1,0,0:0:0:0:
144,96,68296,5,0,0:0:0:0:
144,256,68538,1,0,0:0:0:0:
368,256,68780,1,0,0:0:0:0:
368,96,69022,2,0,P|320:60|248:60,1,120
204,188,69506,5,0,0:0:0:0:
256,268,69627,1,0,0:0:0:0:
368,256,69748,2,0,P|384:192|424:160,2,120
304,180,70474,5,0,0:0:0:0:
256,96,70595,1,0,0:0:0:0:
144,128,70716,1,0,0:0:0:0:
32,192,70957,1,0,0:0:0:0:
304,180,71199,2,0,P|308:236|264:292,1,120
152,224,71683,5,0,0:0:0:0:
256,96,71925,1,0,0:0:0:0:
408,196,72167,1,0,0:0:0:0:
304,180,72409,6,0,L|276:232,1,60
240,264,72651,2,0,P|204:296|128:312,2,120
336,296,73377,5,0,0:0:0:0:
408,196,73619,1,0,0:0:0:0:
400,68,73861,1,0,0:0:0:0:
312,40,73982,1,0,0:0:0:0:
328,128,74103,2,0,P|272:148|204:136,1,120
260,80,74587,2,0,P|200:68|132:88,2,120
400,68,75312,5,0,0:0:0:0:
108,320,75554,1,0,0:0:0:0:
112,68,75796,2,0,P|148:140|192:152,2,120
244,56,76462,5,0,0:0:0:0:
256,102,76583,1,0,0:0:0:0:
404,136,76945,2,0,L|376:192,1,60
428,296,77429,5,0,0:0:0:0:
379,296,77550,2,0,P|316:272|176:296,1,210
64,192,78216,5,0,0:0:0:0:
256,192,78457,1,0,0:0:0:0:
384,192,78699,2,0,P|388:120|372:68,2,120
336,276,79425,6,0,P|244:312|108:264,2,240
256,192,80635,1,0,0:0:0:0:
256,120,80877,1,0,0:0:0:0:
168,48,81119,5,0,0:0:0:0:
88,96,81240,1,0,0:0:0:0:
164,136,81361,2,0,P|140:184|88:228,2,120
256,120,82087,5,0,0:0:0:0:
356,192,82328,2,0,P|412:192|360:300,1,240
280,260,83296,5,0,0:0:0:0:
216,208,83538,2,0,P|200:268|220:320,1,120
344,208,84022,2,0,P|360:268|340:320,1,120
284,132,84506,5,0,0:0:0:0:
220,56,84627,1,0,0:0:0:0:
180,132,84748,2,0,P|128:136|64:104,2,120
84,204,85474,6,0,P|80:256|112:320,1,120
156,248,85957,2,0,P|220:252|288:228,1,120
360,200,86441,6,0,P|388:152|392:120,1,60
344,80,86683,5,0,0:0:0:0:
256,188,86925,1,0,0:0:0:0:
128,84,87167,1,0,0:0:0:0:
60,168,87409,6,0,P|80:248|128:268,1,120
128,192,87893,2,0,P|168:224|176:296,1,120
256,288,88377,5,0,0:0:0:0:
424,192,88619,2,0,P|380:144|380:88,1,120
256,288,89103,5,0,0:0:0:0:
88,192,89345,2,0,P|132:144|132:88,1,120
320,100,89828,6,0,P|292:152|292:212,1,120
192,100,90312,2,0,P|220:152|220:212,1,120
160,271,90796,5,0,0:0:0:0:
256,308,90917,1,0,0:0:0:0:
352,271,91038,2,0,P|376:232|288:72,2,240
256,192,92248,5,0,0:0:0:0:
208,112,92369,1,0,0:0:0:0:
112,160,92490,2,0,P|80:192|8:212,2,120
32,140,93216,2,0,P|64:220|116:240,1,120
174,234,93699,1,0,0:0:0:0:
256,324,93941,2,0,P|280:272|344:252,2,120
256,188,94909,5,0,0:0:0:0:
196,64,95151,1,0,0:0:0:0:
316,320,95393,1,0,0:0:0:0:
172,256,95635,2,0,P|104:264|60:296,1,120
320,84,96361,6,0,P|372:80|420:124,1,120
344,176,96845,1,0,0:0:0:0:
196,80,97087,1,0,0:0:0:0:
376,308,97328,1,0,0:0:0:0:
256,288,97570,2,0,P|172:264|140:224,1,120
260,144,98296,6,0,P|292:96|368:80,1,120
376,308,98780,1,0,0:0:0:0:
256,288,99022,2,0,P|196:252|136:256,1,120
60,192,99506,1,0,0:0:0:0:
260,144,99748,1,0,0:0:0:0:
416,192,100232,5,0,0:0:0:0:
260,144,100474,1,0,0:0:0:0:
388,276,100716,1,0,0:0:0:0:
252,264,100957,6,0,P|200:252|132:268,1,120
48,232,101441,1,0,0:0:0:0:
48,232,101683,2,0,P|40:156|176:108,1,240
256,192,102651,1,0,0:0:0:0:
312,80,103377,6,0,P|364:124|364:176,1,120
164,324,104345,2,0,P|116:289|110:231,1,120
96,80,105312,5,0,0:0:0:0:
440,320,105554,2,0,P|456:284|440:208,1,120
380,256,106038,2,0,P|364:196|376:140,1,120
316,84,106522,6,0,P|256:64|200:92,1,120
260,144,107006,1,0,0:0:0:0:
136,188,107248,1,0,0:0:0:0:
256,272,107369,1,0,0:0:0:0:
168,268,107490,2,0,P|120:284|48:284,1,120
24,188,107974,5,0,0:0:0:0:
156,68,108216,1,0,0:0:0:0:
340,192,108457,2,0,B|344:232|400:224|440:168|364:136|328:136|340:32,1,240
340,192,109183,5,0,0:0:0:0:
256,304,109425,1,0,0:0:0:0:
184,192,109667,5,0,0:0:0:0:
108,300,109788,1,0,0:0:0:0:
112,220,109909,2,0,P|72:200|48:128,1,120
156,84,110393,2,0,B|132:124|88:108|96:52|120:28|176:28|216:84|224:100|268:100,1,240
320,48,111119,5,0,0:0:0:0:
376,188,111361,1,0,0:0:0:0:
256,192,111603,5,0,0:0:0:0:
256,192,111724,1,0,0:0:0:0:
256,192,111845,2,0,P|252:232|200:296,1,120
160,224,112328,6,0,P|128:212|40:228,1,120
36,144,112812,2,0,P|68:104|144:92,1,120
217,89,113296,2,0,P|264:112|336:112,1,120
390,53,113780,2,0,P|440:104|440:152,1,120
256,196,114264,1,0,0:0:0:0:
128,220,114990,5,0,0:0:0:0:
44,148,115111,1,0,0:0:0:0:
136,116,115232,2,0,P|176:80|252:80,1,120
327,115,115716,5,0,0:0:0:0:
412,112,115837,1,0,0:0:0:0:
372,188,115957,2,0,P|340:240|280:256,2,120
372,188,116683,1,0,0:0:0:0:
256,192,116925,5,0,0:0:0:0:
128,284,117167,1,0,0:0:0:0:
256,308,117409,5,0,0:0:0:0:
344,332,117530,1,0,0:0:0:0:
416,276,117651,1,0,0:0:0:0:
376,192,117893,6,0,B|340:160|368:112|328:60,2,120
452,224,118619,1,0,0:0:0:0:
256,192,118861,5,0,0:0:0:0:
188,59,119103,1,0,0:0:0:0:
124,192,119345,1,0,0:0:0:0:
256,104,119587,1,0,0:0:0:0:
120,104,119828,1,0,0:0:0:0:
44,64,120070,6,0,B|12:148|72:188|24:304,1,240
122,299,120796,5,0,0:0:0:0:
256,300,121038,1,0,0:0:0:0:
348,236,121280,2,0,P|336:192|368:116,1,120
424,184,121764,2,0,P|448:124|420:60,2,120
424,184,122490,1,0,0:0:0:0:
296,132,122732,6,0,P|252:120|164:144,1,120
56,268,123699,2,0,P|104:324|152:332,1,120
243,332,124183,1,0,0:0:0:0:
256,328,124244,1,0,0:0:0:0:
268,324,124304,1,0,0:0:0:0:
280,320,124365,1,0,0:0:0:0:
292,312,124425,1,0,0:0:0:0:
304,300,124486,1,0,0:0:0:0:
308,284,124546,1,0,0:0:0:0:
308,268,124607,1,0,0:0:0:0:
304,256,124667,5,0,0:0:0:0:
296,244,124728,1,0,0:0:0:0:
288,232,124788,1,0,0:0:0:0:
280,220,124849,1,0,0:0:0:0:
272,204,124909,1,0,0:0:0:0:
64,108,126361,6,0,P|112:84|176:96,1,120
259,95,126845,1,0,0:0:0:0:
356,168,127087,5,0,0:0:0:0:
452,116,127207,1,0,0:0:0:0:
464,224,127328,2,0,P|420:248|340:248,2,120
464,224,128054,1,0,0:0:0:0:
420,340,128296,5,0,0:0:0:0:
256,316,128538,1,0,0:0:0:0:
92,340,128780,1,0,0:0:0:0:
40,228,129022,5,0,0:0:0:0:
144,212,129143,1,0,0:0:0:0:
80,144,129264,2,0,P|96:96|160:68,2,120
80,144,129990,1,0,0:0:0:0:
212,148,130232,6,0,P|260:108|328:108,1,120
383,172,130716,1,0,0:0:0:0:
296,216,130957,2,0,P|268:260|192:288,1,120
136,240,131441,5,0,0:0:0:0:
56,188,131562,1,0,0:0:0:0:
132,144,131683,2,0,P|132:112|68:56,2,120
132,144,132409,1,0,0:0:0:0:
220,184,132651,6,0,P|268:168|312:112,1,120
218,88,133135,1,0,0:0:0:0:
352,60,133498,2,0,P|412:64|416:72,1,60
396,144,133861,1,0,0:0:0:0:
320,204,134103,6,0,P|336:252|408:260,2,120
256,132,134828,1,0,0:0:0:0:
136,196,134949,1,0,0:0:0:0:
228,244,135070,2,0,P|200:292|136:316,1,120
48,252,135554,5,0,0:0:0:0:
32,148,135675,1,0,0:0:0:0:
136,196,135796,2,0,P|136:136|168:88,1,120
256,132,136280,5,0,0:0:0:0:
340,48,136522,1,0,0:0:0:0:
364,192,136764,1,0,0:0:0:0:
256,264,137006,2,0,P|200:268|144:304,1,120
50,301,137490,2,0,P|28:244|92:88,1,240
152,188,138216,5,0,0:0:0:0:
256,188,138337,1,0,0:0:0:0:
208,108,138457,2,0,P|240:68|308:68,2,120
356,140,139183,5,0,0:0:0:0:
256,312,139425,1,0,0:0:0:0:
144,96,139667,5,0,0:0:0:0:
256,312,139909,1,0,0:0:0:0:
424,44,140151,5,0,0:0:0:0:
256,312,140393,1,0,0:0:0:0:
72,0,140635,5,0,0:0:0:0:
256,312,140877,1,0,0:0:0:0:
168,256,141119,5,0,0:0:0:0:
100,328,141240,1,0,0:0:0:0:
84,240,141361,2,0,B|56:196|92:160|68:116,2,120
148,168,142087,5,0,0:0:0:0:
204,92,142328,6,0,P|248:88|324:104,1,120
368,36,142812,2,0,P|420:84|444:128,1,120
348,152,143296,1,0,0:0:0:0:
340,164,143357,1,0,0:0:0:0:
332,176,143417,1,0,0:0:0:0:
320,188,143478,1,0,0:0:0:0:
308,200,143538,1,0,0:0:0:0:
296,212,143599,5,0,0:0:0:0:
288,224,143659,1,0,0:0:0:0:
280,236,143720,1,0,0:0:0:0:
276,248,143780,1,0,0:0:0:0:
272,264,143841,1,0,0:0:0:0:
272,280,143901,1,0,0:0:0:0:
276,296,143962,1,0,0:0:0:0:
284,308,144022,1,0,0:0:0:0:
292,320,144082,1,0,0:0:0:0:
304,332,144143,1,0,0:0:0:0:
316,336,144203,5,0,0:0:0:0:
332,336,144264,1,0,0:0:0:0:
348,336,144324,1,0,0:0:0:0:
364,332,144385,1,0,0:0:0:0:
376,324,144445,1,0,0:0:0:0:
388,312,144506,1,0,0:0:0:0:
392,296,144566,1,0,0:0:0:0:
396,280,144627,1,0,0:0:0:0:
404,268,144687,1,0,0:0:0:0:
416,260,144748,1,0,0:0:0:0:
428,256,144808,5,0,0:0:0:0:
444,252,144869,1,0,0:0:0:0:
456,244,144929,1,0,0:0:0:0:
464,232,144990,1,0,0:0:0:0:
468,216,145050,1,0,0:0:0:0:
464,200,145111,1,0,0:0:0:0:
456,188,145171,1,0,0:0:0:0:
444,180,145232,1,0,0:0:0:0:
364,92,145474,6,0,P|336:136|264:160,1,120
240,72,145957,1,0,0:0:0:0:
112,104,146199,1,0,0:0:0:0:
112,144,146441,6,0,P|53:146|8:208,1,120
13,189,146925,1,0,0:0:0:0:
88,240,147167,5,0,0:0:0:0:
103,240,147228,1,0,0:0:0:0:
117,240,147288,1,0,0:0:0:0:
132,240,147349,1,0,0:0:0:0:
146,240,147409,1,0,0:0:0:0:
161,240,147470,1,0,0:0:0:0:
175,240,147530,1,0,0:0:0:0:
190,240,147591,1,0,0:0:0:0:
204,240,147651,1,0,0:0:0:0:
219,240,147712,1,0,0:0:0:0:
233,240,147772,5,0,0:0:0:0:
247,240,147832,1,0,0:0:0:0:
262,240,147893,1,0,0:0:0:0:
276,240,147953,1,0,0:0:0:0:
291,240,148014,1,0,0:0:0:0:
305,240,148074,1,0,0:0:0:0:
320,240,148135,1,0,0:0:0:0:
334,240,148195,1,0,0:0:0:0:
349,240,148256,1,0,0:0:0:0:
363,240,148316,1,0,0:0:0:0:
378,240,148377,5,0,0:0:0:0:
392,240,148437,1,0,0:0:0:0:
407,240,148498,1,0,0:0:0:0:
421,240,148558,1,0,0:0:0:0:
436,240,148619,1,0,0:0:0:0:
450,240,148679,1,0,0:0:0:0:
463,232,148740,1,0,0:0:0:0:
473,221,148800,1,0,0:0:0:0:
479,207,148861,1,0,0:0:0:0:
483,192,148921,1,0,0:0:0:0:
483,176,148982,5,0,0:0:0:0:
476,162,149042,1,0,0:0:0:0:
465,151,149103,1,0,0:0:0:0:
376,144,149345,6,0,P|320:100|296:40,1,120
216,44,149828,5,0,0:0:0:0:
216,136,150070,1,0,0:0:0:0:
136,88,150312,2,0,P|100:96|44:160,1,120
45,155,150796,1,0,0:0:0:0:
128,200,151038,6,0,L|140:240,32,30
212,240,153216,6,0,P|248:212|332:212,1,120
380,188,153699,1,0,0:0:0:0:
256,112,153941,1,0,0:0:0:0:
168,144,154183,6,0,P|104:128|80:76,1,120
32,132,154667,1,0,0:0:0:0:
48,212,154909,6,0,L|64:244,32,30
176,216,157087,5,0,0:0:0:0:
256,284,157328,1,0,0:0:0:0:
264,192,157570,2,0,P|292:136|360:112,1,120
356,192,158054,6,0,P|392:216|384:300,1,120
256,284,158538,1,0,0:0:0:0:
124,280,158780,6,0,P|80:228|80:120,1,180
148,84,159748,2,0,P|236:68|320:112,1,180
228,144,160716,2,0,P|248:184|368:236,1,180
344,164,161683,2,0,P|436:192|432:272,1,180
256,192,162651,12,0,165554,0:0:0:0:
112,152,166280,5,0,0:0:0:0:
160,88,166522,2,0,P|204:140|148:224,1,180
112,152,167490,2,0,P|68:208|116:296,1,180
148,216,168457,2,0,P|196:296|136:356,1,180
260,328,169425,2,0,P|292:288|400:336,1,180
256,192,170393,12,0,173538,0:0:0:0:
168,144,174143,6,0,P|204:92|232:92,1,90
320,64,174990,1,0,0:0:0:0:
392,136,175232,2,0,P|428:108|464:160,1,120
424,256,176078,2,0,P|416:292|348:332,1,120
316,208,177046,6,0,P|256:164|204:216,1,150
256,188,182868,1,0,0:0:0:0:
244,180,182928,1,0,0:0:0:0:
236,168,182989,1,0,0:0:0:0:
232,156,183049,1,0,0:0:0:0:
232,140,183110,1,0,0:0:0:0:
240,128,183170,1,0,0:0:0:0:
252,120,183231,1,0,0:0:0:0:
268,116,183291,1,0,0:0:0:0:
284,112,183352,1,0,0:0:0:0:
300,112,183412,5,0,0:0:0:0:
316,116,183473,1,0,0:0:0:0:
328,128,183533,1,0,0:0:0:0:
336,140,183594,1,0,0:0:0:0:
340,156,183654,1,0,0:0:0:0:
340,172,183715,1,0,0:0:0:0:
340,188,183775,6,0,L|340:232,8,30
272,284,184440,6,0,P|216:272|152:216,1,120
105,235,184924,1,0,0:0:0:0:
40,156,185166,1,0,0:0:0:0:
152,136,185287,1,0,0:0:0:0:
88,80,185408,2,0,P|112:44|184:44,2,120
88,80,186134,1,0,0:0:0:0:
244,144,186376,5,0,0:0:0:0:
396,192,186618,1,0,0:0:0:0:
252,292,186860,1,0,0:0:0:0:
144,192,187102,5,0,0:0:0:0:
32,248,187223,1,0,0:0:0:0:
128,316,187344,1,0,0:0:0:0:
252,292,187586,1,0,0:0:0:0:
244,144,187827,2,0,P|296:100|368:100,1,120
405,94,188311,1,0,0:0:0:0:
340,200,188553,5,0,0:0:0:0:
436,300,188674,1,0,0:0:0:0:
252,292,188795,1,0,0:0:0:0:
184,216,189037,6,0,P|128:200|64:232,1,120
28,120,189521,1,0,0:0:0:0:
168,120,189642,1,0,0:0:0:0:
104,56,189763,2,0,P|168:36|224:52,1,120
280,64,190126,5,0,0:0:0:0:
280,64,190247,1,0,0:0:0:0:
324,164,190489,2,0,P|372:184|380:264,1,120
316,236,190973,2,0,P|344:308|404:308,1,120
252,288,191456,5,0,0:0:0:0:
76,192,191698,1,0,0:0:0:0:
252,288,191940,1,0,0:0:0:0:
124,128,192182,2,0,B|164:104|216:144|264:116,2,120
36,68,192908,5,0,0:0:0:0:
76,192,193150,1,0,0:0:0:0:
164,268,193392,5,0,0:0:0:0:
194,268,193513,1,0,0:0:0:0:
224,268,193634,2,0,P|256:240|336:248,1,120
390,243,194118,2,0,P|432:200|432:128,1,120
394,100,194602,1,0,0:0:0:0:
304,164,194723,5,0,0:0:0:0:
300,56,194844,2,0,P|216:76|204:128,1,120
84,172,195327,5,0,0:0:0:0:
260,172,195569,1,0,0:0:0:0:
464,172,195811,1,0,0:0:0:0:
260,172,196053,1,0,0:0:0:0:
176,104,196295,5,0,0:0:0:0:
176,134,196416,1,0,0:0:0:0:
176,164,196537,1,0,0:0:0:0:
364,104,196779,5,0,0:0:0:0:
364,134,196900,1,0,0:0:0:0:
364,164,197021,1,0,0:0:0:0:
260,252,197263,6,0,P|248:292|172:340,1,120
260,252,197747,2,0,P|272:292|348:340,1,120
392,248,198231,2,0,P|424:196|408:120,1,120
120,248,198715,2,0,P|88:196|104:120,1,120
72,48,199198,2,0,P|36:92|12:152,1,120
440,48,199682,2,0,P|476:92|500:152,1,120
256,64,200166,5,0,0:0:0:0:
256,94,200287,1,0,0:0:0:0:
256,124,200408,1,0,0:0:0:0:
184,192,200650,6,0,P|148:160|140:88,1,120
328,192,201134,2,0,P|364:160|372:88,1,120
176,272,201618,6,0,P|96:292|60:336,1,120
336,272,202102,2,0,P|416:292|452:336,1,120
256,144,202586,6,0,L|256:20,1,120
256,240,203069,2,0,L|256:360,1,120
228,192,203553,5,0,0:0:0:0:
258,192,203674,1,0,0:0:0:0:
288,192,203795,1,0,0:0:0:0:
352,108,204037,6,0,P|404:156|372:204,1,120
160,108,204521,2,0,P|108:156|140:204,1,120
40,112,205005,6,0,P|12:76|12:4,1,120
460,108,205489,2,0,P|488:72|488:0,1,120
256,48,205973,5,0,0:0:0:0:
256,78,206094,1,0,0:0:0:0:
256,108,206215,1,0,0:0:0:0:
192,172,206456,6,0,L|120:280,1,120
320,172,206940,2,0,L|392:280,1,120
324,320,207424,2,0,P|264:336|188:316,1,120
256,192,207908,12,0,211053,0:0:0:0:
