osu file format v12

[General]
AudioFilename: combo final.mp3
AudioLeadIn: 2007
PreviewTime: 34275
Countdown: 1
SampleSet: Normal
StackLeniency: 0.9
Mode: 0
LetterboxInBreaks: 1

[Editor]
DistanceSpacing: 1
BeatDivisor: 4
GridSize: 4

[Metadata]
Title:Combo Final
TitleUnicode:Combo Final
Artist:Tronic
ArtistUnicode:Tronic
Creator:Gato
Version:Insane
Source:
Tags:Chile Spanish pop Rock Gufi Punk FL Studio
BeatmapID:226539
BeatmapSetID:81662

[Difficulty]
HPDrainRate:7
CircleSize:5
OverallDifficulty:7
ApproachRate:8
SliderMultiplier:1.4
SliderTickRate:1

[Events]
//Background and Video events
0,0,"combo.png",1,1
//Break Periods
2,11068,20667
//Storyboard Layer 0 (Background)
//Storyboard Layer 1 (Fail)
//Storyboard Layer 2 (Pass)
//Storyboard Layer 3 (Foreground)
//Storyboard Sound Samples
//Background Colour Transformations
3,100,163,162,255

[TimingPoints]
319,329.67032967033,4,1,0,100,1,0
21417,-100,4,1,0,100,0,1
21500,-100,4,1,0,100,0,0
34604,-100,4,1,0,100,0,1
45154,-100,4,2,0,100,0,0
68890,-100,4,2,0,100,0,1
89989,-100,4,2,0,100,0,0

[HitObjects]
253,96,319,2,0,P|286:85|349:96,1,70
337,168,648,2,0,P|304:179|241:168,1,70,8|0,0:0|0:0,0:0:0:0:
184,188,978,2,0,L|116:208,1,70
109,292,1308,2,0,L|193:320,1,70,8|8,0:0|0:0,0:0:0:0:
324,232,1802,6,0,L|424:224,2,70,8|0|0,0:0|0:0|0:0,0:0:0:0:
308,148,2297,1,8,0:0:0:0:
392,148,2461,2,0,L|456:96,2,70,0|0|8,0:0|0:0|0:0,0:0:0:0:
320,144,2956,6,0,B|325:183|260:188,1,70
204,200,3286,2,0,B|166:179|144:220,1,70,8|0,0:0|0:0,0:0:0:0:
132,288,3615,2,0,P|80:284|84:256,1,70
52,216,3945,2,0,P|96:208|104:180,1,70,8|0,0:0|0:0,0:0:0:0:
156,144,4275,1,0,0:0:0:0:
116,88,4439,1,0,0:0:0:0:
172,44,4604,1,8,0:0:0:0:
232,80,4769,1,0,0:0:0:0:
284,128,4934,5,0,0:0:0:0:
232,176,5099,1,0,0:0:0:0:
284,220,5264,1,8,0:0:0:0:
368,208,5428,1,8,0:0:0:0:
364,100,5593,6,0,L|288:96,1,70,4|0,0:0|0:0,0:0:0:0:
216,132,5923,1,8,0:0:0:0:
270,195,6088,2,0,B|224:231|190:227|189:219,2,70
350,170,6582,2,8,P|414:173|428:148,1,70
256,64,7077,6,0,L|161:61,1,70,8|0,0:0|0:0,0:0:0:0:
224,128,7406,2,0,L|309:129,1,70,0|8,0:0|0:0,0:0:0:0:
352,160,7736,2,8,P|352:196|308:199,1,70,0|0,0:0|0:0,0:0:0:0:
256,224,8066,1,8,0:0:0:0:
192,256,8231,6,0,B|157:261|131:222|131:223,1,70
160,160,8560,2,0,P|191:163|217:192,1,70,8|0,0:0|0:0,0:0:0:0:
288,224,8890,2,0,P|324:236|359:225,1,70
352,160,9220,2,0,P|312:142|267:158,1,70,8|0,0:0|0:0,0:0:0:0:
352,96,9549,5,0,0:0:0:0:
288,96,9714,2,0,L|224:96,2,35
224,96,10044,1,8,0:0:0:0:
154,107,10209,1,8,0:0:0:0:
180,128,10291,1,8,0:0:0:0:
200,156,10373,1,0,0:0:0:0:
204,192,10456,1,0,0:0:0:0:
184,220,10538,5,8,0:0:0:0:
164,252,10621,1,0,0:0:0:0:
172,288,10703,1,8,0:0:0:0:
240,296,10868,1,4,0:0:0:0:
292,306,21417,5,4,0:0:0:0:
156,276,21747,1,8,0:0:0:0:
224,252,21912,1,0,0:0:0:0:
228,184,22077,2,0,P|184:170|167:186,1,70
112,140,22406,5,8,0:0:0:0:
128,64,22571,2,0,B|162:45|162:45|192:56|192:56|224:48|224:48|256:64|256:64,1,140
300,112,23066,1,8,0:0:0:0:
368,88,23231,1,0,0:0:0:0:
412,144,23395,2,0,B|392:192|392:192|352:204,2,70
344,272,24714,5,0,0:0:0:0:
272,276,24879,1,0,0:0:0:0:
224,220,25044,1,8,0:0:0:0:
148,224,25209,2,0,P|172:168|252:164,2,140
168,292,26033,5,0,0:0:0:0:
100,312,26198,1,0,0:0:0:0:
100,244,26362,1,8,0:0:0:0:
112,212,26444,1,0,0:0:0:0:
96,184,26526,1,0,0:0:0:0:
80,152,26609,1,0,0:0:0:0:
92,120,26691,1,4,0:0:0:0:
260,184,27022,6,0,L|240:108,1,70,8|0,0:0|0:0,0:0:0:0:
224,48,27351,1,0,0:0:0:0:
172,96,27516,1,0,0:0:0:0:
104,112,27681,1,8,0:0:0:0:
100,180,27846,2,0,P|128:228|168:224,2,70
168,164,28340,5,8,0:0:0:0:
224,112,28505,1,0,0:0:0:0:
304,128,28670,1,0,0:0:0:0:
352,208,28835,2,0,P|304:224|256:208,1,70,0|8,0:0|0:0,0:0:0:0:
236,284,29165,2,0,B|136:288|28:168|80:176,1,210,0|8,0:0|0:0,0:0:0:0:
194,94,29989,5,0,0:0:0:0:
152,158,30154,1,0,0:0:0:0:
174,231,30319,1,8,0:0:0:0:
256,192,30483,2,0,L|256:112,1,70
256,192,30813,2,8,L|336:192,1,70,0|8,0:0|0:0,0:0:0:0:
256,192,31143,2,0,L|256:288,1,70
256,192,31472,2,0,L|176:192,2,70,0|8|0,0:0|0:0|0:0,0:0:0:0:
256,192,31967,12,8,33945,0:0:0:0:
64,192,34275,5,4,0:0:0:0:
448,192,34604,1,4,0:0:0:0:
411,252,34769,1,0,0:0:0:0:
470,289,34934,1,8,0:0:0:0:
