osu file format v14

[General]
AudioFilename: Trolololololololo [Trolo Roll] [HQ].mp3
AudioLeadIn: 0
PreviewTime: -1
Countdown: 0
SampleSet: Normal
StackLeniency: 0.7
Mode: 0
LetterboxInBreaks: 1
WidescreenStoryboard: 0

[Editor]
Bookmarks: 142890
DistanceSpacing: 0.8
BeatDivisor: 1
GridSize: 32
TimelineZoom: 1

[Metadata]
Title:Trololo
TitleUnicode:Trololo
Artist:
ArtistUnicode:
Creator:Gamercraft01
Version:Insane
Source:
Tags:
BeatmapID:706072
BeatmapSetID:316885

[Difficulty]
HPDrainRate:10
CircleSize:7
OverallDifficulty:10
ApproachRate:10
SliderMultiplier:3.59999990463257
SliderTickRate:4

[Events]
//Background and Video events
Video,0,"Trolololololololo_Trolo_Roll_HQ.avi"
//Break Periods
2,115402,119840
2,130132,143438
//Storyboard Layer 0 (Background)
//Storyboard Layer 1 (Fail)
//Storyboard Layer 2 (Pass)
//Storyboard Layer 3 (Foreground)
//Storyboard Sound Samples

[TimingPoints]
998,6,4,1,0,100,1,0

[HitObjects]
224,224,5216,5,0,0:0:0:0:
224,256,5306,1,0,0:0:0:0:
320,224,5324,1,0,0:0:0:0:
160,224,5462,1,0,0:0:0:0:
288,256,5504,1,0,0:0:0:0:
160,160,5654,1,0,0:0:0:0:
256,256,5792,1,0,0:0:0:0:
256,160,5810,1,0,0:0:0:0:
160,192,5984,1,0,0:0:0:0:
352,192,6050,1,0,0:0:0:0:
352,192,6086,1,0,0:0:0:0:
192,128,6164,1,0,0:0:0:0:
352,96,6314,1,0,0:0:0:0:
224,192,6320,1,0,0:0:0:0:
288,96,6356,1,0,0:0:0:0:
160,96,6434,1,0,0:0:0:0:
128,224,6560,1,0,0:0:0:0:
160,96,6686,1,0,0:0:0:0:
128,224,6692,1,0,0:0:0:0:
128,224,6734,1,0,0:0:0:0:
96,192,6854,1,0,0:0:0:0:
96,128,6920,1,0,0:0:0:0:
96,192,7034,1,0,0:0:0:0:
96,224,7052,1,0,0:0:0:0:
64,192,7076,1,0,0:0:0:0:
64,224,7136,1,0,0:0:0:0:
96,320,7214,1,0,0:0:0:0:
160,288,7250,1,0,0:0:0:0:
64,288,7352,1,0,0:0:0:0:
160,320,7442,1,0,0:0:0:0:
64,288,7460,1,0,0:0:0:0:
416,128,7520,1,0,0:0:0:0:
192,256,7532,1,0,0:0:0:0:
32,128,7550,1,0,0:0:0:0:
32,0,7556,1,0,0:0:0:0:
32,320,7574,5,0,0:0:0:0:
96,128,7586,1,0,0:0:0:0:
64,32,7592,1,0,0:0:0:0:
128,128,7610,1,0,0:0:0:0:
224,128,7616,1,0,0:0:0:0:
288,288,7646,1,0,0:0:0:0:
64,224,7664,1,0,0:0:0:0:
192,256,7688,1,0,0:0:0:0:
64,224,7694,1,0,0:0:0:0:
160,96,7718,1,0,0:0:0:0:
416,160,7724,1,0,0:0:0:0:
224,32,7742,1,0,0:0:0:0:
32,352,7748,5,0,0:0:0:0:
288,192,7754,1,0,0:0:0:0:
64,352,7778,1,0,0:0:0:0:
224,352,7826,1,0,0:0:0:0:
32,224,7850,1,0,0:0:0:0:
160,224,7868,1,0,0:0:0:0:
128,192,7880,1,0,0:0:0:0:
32,352,7904,1,0,0:0:0:0:
64,288,7910,1,0,0:0:0:0:
352,192,7922,1,0,0:0:0:0:
64,224,7934,1,0,0:0:0:0:
480,96,7952,1,0,0:0:0:0:
96,128,7958,1,0,0:0:0:0:
160,192,8036,1,0,0:0:0:0:
160,192,8072,1,0,0:0:0:0:
160,160,8090,1,0,0:0:0:0:
256,320,8096,1,0,0:0:0:0:
96,128,8198,1,0,0:0:0:0:
320,288,8204,1,0,0:0:0:0:
32,256,8222,1,0,0:0:0:0:
160,192,8246,1,0,0:0:0:0:
192,160,8264,1,0,0:0:0:0:
192,192,8270,1,0,0:0:0:0:
288,128,8300,1,0,0:0:0:0:
32,320,8354,1,0,0:0:0:0:
288,64,8360,1,0,0:0:0:0:
224,160,8390,1,0,0:0:0:0:
192,160,8510,1,0,0:0:0:0:
224,160,8540,1,0,0:0:0:0:
320,288,8546,1,0,0:0:0:0:
32,320,8570,1,0,0:0:0:0:
224,224,8582,1,0,0:0:0:0:
192,160,8612,1,0,0:0:0:0:
64,288,8618,1,0,0:0:0:0:
96,320,8636,1,0,0:0:0:0:
192,160,8672,1,0,0:0:0:0:
32,256,8696,1,0,0:0:0:0:
352,64,8726,1,0,0:0:0:0:
192,160,8768,1,0,0:0:0:0:
352,128,8774,1,0,0:0:0:0:
224,128,8834,1,0,0:0:0:0:
32,224,8864,1,0,0:0:0:0:
96,256,8870,1,0,0:0:0:0:
256,288,8882,1,0,0:0:0:0:
224,96,8984,1,0,0:0:0:0:
352,128,9002,1,0,0:0:0:0:
352,224,9032,1,0,0:0:0:0:
32,160,9038,1,0,0:0:0:0:
160,320,9074,1,0,0:0:0:0:
224,160,9152,1,0,0:0:0:0:
288,288,9176,1,0,0:0:0:0:
64,192,9194,1,0,0:0:0:0:
384,384,9254,1,0,0:0:0:0:
384,288,9260,1,0,0:0:0:0:
352,320,9290,1,0,0:0:0:0:
256,192,9308,1,0,0:0:0:0:
256,256,9338,1,0,0:0:0:0:
64,96,9362,1,0,0:0:0:0:
256,320,9386,1,0,0:0:0:0:
224,256,9404,1,0,0:0:0:0:
256,256,9422,1,0,0:0:0:0:
288,384,9470,1,0,0:0:0:0:
192,352,9512,1,0,0:0:0:0:
256,224,9530,1,0,0:0:0:0:
224,224,9548,1,0,0:0:0:0:
128,192,9566,1,0,0:0:0:0:
256,224,9674,1,0,0:0:0:0:
160,288,9710,1,0,0:0:0:0:
160,256,9740,1,0,0:0:0:0:
288,224,9776,1,0,0:0:0:0:
288,224,9794,1,0,0:0:0:0:
320,192,9824,1,0,0:0:0:0:
288,192,9878,1,0,0:0:0:0:
160,224,9884,1,0,0:0:0:0:
288,128,9908,1,0,0:0:0:0:
288,96,9992,1,0,0:0:0:0:
320,192,10046,1,0,0:0:0:0:
320,160,10058,1,0,0:0:0:0:
288,128,10100,1,0,0:0:0:0:
160,96,10202,1,0,0:0:0:0:
160,224,10208,1,0,0:0:0:0:
320,192,10268,1,0,0:0:0:0:
384,160,10304,1,0,0:0:0:0:
352,160,10322,1,0,0:0:0:0:
416,160,10334,1,0,0:0:0:0:
0,0,10376,1,0,0:0:0:0:
192,96,10424,1,0,0:0:0:0:
288,288,10460,1,0,0:0:0:0:
256,288,10478,1,0,0:0:0:0:
416,160,10526,1,0,0:0:0:0:
416,224,10556,1,0,0:0:0:0:
96,192,10610,1,0,0:0:0:0:
288,128,10622,1,0,0:0:0:0:
256,224,10658,1,0,0:0:0:0:
416,96,10688,1,0,0:0:0:0:
320,256,10802,1,0,0:0:0:0:
96,288,10820,1,0,0:0:0:0:
320,256,10832,1,0,0:0:0:0:
128,320,10850,1,0,0:0:0:0:
224,224,10862,1,0,0:0:0:0:
192,128,10886,1,0,0:0:0:0:
224,96,10928,1,0,0:0:0:0:
128,320,10952,1,0,0:0:0:0:
160,352,10982,1,0,0:0:0:0:
0,160,11018,1,0,0:0:0:0:
480,256,11042,1,0,0:0:0:0:
160,224,11066,1,0,0:0:0:0:
320,224,11102,1,0,0:0:0:0:
352,224,11126,1,0,0:0:0:0:
352,192,11162,1,0,0:0:0:0:
192,192,11198,1,0,0:0:0:0:
128,288,11246,1,0,0:0:0:0:
320,64,11318,1,0,0:0:0:0:
416,352,11336,1,0,0:0:0:0:
192,96,11402,1,0,0:0:0:0:
64,192,11408,1,0,0:0:0:0:
352,288,11462,1,0,0:0:0:0:
256,288,11504,1,0,0:0:0:0:
32,96,11522,1,0,0:0:0:0:
64,128,11594,1,0,0:0:0:0:
128,160,11666,1,0,0:0:0:0:
256,288,11744,1,0,0:0:0:0:
192,160,11750,1,0,0:0:0:0:
352,288,11774,1,0,0:0:0:0:
192,160,11804,1,0,0:0:0:0:
128,224,11882,1,0,0:0:0:0:
224,288,11930,1,0,0:0:0:0:
512,384,11942,1,0,0:0:0:0:
224,288,11960,1,0,0:0:0:0:
192,320,11984,1,0,0:0:0:0:
128,96,12008,1,0,0:0:0:0:
160,256,12158,1,0,0:0:0:0:
64,256,12182,1,0,0:0:0:0:
96,160,12200,1,0,0:0:0:0:
160,128,12230,1,0,0:0:0:0:
320,256,12380,1,0,0:0:0:0:
352,256,12398,1,0,0:0:0:0:
96,160,12404,1,0,0:0:0:0:
352,384,12458,1,0,0:0:0:0:
160,192,12584,1,0,0:0:0:0:
160,320,12590,1,0,0:0:0:0:
448,224,12614,1,0,0:0:0:0:
384,224,12626,1,0,0:0:0:0:
64,224,12794,1,0,0:0:0:0:
448,160,12818,1,0,0:0:0:0:
416,192,12860,1,0,0:0:0:0:
384,192,12878,1,0,0:0:0:0:
288,192,12998,1,0,0:0:0:0:
160,192,13028,1,0,0:0:0:0:
320,160,13106,1,0,0:0:0:0:
160,256,13226,1,0,0:0:0:0:
288,128,13328,1,0,0:0:0:0:
224,96,13430,1,0,0:0:0:0:
96,256,13454,1,0,0:0:0:0:
192,96,13568,1,0,0:0:0:0:
192,256,13646,1,0,0:0:0:0:
128,224,13658,1,0,0:0:0:0:
224,192,13670,1,0,0:0:0:0:
160,64,13730,1,0,0:0:0:0:
96,64,13760,1,0,0:0:0:0:
384,64,13796,1,0,0:0:0:0:
256,160,13874,1,0,0:0:0:0:
96,320,13892,1,0,0:0:0:0:
64,128,13952,1,0,0:0:0:0:
64,128,13976,1,0,0:0:0:0:
448,96,14024,1,0,0:0:0:0:
416,64,14084,1,0,0:0:0:0:
288,224,14108,1,0,0:0:0:0:
32,192,14198,1,0,0:0:0:0:
32,256,14216,1,0,0:0:0:0:
448,128,14276,1,0,0:0:0:0:
256,160,14324,1,0,0:0:0:0:
416,224,14402,1,0,0:0:0:0:
448,192,14414,1,0,0:0:0:0:
32,288,14426,1,0,0:0:0:0:
384,256,14444,1,0,0:0:0:0:
320,352,14486,1,0,0:0:0:0:
160,128,14516,1,0,0:0:0:0:
192,288,14546,1,0,0:0:0:0:
256,352,14582,1,0,0:0:0:0:
224,320,14666,1,0,0:0:0:0:
256,128,14744,1,0,0:0:0:0:
320,352,14750,1,0,0:0:0:0:
352,192,14774,1,0,0:0:0:0:
320,256,14828,1,0,0:0:0:0:
384,320,14882,1,0,0:0:0:0:
416,288,14906,1,0,0:0:0:0:
96,0,14948,1,0,0:0:0:0:
416,128,14954,1,0,0:0:0:0:
320,192,14960,1,0,0:0:0:0:
512,288,15020,1,0,0:0:0:0:
480,256,15110,1,0,0:0:0:0:
256,64,15170,1,0,0:0:0:0:
320,288,15200,1,0,0:0:0:0:
480,352,15218,1,0,0:0:0:0:
352,320,15302,1,0,0:0:0:0:
480,192,15326,1,0,0:0:0:0:
96,64,15338,1,0,0:0:0:0:
192,352,15542,1,0,0:0:0:0:
192,352,15566,1,0,0:0:0:0:
96,320,15770,1,0,0:0:0:0:
384,64,15776,1,0,0:0:0:0:
192,320,15794,1,0,0:0:0:0:
352,64,15806,1,0,0:0:0:0:
320,64,15890,1,0,0:0:0:0:
128,288,15920,1,0,0:0:0:0:
192,288,15962,1,0,0:0:0:0:
224,288,15974,1,0,0:0:0:0:
160,256,16004,1,0,0:0:0:0:
320,64,16028,1,0,0:0:0:0:
128,192,16082,1,0,0:0:0:0:
96,192,16100,1,0,0:0:0:0:
320,224,16154,1,0,0:0:0:0:
288,96,16160,1,0,0:0:0:0:
192,64,16190,1,0,0:0:0:0:
192,128,16196,1,0,0:0:0:0:
128,192,16364,1,0,0:0:0:0:
320,352,16370,1,0,0:0:0:0:
320,192,16406,1,0,0:0:0:0:
320,192,16424,1,0,0:0:0:0:
192,256,16442,1,0,0:0:0:0:
160,160,16448,1,0,0:0:0:0:
352,288,16586,1,0,0:0:0:0:
320,192,16604,1,0,0:0:0:0:
128,160,16670,1,0,0:0:0:0:
32,256,16772,1,0,0:0:0:0:
128,256,16778,1,0,0:0:0:0:
352,128,16802,1,0,0:0:0:0:
256,192,16850,1,0,0:0:0:0:
352,128,16880,1,0,0:0:0:0:
128,192,16928,1,0,0:0:0:0:
64,128,16958,1,0,0:0:0:0:
416,128,16970,1,0,0:0:0:0:
160,160,17108,1,0,0:0:0:0:
224,320,17138,1,0,0:0:0:0:
64,128,17168,1,0,0:0:0:0:
96,32,17198,1,0,0:0:0:0:
128,0,17282,1,0,0:0:0:0:
192,320,17294,1,0,0:0:0:0:
288,160,17306,1,0,0:0:0:0:
224,224,17330,1,0,0:0:0:0:
96,320,17348,1,0,0:0:0:0:
192,64,17372,1,0,0:0:0:0:
192,32,17420,1,0,0:0:0:0:
224,32,17474,1,0,0:0:0:0:
384,192,17546,1,0,0:0:0:0:
256,32,17606,1,0,0:0:0:0:
384,256,17684,1,0,0:0:0:0:
320,320,17690,1,0,0:0:0:0:
224,32,17696,1,0,0:0:0:0:
192,160,17774,1,0,0:0:0:0:
224,192,17792,1,0,0:0:0:0:
384,320,17894,1,0,0:0:0:0:
192,160,17918,1,0,0:0:0:0:
192,288,18026,1,0,0:0:0:0:
256,256,18062,1,0,0:0:0:0:
128,128,18068,1,0,0:0:0:0:
352,96,18092,1,0,0:0:0:0:
192,64,18098,1,0,0:0:0:0:
128,160,18116,1,0,0:0:0:0:
160,288,18206,1,0,0:0:0:0:
64,320,18266,1,0,0:0:0:0:
416,160,18308,1,0,0:0:0:0:
416,160,18338,1,0,0:0:0:0:
128,96,18362,1,0,0:0:0:0:
320,64,18386,1,0,0:0:0:0:
128,320,18398,1,0,0:0:0:0:
416,96,18428,1,0,0:0:0:0:
288,256,18440,1,0,0:0:0:0:
480,64,18458,1,0,0:0:0:0:
64,320,18488,1,0,0:0:0:0:
448,320,18500,1,0,0:0:0:0:
224,288,18638,1,0,0:0:0:0:
96,320,18668,1,0,0:0:0:0:
352,224,18686,1,0,0:0:0:0:
128,288,18716,1,0,0:0:0:0:
416,288,18830,1,0,0:0:0:0:
160,288,18890,1,0,0:0:0:0:
288,256,18926,1,0,0:0:0:0:
160,320,18950,1,0,0:0:0:0:
64,192,18968,1,0,0:0:0:0:
256,96,18992,1,0,0:0:0:0:
128,96,18998,1,0,0:0:0:0:
352,160,19022,1,0,0:0:0:0:
128,160,19058,1,0,0:0:0:0:
128,32,19100,1,0,0:0:0:0:
256,320,19106,1,0,0:0:0:0:
224,32,19124,1,0,0:0:0:0:
32,352,19196,1,0,0:0:0:0:
128,320,19214,1,0,0:0:0:0:
320,160,19232,1,0,0:0:0:0:
224,192,19250,1,0,0:0:0:0:
256,352,19376,1,0,0:0:0:0:
128,224,19400,1,0,0:0:0:0:
128,256,19430,1,0,0:0:0:0:
64,128,19436,1,0,0:0:0:0:
96,64,19490,1,0,0:0:0:0:
384,160,19496,1,0,0:0:0:0:
64,128,19520,1,0,0:0:0:0:
320,224,19544,1,0,0:0:0:0:
352,128,19580,1,0,0:0:0:0:
224,352,19628,1,0,0:0:0:0:
256,288,19646,1,0,0:0:0:0:
288,352,19658,1,0,0:0:0:0:
224,64,19724,1,0,0:0:0:0:
224,128,19754,1,0,0:0:0:0:
256,64,19790,1,0,0:0:0:0:
416,192,19808,1,0,0:0:0:0:
256,32,19826,1,0,0:0:0:0:
384,288,19898,1,0,0:0:0:0:
192,160,19916,1,0,0:0:0:0:
384,320,20048,1,0,0:0:0:0:
320,32,20090,1,0,0:0:0:0:
448,192,20120,1,0,0:0:0:0:
160,64,20180,1,0,0:0:0:0:
352,288,20198,1,0,0:0:0:0:
0,256,20210,1,0,0:0:0:0:
192,96,20264,1,0,0:0:0:0:
352,160,20378,1,0,0:0:0:0:
96,128,20408,1,0,0:0:0:0:
224,256,20420,1,0,0:0:0:0:
128,128,20444,1,0,0:0:0:0:
480,288,20468,1,0,0:0:0:0:
128,224,20474,1,0,0:0:0:0:
416,192,20498,1,0,0:0:0:0:
320,224,20570,1,0,0:0:0:0:
416,192,20720,1,0,0:0:0:0:
96,320,20810,1,0,0:0:0:0:
384,160,20822,1,0,0:0:0:0:
480,256,20828,1,0,0:0:0:0:
128,288,20852,1,0,0:0:0:0:
160,256,20858,1,0,0:0:0:0:
352,192,20876,1,0,0:0:0:0:
448,128,20906,1,0,0:0:0:0:
288,96,20918,1,0,0:0:0:0:
320,160,21026,1,0,0:0:0:0:
64,192,21104,2,0,P|320:128|384:192,404,359.999990463257
128,288,21122,1,0,0:0:0:0:
352,64,21278,1,0,0:0:0:0:
448,192,21314,1,0,0:0:0:0:
256,192,21350,1,0,0:0:0:0:
160,288,21572,1,0,0:0:0:0:
160,352,21602,1,0,0:0:0:0:
192,160,21638,1,0,0:0:0:0:
352,128,21650,1,0,0:0:0:0:
64,288,21668,1,0,0:0:0:0:
352,256,21692,1,0,0:0:0:0:
224,192,21710,1,0,0:0:0:0:
192,256,21950,1,0,0:0:0:0:
192,320,21962,1,0,0:0:0:0:
64,288,22016,1,0,0:0:0:0:
224,256,22034,1,0,0:0:0:0:
352,256,22076,1,0,0:0:0:0:
224,320,22202,1,0,0:0:0:0:
256,384,22214,1,0,0:0:0:0:
192,288,22238,1,0,0:0:0:0:
256,256,22268,1,0,0:0:0:0:
352,256,22382,1,0,0:0:0:0:
352,224,22436,1,0,0:0:0:0:
256,320,22442,1,0,0:0:0:0:
128,288,22652,1,0,0:0:0:0:
192,256,22742,1,0,0:0:0:0:
448,288,22826,1,0,0:0:0:0:
128,288,22886,1,0,0:0:0:0:
448,64,22904,1,0,0:0:0:0:
320,0,22916,1,0,0:0:0:0:
352,320,23066,1,0,0:0:0:0:
320,32,23156,1,0,0:0:0:0:
96,224,23186,1,0,0:0:0:0:
352,64,23282,1,0,0:0:0:0:
96,64,23318,1,0,0:0:0:0:
352,64,23402,1,0,0:0:0:0:
288,288,23462,1,0,0:0:0:0:
448,224,23474,1,0,0:0:0:0:
448,192,23504,1,0,0:0:0:0:
224,224,23570,1,0,0:0:0:0:
384,128,23666,1,0,0:0:0:0:
192,64,23738,1,0,0:0:0:0:
384,288,23774,1,0,0:0:0:0:
160,192,23846,1,0,0:0:0:0:
256,32,23900,1,0,0:0:0:0:
384,192,23942,1,0,0:0:0:0:
384,256,23972,1,0,0:0:0:0:
384,288,24014,1,0,0:0:0:0:
384,320,24254,1,0,0:0:0:0:
320,320,24452,1,0,0:0:0:0:
256,320,24512,1,0,0:0:0:0:
192,320,24614,1,0,0:0:0:0:
64,128,24626,1,0,0:0:0:0:
256,288,24662,1,0,0:0:0:0:
192,192,24836,1,0,0:0:0:0:
160,256,24848,1,0,0:0:0:0:
128,224,24896,1,0,0:0:0:0:
64,96,24998,1,0,0:0:0:0:
192,192,25034,1,0,0:0:0:0:
128,224,25052,1,0,0:0:0:0:
128,352,25064,1,0,0:0:0:0:
320,128,25070,1,0,0:0:0:0:
64,256,25232,1,0,0:0:0:0:
192,128,25352,1,0,0:0:0:0:
192,320,25382,1,0,0:0:0:0:
64,224,25430,1,0,0:0:0:0:
352,96,25574,1,0,0:0:0:0:
160,288,25592,1,0,0:0:0:0:
96,352,25706,1,0,0:0:0:0:
288,352,25772,1,0,0:0:0:0:
320,128,25826,1,0,0:0:0:0:
224,64,25934,1,0,0:0:0:0:
384,320,26012,1,0,0:0:0:0:
480,288,26042,1,0,0:0:0:0:
448,192,26162,1,0,0:0:0:0:
128,128,26324,1,0,0:0:0:0:
416,160,26336,1,0,0:0:0:0:
288,96,26714,1,0,0:0:0:0:
224,96,26744,1,0,0:0:0:0:
192,256,26858,1,0,0:0:0:0:
64,256,26918,1,0,0:0:0:0:
64,128,27074,1,0,0:0:0:0:
320,256,27248,1,0,0:0:0:0:
64,256,27260,1,0,0:0:0:0:
320,384,27278,1,0,0:0:0:0:
32,224,27356,1,0,0:0:0:0:
256,192,27488,12,0,29120,0:0:0:0:
96,288,27506,5,0,0:0:0:0:
224,320,27596,1,0,0:0:0:0:
256,288,27764,1,0,0:0:0:0:
224,288,27926,1,0,0:0:0:0:
192,352,28034,1,0,0:0:0:0:
96,320,28064,1,0,0:0:0:0:
128,288,28202,1,0,0:0:0:0:
160,256,28256,1,0,0:0:0:0:
32,320,28286,1,0,0:0:0:0:
160,96,28352,1,0,0:0:0:0:
96,288,28370,1,0,0:0:0:0:
192,320,28424,1,0,0:0:0:0:
96,288,28556,1,0,0:0:0:0:
128,352,28640,1,0,0:0:0:0:
256,64,28838,1,0,0:0:0:0:
288,64,28868,1,0,0:0:0:0:
224,64,28874,1,0,0:0:0:0:
256,320,28892,1,0,0:0:0:0:
384,64,28976,1,0,0:0:0:0:
256,192,29210,12,0,29648,0:0:0:0:
352,64,29264,5,0,0:0:0:0:
512,288,29294,1,0,0:0:0:0:
416,64,29426,1,0,0:0:0:0:
480,256,29684,1,0,0:0:0:0:
128,160,29774,1,0,0:0:0:0:
320,96,29918,1,0,0:0:0:0:
480,96,29960,1,0,0:0:0:0:
96,192,30074,1,0,0:0:0:0:
320,96,30170,1,0,0:0:0:0:
320,128,30254,1,0,0:0:0:0:
32,64,30422,1,0,0:0:0:0:
256,192,30434,12,0,30848,0:0:0:0:
64,224,30476,5,0,0:0:0:0:
192,160,30530,1,0,0:0:0:0:
64,128,30686,1,0,0:0:0:0:
64,128,30716,1,0,0:0:0:0:
160,128,30776,1,0,0:0:0:0:
160,96,30866,1,0,0:0:0:0:
32,96,30914,1,0,0:0:0:0:
224,160,30992,1,0,0:0:0:0:
96,224,31166,1,0,0:0:0:0:
64,192,31280,1,0,0:0:0:0:
256,256,31334,1,0,0:0:0:0:
64,96,31544,1,0,0:0:0:0:
256,192,31604,12,0,32324,0:0:0:0:
96,160,31724,5,0,0:0:0:0:
256,288,31886,1,0,0:0:0:0:
160,160,31958,1,0,0:0:0:0:
128,160,32006,1,0,0:0:0:0:
0,160,32084,1,0,0:0:0:0:
64,256,32132,1,0,0:0:0:0:
64,288,32138,2,0,L|448:64,277,359.999990463257
352,288,32348,1,0,0:0:0:0:
128,128,32354,1,0,0:0:0:0:
32,352,32432,1,0,0:0:0:0:
160,128,32618,1,0,0:0:0:0:
416,288,32630,1,0,0:0:0:0:
160,256,32690,1,0,0:0:0:0:
320,320,32726,1,0,0:0:0:0:
192,320,32804,1,0,0:0:0:0:
160,128,32996,1,0,0:0:0:0:
224,288,33062,1,0,0:0:0:0:
256,192,33074,12,0,33338,0:0:0:0:
448,288,33224,5,0,0:0:0:0:
352,288,33254,1,0,0:0:0:0:
288,0,33260,1,0,0:0:0:0:
384,288,33284,1,0,0:0:0:0:
160,128,33326,5,0,0:0:0:0:
192,160,33452,5,0,0:0:0:0:
352,320,33512,1,0,0:0:0:0:
160,256,33596,1,0,0:0:0:0:
256,192,33620,12,0,33896,0:0:0:0:
256,32,33752,5,0,0:0:0:0:
448,224,33764,1,0,0:0:0:0:
416,288,33770,1,0,0:0:0:0:
416,352,33800,1,0,0:0:0:0:
480,320,34052,1,0,0:0:0:0:
416,192,34106,1,0,0:0:0:0:
416,192,34136,1,0,0:0:0:0:
352,224,34346,1,0,0:0:0:0:
448,160,34394,1,0,0:0:0:0:
448,128,34412,1,0,0:0:0:0:
416,160,34454,1,0,0:0:0:0:
320,224,34826,1,0,0:0:0:0:
448,192,34832,1,0,0:0:0:0:
320,256,34886,1,0,0:0:0:0:
256,320,34916,1,0,0:0:0:0:
256,96,35162,1,0,0:0:0:0:
192,320,35270,1,0,0:0:0:0:
160,96,35294,1,0,0:0:0:0:
160,352,35426,1,0,0:0:0:0:
96,288,35456,1,0,0:0:0:0:
96,128,35522,1,0,0:0:0:0:
64,352,35678,1,0,0:0:0:0:
32,256,35708,1,0,0:0:0:0:
256,352,35942,1,0,0:0:0:0:
416,320,35966,1,0,0:0:0:0:
64,96,36116,1,0,0:0:0:0:
416,288,36188,1,0,0:0:0:0:
64,192,36284,1,0,0:0:0:0:
96,224,36320,1,0,0:0:0:0:
160,96,36488,1,0,0:0:0:0:
160,224,36494,1,0,0:0:0:0:
192,160,36554,1,0,0:0:0:0:
416,192,36674,1,0,0:0:0:0:
192,160,36704,1,0,0:0:0:0:
288,288,36722,1,0,0:0:0:0:
416,160,36914,1,0,0:0:0:0:
256,320,36932,1,0,0:0:0:0:
384,64,36950,1,0,0:0:0:0:
384,160,37154,1,0,0:0:0:0:
224,256,37322,1,0,0:0:0:0:
192,64,37448,1,0,0:0:0:0:
192,96,37472,1,0,0:0:0:0:
352,96,37490,1,0,0:0:0:0:
224,192,37496,1,0,0:0:0:0:
224,224,37706,1,0,0:0:0:0:
320,128,37910,1,0,0:0:0:0:
192,256,37922,1,0,0:0:0:0:
416,288,37958,1,0,0:0:0:0:
192,192,38102,1,0,0:0:0:0:
192,224,38162,1,0,0:0:0:0:
192,224,38348,1,0,0:0:0:0:
352,256,38366,1,0,0:0:0:0:
320,352,38468,1,0,0:0:0:0:
256,192,38534,1,0,0:0:0:0:
352,160,38660,1,0,0:0:0:0:
224,64,38816,1,0,0:0:0:0:
416,352,38900,1,0,0:0:0:0:
160,320,38936,1,0,0:0:0:0:
160,256,39044,5,0,0:0:0:0:
192,96,39110,1,0,0:0:0:0:
160,224,39230,1,0,0:0:0:0:
224,320,39266,1,0,0:0:0:0:
384,128,39326,1,0,0:0:0:0:
64,128,39380,1,0,0:0:0:0:
64,256,39434,1,0,0:0:0:0:
64,288,39458,1,0,0:0:0:0:
224,96,39488,1,0,0:0:0:0:
384,128,39524,1,0,0:0:0:0:
288,192,39650,1,0,0:0:0:0:
128,320,39662,1,0,0:0:0:0:
448,128,39722,1,0,0:0:0:0:
256,128,39812,1,0,0:0:0:0:
128,320,39854,1,0,0:0:0:0:
416,96,39878,1,0,0:0:0:0:
224,160,39992,1,0,0:0:0:0:
416,64,40034,1,0,0:0:0:0:
224,288,40076,1,0,0:0:0:0:
256,192,40094,1,0,0:0:0:0:
416,64,40112,1,0,0:0:0:0:
448,288,40166,1,0,0:0:0:0:
288,192,40190,1,0,0:0:0:0:
352,256,40304,1,0,0:0:0:0:
320,352,40322,1,0,0:0:0:0:
384,256,40334,1,0,0:0:0:0:
352,64,40340,1,0,0:0:0:0:
160,160,40364,1,0,0:0:0:0:
288,256,40370,1,0,0:0:0:0:
416,288,40466,1,0,0:0:0:0:
384,224,40520,1,0,0:0:0:0:
96,96,40562,1,0,0:0:0:0:
96,160,40724,1,0,0:0:0:0:
96,192,40754,1,0,0:0:0:0:
448,224,40784,1,0,0:0:0:0:
448,256,40796,1,0,0:0:0:0:
224,224,40832,1,0,0:0:0:0:
192,224,40892,1,0,0:0:0:0:
160,64,40958,1,0,0:0:0:0:
128,256,41078,1,0,0:0:0:0:
128,256,41276,1,0,0:0:0:0:
32,320,41294,1,0,0:0:0:0:
64,320,41366,1,0,0:0:0:0:
160,64,41426,1,0,0:0:0:0:
224,256,41504,1,0,0:0:0:0:
192,288,41546,1,0,0:0:0:0:
128,288,41732,1,0,0:0:0:0:
192,352,41942,1,0,0:0:0:0:
448,352,41984,1,0,0:0:0:0:
128,256,42170,1,0,0:0:0:0:
64,256,42350,1,0,0:0:0:0:
288,192,42416,1,0,0:0:0:0:
64,256,42578,1,0,0:0:0:0:
32,192,42674,1,0,0:0:0:0:
288,160,42686,1,0,0:0:0:0:
288,128,42734,1,0,0:0:0:0:
96,224,42806,1,0,0:0:0:0:
64,192,42866,1,0,0:0:0:0:
352,128,42998,1,0,0:0:0:0:
96,160,43004,1,0,0:0:0:0:
192,224,43034,1,0,0:0:0:0:
320,128,43166,1,0,0:0:0:0:
256,192,43244,1,0,0:0:0:0:
192,96,43406,1,0,0:0:0:0:
352,160,43412,1,0,0:0:0:0:
416,160,43430,1,0,0:0:0:0:
288,320,43466,1,0,0:0:0:0:
320,256,43580,1,0,0:0:0:0:
128,160,43610,1,0,0:0:0:0:
384,224,43670,1,0,0:0:0:0:
384,224,43688,1,0,0:0:0:0:
128,160,43802,1,0,0:0:0:0:
32,320,43820,1,0,0:0:0:0:
384,384,43856,1,0,0:0:0:0:
128,224,44006,1,0,0:0:0:0:
160,96,44018,1,0,0:0:0:0:
384,352,44114,1,0,0:0:0:0:
224,288,44204,1,0,0:0:0:0:
160,256,44234,1,0,0:0:0:0:
192,352,44300,1,0,0:0:0:0:
352,288,44396,1,0,0:0:0:0:
224,288,44450,1,0,0:0:0:0:
64,96,44468,1,0,0:0:0:0:
160,320,44510,1,0,0:0:0:0:
416,192,44594,1,0,0:0:0:0:
384,128,44804,1,0,0:0:0:0:
224,192,44810,1,0,0:0:0:0:
224,192,44828,1,0,0:0:0:0:
160,128,44876,1,0,0:0:0:0:
320,96,44990,1,0,0:0:0:0:
480,160,45020,1,0,0:0:0:0:
160,32,45068,1,0,0:0:0:0:
256,32,45104,1,0,0:0:0:0:
480,384,45110,1,0,0:0:0:0:
384,128,45128,1,0,0:0:0:0:
288,160,45206,1,0,0:0:0:0:
448,64,45260,1,0,0:0:0:0:
448,192,45272,1,0,0:0:0:0:
224,192,45422,1,0,0:0:0:0:
320,64,45458,1,0,0:0:0:0:
448,64,45476,1,0,0:0:0:0:
384,32,45488,1,0,0:0:0:0:
448,224,45524,1,0,0:0:0:0:
192,96,45638,1,0,0:0:0:0:
256,64,45662,1,0,0:0:0:0:
384,32,45698,1,0,0:0:0:0:
32,64,45782,1,0,0:0:0:0:
32,192,45842,1,0,0:0:0:0:
512,32,45878,1,0,0:0:0:0:
288,288,45974,1,0,0:0:0:0:
96,256,46058,1,0,0:0:0:0:
128,128,46160,1,0,0:0:0:0:
96,288,46202,1,0,0:0:0:0:
192,320,46286,1,0,0:0:0:0:
96,288,46376,1,0,0:0:0:0:
480,64,46382,1,0,0:0:0:0:
128,256,46394,1,0,0:0:0:0:
384,288,46496,1,0,0:0:0:0:
512,96,46574,1,0,0:0:0:0:
480,192,46592,1,0,0:0:0:0:
160,320,46598,1,0,0:0:0:0:
288,224,46688,1,0,0:0:0:0:
320,320,46808,1,0,0:0:0:0:
480,288,46820,1,0,0:0:0:0:
320,160,46892,1,0,0:0:0:0:
96,256,46988,1,0,0:0:0:0:
480,352,47036,1,0,0:0:0:0:
320,160,47120,1,0,0:0:0:0:
256,256,47204,1,0,0:0:0:0:
256,256,47222,1,0,0:0:0:0:
256,288,47300,1,0,0:0:0:0:
224,192,47414,1,0,0:0:0:0:
224,160,47534,1,0,0:0:0:0:
32,192,47648,1,0,0:0:0:0:
224,128,47756,1,0,0:0:0:0:
192,160,47924,1,0,0:0:0:0:
320,96,47930,1,0,0:0:0:0:
224,128,47948,1,0,0:0:0:0:
128,96,48200,1,0,0:0:0:0:
128,128,48242,1,0,0:0:0:0:
160,288,48302,1,0,0:0:0:0:
96,32,48326,1,0,0:0:0:0:
352,64,48410,1,0,0:0:0:0:
96,192,48434,1,0,0:0:0:0:
160,288,48494,1,0,0:0:0:0:
320,256,48608,1,0,0:0:0:0:
448,256,48632,1,0,0:0:0:0:
384,128,48668,1,0,0:0:0:0:
384,128,48692,1,0,0:0:0:0:
384,96,48728,1,0,0:0:0:0:
256,224,48746,1,0,0:0:0:0:
160,96,48770,1,0,0:0:0:0:
64,128,48830,2,0,B|64:224|128:160|224:224|288:128|384:288|416:160,532,359.999990463257
384,64,48974,1,0,0:0:0:0:
160,288,48986,1,0,0:0:0:0:
384,192,48992,1,0,0:0:0:0:
96,224,49154,1,0,0:0:0:0:
320,64,49190,1,0,0:0:0:0:
192,32,49220,1,0,0:0:0:0:
384,288,49268,1,0,0:0:0:0:
416,32,49316,1,0,0:0:0:0:
160,32,49424,1,0,0:0:0:0:
128,288,49454,1,0,0:0:0:0:
352,288,49484,1,0,0:0:0:0:
256,160,49508,1,0,0:0:0:0:
64,64,49658,1,0,0:0:0:0:
32,0,49682,1,0,0:0:0:0:
352,352,49718,1,0,0:0:0:0:
96,32,49742,1,0,0:0:0:0:
96,32,49748,1,0,0:0:0:0:
320,224,49754,1,0,0:0:0:0:
224,320,49766,1,0,0:0:0:0:
128,64,49796,1,0,0:0:0:0:
160,192,49904,1,0,0:0:0:0:
224,32,49922,1,0,0:0:0:0:
160,288,50012,1,0,0:0:0:0:
256,128,50084,1,0,0:0:0:0:
288,64,50108,1,0,0:0:0:0:
320,64,50192,1,0,0:0:0:0:
128,320,50228,1,0,0:0:0:0:
128,288,50276,1,0,0:0:0:0:
224,256,50288,1,0,0:0:0:0:
256,96,50312,1,0,0:0:0:0:
224,224,50462,1,0,0:0:0:0:
128,288,50510,1,0,0:0:0:0:
224,128,50522,1,0,0:0:0:0:
256,96,50540,1,0,0:0:0:0:
512,64,50618,1,0,0:0:0:0:
352,320,50636,1,0,0:0:0:0:
128,128,50708,1,0,0:0:0:0:
160,96,50738,1,0,0:0:0:0:
320,96,50774,1,0,0:0:0:0:
416,224,50834,1,0,0:0:0:0:
224,64,50954,1,0,0:0:0:0:
352,64,50978,1,0,0:0:0:0:
448,192,51038,1,0,0:0:0:0:
320,32,51212,1,0,0:0:0:0:
480,64,51230,1,0,0:0:0:0:
64,320,51272,1,0,0:0:0:0:
512,96,51416,1,0,0:0:0:0:
512,128,51452,1,0,0:0:0:0:
384,96,51470,1,0,0:0:0:0:
64,256,51476,1,0,0:0:0:0:
384,64,51482,1,0,0:0:0:0:
288,256,51518,1,0,0:0:0:0:
96,192,51632,1,0,0:0:0:0:
64,64,51710,1,0,0:0:0:0:
352,256,51758,1,0,0:0:0:0:
128,192,51926,1,0,0:0:0:0:
96,96,51944,1,0,0:0:0:0:
160,192,51992,1,0,0:0:0:0:
160,224,52100,1,0,0:0:0:0:
224,352,52208,1,0,0:0:0:0:
128,352,52232,1,0,0:0:0:0:
480,320,52388,1,0,0:0:0:0:
192,224,52400,1,0,0:0:0:0:
64,352,52448,1,0,0:0:0:0:
480,320,52472,1,0,0:0:0:0:
320,128,52634,1,0,0:0:0:0:
352,256,52670,1,0,0:0:0:0:
224,256,52766,1,0,0:0:0:0:
352,224,52838,1,0,0:0:0:0:
128,256,52868,1,0,0:0:0:0:
352,192,52874,1,0,0:0:0:0:
224,128,53192,1,0,0:0:0:0:
256,288,53198,1,0,0:0:0:0:
416,224,53246,1,0,0:0:0:0:
256,256,53252,1,0,0:0:0:0:
192,64,53270,1,0,0:0:0:0:
384,128,53474,1,0,0:0:0:0:
64,64,53486,1,0,0:0:0:0:
224,192,53588,1,0,0:0:0:0:
288,320,53648,1,0,0:0:0:0:
416,128,53684,1,0,0:0:0:0:
416,128,53702,1,0,0:0:0:0:
320,32,53768,1,0,0:0:0:0:
256,128,53834,1,0,0:0:0:0:
256,224,53882,1,0,0:0:0:0:
192,224,53906,1,0,0:0:0:0:
256,128,54062,1,0,0:0:0:0:
192,128,54068,1,0,0:0:0:0:
96,256,54170,1,0,0:0:0:0:
96,192,54224,1,0,0:0:0:0:
160,160,54236,1,0,0:0:0:0:
96,32,54272,1,0,0:0:0:0:
256,352,54338,1,0,0:0:0:0:
352,224,54344,1,0,0:0:0:0:
384,256,54356,1,0,0:0:0:0:
64,160,54368,1,0,0:0:0:0:
288,64,54404,1,0,0:0:0:0:
128,256,54434,1,0,0:0:0:0:
384,288,54566,1,0,0:0:0:0:
384,320,54596,1,0,0:0:0:0:
448,352,54650,1,0,0:0:0:0:
192,352,54686,1,0,0:0:0:0:
128,256,54710,1,0,0:0:0:0:
480,64,54722,1,0,0:0:0:0:
256,96,54896,1,0,0:0:0:0:
64,160,54944,1,0,0:0:0:0:
288,192,54962,1,0,0:0:0:0:
352,224,54968,1,0,0:0:0:0:
288,128,54998,1,0,0:0:0:0:
384,192,55046,1,0,0:0:0:0:
480,192,55088,1,0,0:0:0:0:
416,160,55184,1,0,0:0:0:0:
352,160,55226,1,0,0:0:0:0:
320,224,55298,1,0,0:0:0:0:
224,256,55388,1,0,0:0:0:0:
320,320,55412,1,0,0:0:0:0:
288,128,55418,1,0,0:0:0:0:
320,64,55472,1,0,0:0:0:0:
352,64,55574,1,0,0:0:0:0:
96,192,55616,1,0,0:0:0:0:
320,288,55628,1,0,0:0:0:0:
224,256,55652,1,0,0:0:0:0:
192,224,55688,1,0,0:0:0:0:
96,96,55850,1,0,0:0:0:0:
224,32,55928,1,0,0:0:0:0:
192,256,55934,1,0,0:0:0:0:
64,256,56066,1,0,0:0:0:0:
96,192,56072,1,0,0:0:0:0:
96,352,56090,1,0,0:0:0:0:
160,320,56258,1,0,0:0:0:0:
224,128,56282,1,0,0:0:0:0:
128,32,56396,1,0,0:0:0:0:
96,288,56414,1,0,0:0:0:0:
256,352,56570,1,0,0:0:0:0:
320,128,56576,1,0,0:0:0:0:
288,352,56936,1,0,0:0:0:0:
288,64,56996,1,0,0:0:0:0:
224,128,57032,1,0,0:0:0:0:
64,256,57044,1,0,0:0:0:0:
448,224,57056,1,0,0:0:0:0:
128,288,57272,1,0,0:0:0:0:
384,160,57302,1,0,0:0:0:0:
352,256,57308,1,0,0:0:0:0:
352,256,57368,1,0,0:0:0:0:
416,256,57374,1,0,0:0:0:0:
416,256,57638,1,0,0:0:0:0:
256,320,57764,1,0,0:0:0:0:
384,320,57818,1,0,0:0:0:0:
352,288,57848,1,0,0:0:0:0:
224,256,58016,1,0,0:0:0:0:
192,160,58214,1,0,0:0:0:0:
96,160,58256,1,0,0:0:0:0:
256,256,58268,1,0,0:0:0:0:
64,192,58472,1,0,0:0:0:0:
256,192,58634,12,0,61292,0:0:0:0:
224,96,58646,5,0,0:0:0:0:
288,224,58700,1,0,0:0:0:0:
96,192,58892,1,0,0:0:0:0:
192,256,58922,1,0,0:0:0:0:
352,128,59012,1,0,0:0:0:0:
160,192,59036,1,0,0:0:0:0:
160,288,59192,1,0,0:0:0:0:
96,288,59222,1,0,0:0:0:0:
0,224,59366,1,0,0:0:0:0:
224,320,59588,1,0,0:0:0:0:
352,320,59618,1,0,0:0:0:0:
32,160,59840,1,0,0:0:0:0:
224,256,59978,1,0,0:0:0:0:
192,96,60008,1,0,0:0:0:0:
192,64,60170,1,0,0:0:0:0:
32,96,60350,1,0,0:0:0:0:
64,96,60500,1,0,0:0:0:0:
128,32,60512,1,0,0:0:0:0:
128,64,60668,1,0,0:0:0:0:
64,96,60800,1,0,0:0:0:0:
288,32,61010,1,0,0:0:0:0:
224,320,61058,1,0,0:0:0:0:
320,64,61118,1,0,0:0:0:0:
352,96,61148,1,0,0:0:0:0:
224,352,61160,1,0,0:0:0:0:
128,128,61370,1,0,0:0:0:0:
224,320,61400,1,0,0:0:0:0:
448,32,61526,1,0,0:0:0:0:
448,96,61580,1,0,0:0:0:0:
416,128,61610,1,0,0:0:0:0:
192,320,61916,1,0,0:0:0:0:
192,320,61946,1,0,0:0:0:0:
320,128,62012,1,0,0:0:0:0:
352,288,62036,1,0,0:0:0:0:
256,192,62234,12,0,63338,0:0:0:0:
96,224,62258,5,0,0:0:0:0:
448,256,62270,1,0,0:0:0:0:
288,224,62378,1,0,0:0:0:0:
128,224,62462,1,0,0:0:0:0:
320,288,62660,1,0,0:0:0:0:
320,256,62738,1,0,0:0:0:0:
256,160,62744,1,0,0:0:0:0:
96,96,62882,1,0,0:0:0:0:
256,352,62900,1,0,0:0:0:0:
192,64,62906,1,0,0:0:0:0:
224,128,63020,1,0,0:0:0:0:
480,192,63050,1,0,0:0:0:0:
416,160,63092,1,0,0:0:0:0:
0,64,63230,1,0,0:0:0:0:
352,32,63260,1,0,0:0:0:0:
448,256,63272,1,0,0:0:0:0:
128,288,63308,1,0,0:0:0:0:
224,224,63518,1,0,0:0:0:0:
320,160,63548,1,0,0:0:0:0:
192,96,63686,1,0,0:0:0:0:
224,224,63740,1,0,0:0:0:0:
224,288,63818,1,0,0:0:0:0:
256,64,63872,1,0,0:0:0:0:
224,320,64040,1,0,0:0:0:0:
256,352,64046,1,0,0:0:0:0:
192,320,64070,1,0,0:0:0:0:
256,128,64190,1,0,0:0:0:0:
256,96,64226,1,0,0:0:0:0:
160,288,64442,1,0,0:0:0:0:
96,224,64610,1,0,0:0:0:0:
160,160,64634,1,0,0:0:0:0:
160,288,64682,1,0,0:0:0:0:
32,128,64712,1,0,0:0:0:0:
96,96,64892,1,0,0:0:0:0:
256,192,64898,12,0,66206,0:0:0:0:
352,128,64922,5,0,0:0:0:0:
288,192,64946,1,0,0:0:0:0:
128,256,64976,1,0,0:0:0:0:
128,192,65054,1,0,0:0:0:0:
352,96,65120,1,0,0:0:0:0:
160,64,65186,1,0,0:0:0:0:
128,256,65240,1,0,0:0:0:0:
192,160,65258,1,0,0:0:0:0:
128,96,65396,1,0,0:0:0:0:
448,192,65516,1,0,0:0:0:0:
128,96,65624,1,0,0:0:0:0:
256,96,65714,1,0,0:0:0:0:
352,288,65816,1,0,0:0:0:0:
32,96,66050,1,0,0:0:0:0:
96,160,66080,1,0,0:0:0:0:
96,64,66128,1,0,0:0:0:0:
448,320,66206,1,0,0:0:0:0:
448,64,66248,1,0,0:0:0:0:
128,96,66380,1,0,0:0:0:0:
384,320,66458,1,0,0:0:0:0:
448,160,66614,1,0,0:0:0:0:
224,96,66650,1,0,0:0:0:0:
288,224,66740,1,0,0:0:0:0:
256,96,66854,1,0,0:0:0:0:
416,32,66884,1,0,0:0:0:0:
352,192,66944,1,0,0:0:0:0:
416,128,67142,1,0,0:0:0:0:
320,160,67172,1,0,0:0:0:0:
32,160,67220,1,0,0:0:0:0:
224,320,67292,1,0,0:0:0:0:
224,384,67364,1,0,0:0:0:0:
160,224,67586,1,0,0:0:0:0:
128,192,67652,1,0,0:0:0:0:
160,192,67676,1,0,0:0:0:0:
96,224,67766,1,0,0:0:0:0:
96,224,67838,1,0,0:0:0:0:
64,224,67868,1,0,0:0:0:0:
320,224,68018,1,0,0:0:0:0:
96,224,68048,1,0,0:0:0:0:
128,256,68072,1,0,0:0:0:0:
256,224,68108,1,0,0:0:0:0:
96,224,68162,1,0,0:0:0:0:
96,224,68192,1,0,0:0:0:0:
224,256,68336,1,0,0:0:0:0:
480,224,68438,1,0,0:0:0:0:
96,224,68474,1,0,0:0:0:0:
256,224,68480,1,0,0:0:0:0:
192,128,68570,1,0,0:0:0:0:
32,320,68582,1,0,0:0:0:0:
256,224,68792,1,0,0:0:0:0:
352,256,68810,1,0,0:0:0:0:
320,64,68894,1,0,0:0:0:0:
288,224,68942,1,0,0:0:0:0:
256,128,69098,1,0,0:0:0:0:
384,128,69164,1,0,0:0:0:0:
160,64,69332,1,0,0:0:0:0:
160,128,69368,1,0,0:0:0:0:
384,128,69440,1,0,0:0:0:0:
288,256,69602,1,0,0:0:0:0:
0,160,69620,1,0,0:0:0:0:
448,192,69668,1,0,0:0:0:0:
384,192,69692,1,0,0:0:0:0:
256,64,69710,1,0,0:0:0:0:
128,64,69776,1,0,0:0:0:0:
128,192,69794,1,0,0:0:0:0:
320,128,69800,1,0,0:0:0:0:
160,256,69812,1,0,0:0:0:0:
224,192,69890,1,0,0:0:0:0:
448,128,69950,1,0,0:0:0:0:
256,160,69968,1,0,0:0:0:0:
128,64,70028,1,0,0:0:0:0:
128,288,70058,1,0,0:0:0:0:
416,192,70118,1,0,0:0:0:0:
448,352,70142,1,0,0:0:0:0:
288,128,70160,1,0,0:0:0:0:
288,288,70166,1,0,0:0:0:0:
448,128,70274,1,0,0:0:0:0:
448,320,70322,1,0,0:0:0:0:
224,288,70358,1,0,0:0:0:0:
384,288,70436,1,0,0:0:0:0:
128,288,70544,1,0,0:0:0:0:
320,320,70748,1,0,0:0:0:0:
64,160,70760,1,0,0:0:0:0:
192,320,70790,1,0,0:0:0:0:
192,320,70796,1,0,0:0:0:0:
256,320,70802,1,0,0:0:0:0:
256,320,70856,1,0,0:0:0:0:
256,320,70964,1,0,0:0:0:0:
128,64,70970,1,0,0:0:0:0:
352,224,71072,1,0,0:0:0:0:
320,32,71144,1,0,0:0:0:0:
224,320,71156,1,0,0:0:0:0:
128,224,71204,1,0,0:0:0:0:
0,256,71336,1,0,0:0:0:0:
352,192,71354,1,0,0:0:0:0:
288,224,71384,1,0,0:0:0:0:
192,224,71408,1,0,0:0:0:0:
384,128,71576,1,0,0:0:0:0:
352,352,71594,1,0,0:0:0:0:
96,320,71654,1,0,0:0:0:0:
64,320,71714,1,0,0:0:0:0:
192,64,71840,1,0,0:0:0:0:
256,96,71876,1,0,0:0:0:0:
224,320,71912,1,0,0:0:0:0:
256,160,71948,1,0,0:0:0:0:
192,320,72044,1,0,0:0:0:0:
192,160,72158,1,0,0:0:0:0:
384,64,72170,1,0,0:0:0:0:
448,32,72176,1,0,0:0:0:0:
416,192,72302,1,0,0:0:0:0:
416,224,72338,1,0,0:0:0:0:
128,256,72368,1,0,0:0:0:0:
224,352,72458,1,0,0:0:0:0:
480,160,72572,1,0,0:0:0:0:
224,352,72602,1,0,0:0:0:0:
480,192,72740,1,0,0:0:0:0:
320,288,72932,1,0,0:0:0:0:
352,320,73064,1,0,0:0:0:0:
352,224,73166,1,0,0:0:0:0:
384,192,73208,1,0,0:0:0:0:
256,256,73436,1,0,0:0:0:0:
160,128,73442,1,0,0:0:0:0:
288,96,73460,1,0,0:0:0:0:
64,160,73478,1,0,0:0:0:0:
256,288,73520,1,0,0:0:0:0:
128,96,73616,1,0,0:0:0:0:
64,192,73790,1,0,0:0:0:0:
96,128,73832,1,0,0:0:0:0:
224,256,73838,1,0,0:0:0:0:
224,256,73880,1,0,0:0:0:0:
64,128,73910,1,0,0:0:0:0:
128,0,73934,1,0,0:0:0:0:
192,256,73952,1,0,0:0:0:0:
224,256,74018,1,0,0:0:0:0:
448,64,74042,1,0,0:0:0:0:
128,288,74066,1,0,0:0:0:0:
480,160,74084,1,0,0:0:0:0:
416,64,74132,1,0,0:0:0:0:
64,64,74138,1,0,0:0:0:0:
96,192,74168,1,0,0:0:0:0:
96,320,74216,1,0,0:0:0:0:
320,192,74264,1,0,0:0:0:0:
352,320,74312,1,0,0:0:0:0:
352,288,74324,1,0,0:0:0:0:
160,160,74348,1,0,0:0:0:0:
256,320,74354,1,0,0:0:0:0:
480,256,74390,1,0,0:0:0:0:
256,96,74408,1,0,0:0:0:0:
224,160,74450,1,0,0:0:0:0:
160,96,74456,1,0,0:0:0:0:
128,352,74474,1,0,0:0:0:0:
128,192,74480,1,0,0:0:0:0:
352,320,74504,1,0,0:0:0:0:
160,192,74516,1,0,0:0:0:0:
480,192,74588,1,0,0:0:0:0:
224,288,74600,1,0,0:0:0:0:
224,288,74660,1,0,0:0:0:0:
352,256,74666,1,0,0:0:0:0:
192,160,74672,1,0,0:0:0:0:
224,192,74708,1,0,0:0:0:0:
416,96,74762,1,0,0:0:0:0:
384,256,74768,1,0,0:0:0:0:
64,288,74792,1,0,0:0:0:0:
128,64,74822,1,0,0:0:0:0:
96,96,74912,1,0,0:0:0:0:
224,64,74930,1,0,0:0:0:0:
96,160,74978,1,0,0:0:0:0:
256,256,75092,1,0,0:0:0:0:
64,256,75110,1,0,0:0:0:0:
256,96,75212,1,0,0:0:0:0:
192,320,75344,1,0,0:0:0:0:
416,96,75362,1,0,0:0:0:0:
128,320,75518,1,0,0:0:0:0:
160,256,75596,1,0,0:0:0:0:
96,128,75626,1,0,0:0:0:0:
320,288,75740,1,0,0:0:0:0:
64,128,75746,1,0,0:0:0:0:
288,160,75806,1,0,0:0:0:0:
384,288,75830,1,0,0:0:0:0:
288,288,75884,1,0,0:0:0:0:
64,128,75920,1,0,0:0:0:0:
96,224,75926,1,0,0:0:0:0:
64,128,75944,1,0,0:0:0:0:
256,224,76100,1,0,0:0:0:0:
480,224,76184,1,0,0:0:0:0:
64,256,76214,1,0,0:0:0:0:
384,192,76256,1,0,0:0:0:0:
128,352,76328,1,0,0:0:0:0:
320,192,76340,1,0,0:0:0:0:
384,256,76520,1,0,0:0:0:0:
320,256,76544,1,0,0:0:0:0:
64,0,76568,1,0,0:0:0:0:
64,256,76598,1,0,0:0:0:0:
64,128,76616,1,0,0:0:0:0:
256,256,76676,1,0,0:0:0:0:
384,64,76718,1,0,0:0:0:0:
384,160,76778,1,0,0:0:0:0:
448,160,76862,1,0,0:0:0:0:
352,128,76886,1,0,0:0:0:0:
32,32,76898,1,0,0:0:0:0:
64,128,77006,1,0,0:0:0:0:
256,64,77054,1,0,0:0:0:0:
192,320,77066,1,0,0:0:0:0:
224,320,77144,1,0,0:0:0:0:
448,96,77150,1,0,0:0:0:0:
256,192,77186,1,0,0:0:0:0:
480,64,77246,1,0,0:0:0:0:
352,160,77288,1,0,0:0:0:0:
32,160,77312,1,0,0:0:0:0:
320,128,77444,1,0,0:0:0:0:
384,288,77528,1,0,0:0:0:0:
160,256,77618,1,0,0:0:0:0:
224,96,77630,1,0,0:0:0:0:
128,352,77732,1,0,0:0:0:0:
480,224,77744,1,0,0:0:0:0:
96,128,77762,1,0,0:0:0:0:
96,256,77768,1,0,0:0:0:0:
128,160,77792,1,0,0:0:0:0:
384,320,77894,1,0,0:0:0:0:
96,224,77936,1,0,0:0:0:0:
128,128,78014,1,0,0:0:0:0:
288,192,78068,1,0,0:0:0:0:
192,64,78098,1,0,0:0:0:0:
96,128,78152,1,0,0:0:0:0:
480,288,78164,1,0,0:0:0:0:
288,128,78278,1,0,0:0:0:0:
288,320,78284,1,0,0:0:0:0:
128,96,78338,1,0,0:0:0:0:
192,192,78410,1,0,0:0:0:0:
192,320,78464,1,0,0:0:0:0:
480,288,78500,1,0,0:0:0:0:
160,128,78518,1,0,0:0:0:0:
448,320,78584,1,0,0:0:0:0:
352,224,78620,1,0,0:0:0:0:
288,288,78626,1,0,0:0:0:0:
192,160,78722,1,0,0:0:0:0:
352,288,78782,1,0,0:0:0:0:
352,96,78794,1,0,0:0:0:0:
256,352,78872,1,0,0:0:0:0:
480,192,78908,1,0,0:0:0:0:
416,320,78932,1,0,0:0:0:0:
256,288,78944,1,0,0:0:0:0:
416,256,78950,1,0,0:0:0:0:
352,320,79004,1,0,0:0:0:0:
480,192,79076,1,0,0:0:0:0:
448,224,79106,1,0,0:0:0:0:
160,288,79112,1,0,0:0:0:0:
128,128,79130,1,0,0:0:0:0:
320,160,79172,1,0,0:0:0:0:
384,160,79244,1,0,0:0:0:0:
320,224,79268,1,0,0:0:0:0:
352,96,79346,1,0,0:0:0:0:
224,256,79430,1,0,0:0:0:0:
352,192,79454,1,0,0:0:0:0:
416,96,79496,1,0,0:0:0:0:
96,224,79514,1,0,0:0:0:0:
256,160,79556,1,0,0:0:0:0:
224,192,79610,1,0,0:0:0:0:
416,128,79616,1,0,0:0:0:0:
64,32,79694,1,0,0:0:0:0:
128,224,79826,1,0,0:0:0:0:
448,96,79844,1,0,0:0:0:0:
320,96,79958,1,0,0:0:0:0:
64,96,80036,1,0,0:0:0:0:
288,64,80048,1,0,0:0:0:0:
256,256,80246,1,0,0:0:0:0:
352,256,80258,1,0,0:0:0:0:
416,224,80294,1,0,0:0:0:0:
224,96,80336,1,0,0:0:0:0:
224,288,80384,1,0,0:0:0:0:
128,32,80402,1,0,0:0:0:0:
96,256,80408,1,0,0:0:0:0:
64,256,80414,1,0,0:0:0:0:
128,288,80480,1,0,0:0:0:0:
192,320,80552,1,0,0:0:0:0:
128,64,80630,1,0,0:0:0:0:
96,128,80642,1,0,0:0:0:0:
448,32,80666,1,0,0:0:0:0:
256,256,80726,1,0,0:0:0:0:
128,64,80756,1,0,0:0:0:0:
96,256,80822,1,0,0:0:0:0:
224,320,80834,1,0,0:0:0:0:
128,128,80852,1,0,0:0:0:0:
160,128,81002,1,0,0:0:0:0:
480,32,81026,1,0,0:0:0:0:
352,256,81038,1,0,0:0:0:0:
96,256,81188,1,0,0:0:0:0:
416,160,81194,1,0,0:0:0:0:
384,160,81224,1,0,0:0:0:0:
352,320,81254,1,0,0:0:0:0:
96,192,81308,1,0,0:0:0:0:
160,224,81332,1,0,0:0:0:0:
416,288,81398,1,0,0:0:0:0:
384,288,81404,1,0,0:0:0:0:
352,288,81452,1,0,0:0:0:0:
480,128,81500,1,0,0:0:0:0:
384,96,81674,1,0,0:0:0:0:
448,256,81848,1,0,0:0:0:0:
448,320,81890,1,0,0:0:0:0:
320,64,81902,1,0,0:0:0:0:
64,256,81908,1,0,0:0:0:0:
224,288,81914,1,0,0:0:0:0:
224,192,82106,1,0,0:0:0:0:
64,352,82160,1,0,0:0:0:0:
128,352,82196,1,0,0:0:0:0:
64,160,82286,1,0,0:0:0:0:
256,128,82418,1,0,0:0:0:0:
288,256,82514,1,0,0:0:0:0:
192,96,82520,1,0,0:0:0:0:
192,256,82532,1,0,0:0:0:0:
64,352,82550,1,0,0:0:0:0:
352,192,82742,1,0,0:0:0:0:
160,96,82898,1,0,0:0:0:0:
288,256,82922,1,0,0:0:0:0:
224,160,82940,1,0,0:0:0:0:
96,32,83006,1,0,0:0:0:0:
96,256,83012,1,0,0:0:0:0:
224,192,83024,1,0,0:0:0:0:
320,192,83042,1,0,0:0:0:0:
96,224,83048,1,0,0:0:0:0:
64,96,83066,1,0,0:0:0:0:
224,288,83234,1,0,0:0:0:0:
192,192,83282,1,0,0:0:0:0:
288,192,83318,1,0,0:0:0:0:
128,64,83396,1,0,0:0:0:0:
224,128,83408,1,0,0:0:0:0:
384,320,83432,1,0,0:0:0:0:
192,128,83456,1,0,0:0:0:0:
384,96,83630,1,0,0:0:0:0:
384,96,83798,1,0,0:0:0:0:
352,224,83816,1,0,0:0:0:0:
352,32,83822,1,0,0:0:0:0:
128,288,83858,1,0,0:0:0:0:
160,288,83912,1,0,0:0:0:0:
128,128,83996,1,0,0:0:0:0:
192,192,84032,1,0,0:0:0:0:
480,384,84104,1,0,0:0:0:0:
480,192,84242,1,0,0:0:0:0:
256,64,84248,1,0,0:0:0:0:
192,288,84254,1,0,0:0:0:0:
448,96,84278,1,0,0:0:0:0:
416,320,84344,1,0,0:0:0:0:
192,128,84392,1,0,0:0:0:0:
192,96,84398,1,0,0:0:0:0:
448,160,84470,1,0,0:0:0:0:
448,192,84620,1,0,0:0:0:0:
448,224,84644,1,0,0:0:0:0:
160,288,84680,1,0,0:0:0:0:
288,224,84686,1,0,0:0:0:0:
448,320,84734,1,0,0:0:0:0:
352,96,84788,1,0,0:0:0:0:
64,64,84854,1,0,0:0:0:0:
448,96,84878,1,0,0:0:0:0:
320,288,84962,1,0,0:0:0:0:
320,288,85034,1,0,0:0:0:0:
288,224,85046,1,0,0:0:0:0:
288,288,85070,1,0,0:0:0:0:
320,224,85094,1,0,0:0:0:0:
352,288,85172,1,0,0:0:0:0:
480,224,85196,1,0,0:0:0:0:
384,320,85250,1,0,0:0:0:0:
384,320,85286,1,0,0:0:0:0:
320,128,85310,1,0,0:0:0:0:
96,160,85376,1,0,0:0:0:0:
192,288,85430,1,0,0:0:0:0:
288,96,85466,1,0,0:0:0:0:
160,160,85490,1,0,0:0:0:0:
160,192,85496,1,0,0:0:0:0:
224,224,85526,1,0,0:0:0:0:
192,288,85532,1,0,0:0:0:0:
288,64,85598,1,0,0:0:0:0:
192,128,85610,1,0,0:0:0:0:
192,160,85634,1,0,0:0:0:0:
288,320,85706,1,0,0:0:0:0:
64,288,85724,1,0,0:0:0:0:
224,160,85880,1,0,0:0:0:0:
288,160,85910,1,0,0:0:0:0:
192,32,86036,1,0,0:0:0:0:
224,128,86090,1,0,0:0:0:0:
160,32,86126,1,0,0:0:0:0:
256,320,86138,1,0,0:0:0:0:
128,64,86156,1,0,0:0:0:0:
224,320,86252,1,0,0:0:0:0:
160,224,86270,1,0,0:0:0:0:
256,192,86294,1,0,0:0:0:0:
352,64,86300,1,0,0:0:0:0:
160,256,86372,1,0,0:0:0:0:
352,0,86420,1,0,0:0:0:0:
128,64,86444,1,0,0:0:0:0:
256,192,86456,1,0,0:0:0:0:
128,320,86480,1,0,0:0:0:0:
192,32,86504,1,0,0:0:0:0:
128,96,86552,1,0,0:0:0:0:
64,64,86570,1,0,0:0:0:0:
256,64,86594,1,0,0:0:0:0:
352,320,86618,1,0,0:0:0:0:
256,160,86648,1,0,0:0:0:0:
96,128,86684,1,0,0:0:0:0:
448,64,86804,1,0,0:0:0:0:
416,288,86834,1,0,0:0:0:0:
320,288,86930,1,0,0:0:0:0:
64,160,86936,1,0,0:0:0:0:
352,256,86954,1,0,0:0:0:0:
480,64,86960,1,0,0:0:0:0:
256,192,86978,1,0,0:0:0:0:
32,160,86990,1,0,0:0:0:0:
64,192,87032,1,0,0:0:0:0:
224,256,87038,1,0,0:0:0:0:
160,224,87050,1,0,0:0:0:0:
352,224,87056,1,0,0:0:0:0:
96,64,87062,1,0,0:0:0:0:
256,192,87146,1,0,0:0:0:0:
32,32,87188,1,0,0:0:0:0:
192,160,87260,1,0,0:0:0:0:
480,64,87320,1,0,0:0:0:0:
320,128,87392,1,0,0:0:0:0:
192,224,87410,1,0,0:0:0:0:
384,64,87488,1,0,0:0:0:0:
288,224,87536,1,0,0:0:0:0:
64,192,87632,1,0,0:0:0:0:
480,352,87680,1,0,0:0:0:0:
288,224,87704,1,0,0:0:0:0:
64,320,87776,1,0,0:0:0:0:
192,96,87896,1,0,0:0:0:0:
224,288,87974,2,0,B|416:192|448:224|448:224|320:96|256:96|96:128|256:32|128:224|128:224|416:64,136,719.999980926514
64,160,88034,1,0,0:0:0:0:
96,288,88070,1,0,0:0:0:0:
352,160,88118,1,0,0:0:0:0:
288,192,88142,1,0,0:0:0:0:
352,160,88304,1,0,0:0:0:0:
64,192,88436,1,0,0:0:0:0:
288,160,88520,1,0,0:0:0:0:
64,64,88526,1,0,0:0:0:0:
320,320,88586,1,0,0:0:0:0:
288,128,88712,1,0,0:0:0:0:
224,64,88718,1,0,0:0:0:0:
64,96,88946,1,0,0:0:0:0:
96,160,89138,1,0,0:0:0:0:
416,192,89192,1,0,0:0:0:0:
480,96,89270,1,0,0:0:0:0:
128,96,89306,1,0,0:0:0:0:
256,192,89318,1,0,0:0:0:0:
224,160,89564,1,0,0:0:0:0:
480,224,89720,1,0,0:0:0:0:
192,160,89780,1,0,0:0:0:0:
352,320,89792,1,0,0:0:0:0:
160,64,89870,1,0,0:0:0:0:
160,352,89942,1,0,0:0:0:0:
256,160,89978,1,0,0:0:0:0:
192,320,90074,1,0,0:0:0:0:
416,192,90116,1,0,0:0:0:0:
448,128,90194,1,0,0:0:0:0:
288,192,90218,1,0,0:0:0:0:
352,320,90254,1,0,0:0:0:0:
288,160,90446,1,0,0:0:0:0:
128,320,90608,1,0,0:0:0:0:
288,160,90614,1,0,0:0:0:0:
64,256,90632,1,0,0:0:0:0:
416,320,90734,1,0,0:0:0:0:
224,64,90758,1,0,0:0:0:0:
288,160,90836,1,0,0:0:0:0:
288,160,91076,1,0,0:0:0:0:
160,352,91166,1,0,0:0:0:0:
416,320,91172,1,0,0:0:0:0:
256,192,91298,1,0,0:0:0:0:
256,224,91526,1,0,0:0:0:0:
128,288,91562,1,0,0:0:0:0:
448,320,91616,1,0,0:0:0:0:
416,224,91748,1,0,0:0:0:0:
288,160,91928,1,0,0:0:0:0:
352,256,91946,1,0,0:0:0:0:
96,320,91958,1,0,0:0:0:0:
416,256,92000,1,0,0:0:0:0:
192,256,92084,1,0,0:0:0:0:
192,192,92246,1,0,0:0:0:0:
128,288,92354,1,0,0:0:0:0:
128,192,92396,1,0,0:0:0:0:
96,64,92402,1,0,0:0:0:0:
128,160,92462,1,0,0:0:0:0:
160,128,92558,1,0,0:0:0:0:
288,224,92624,1,0,0:0:0:0:
352,224,92654,1,0,0:0:0:0:
352,288,92696,1,0,0:0:0:0:
224,224,92786,1,0,0:0:0:0:
96,64,92792,1,0,0:0:0:0:
288,320,92798,1,0,0:0:0:0:
128,64,92906,1,0,0:0:0:0:
384,96,93056,1,0,0:0:0:0:
320,288,93062,1,0,0:0:0:0:
96,288,93104,1,0,0:0:0:0:
384,320,93170,1,0,0:0:0:0:
384,96,93194,1,0,0:0:0:0:
512,128,93200,1,0,0:0:0:0:
352,320,93212,1,0,0:0:0:0:
320,128,93320,1,0,0:0:0:0:
384,192,93338,1,0,0:0:0:0:
352,256,93368,1,0,0:0:0:0:
160,64,93374,1,0,0:0:0:0:
352,288,93410,1,0,0:0:0:0:
384,64,93440,1,0,0:0:0:0:
96,224,93458,1,0,0:0:0:0:
352,64,93536,1,0,0:0:0:0:
352,128,93542,1,0,0:0:0:0:
256,224,93638,1,0,0:0:0:0:
128,288,93710,1,0,0:0:0:0:
352,224,93722,1,0,0:0:0:0:
224,64,93824,1,0,0:0:0:0:
512,0,93854,1,0,0:0:0:0:
96,192,93872,1,0,0:0:0:0:
320,224,93956,1,0,0:0:0:0:
96,288,93998,1,0,0:0:0:0:
288,224,94058,1,0,0:0:0:0:
448,288,94130,1,0,0:0:0:0:
256,288,94160,1,0,0:0:0:0:
320,64,94190,1,0,0:0:0:0:
448,96,94322,1,0,0:0:0:0:
256,192,94340,1,0,0:0:0:0:
64,256,94352,1,0,0:0:0:0:
288,32,94394,1,0,0:0:0:0:
160,256,94400,1,0,0:0:0:0:
32,64,94454,1,0,0:0:0:0:
512,288,94550,1,0,0:0:0:0:
160,192,94604,1,0,0:0:0:0:
256,64,94634,1,0,0:0:0:0:
96,64,94694,1,0,0:0:0:0:
64,192,94730,1,0,0:0:0:0:
512,288,94814,1,0,0:0:0:0:
416,256,94820,1,0,0:0:0:0:
352,192,94874,1,0,0:0:0:0:
32,160,94892,1,0,0:0:0:0:
192,96,94910,1,0,0:0:0:0:
448,320,95000,1,0,0:0:0:0:
64,352,95090,1,0,0:0:0:0:
256,384,95246,1,0,0:0:0:0:
192,320,95288,1,0,0:0:0:0:
416,320,95294,1,0,0:0:0:0:
448,352,95312,1,0,0:0:0:0:
160,160,95318,1,0,0:0:0:0:
64,128,95366,1,0,0:0:0:0:
192,288,95420,1,0,0:0:0:0:
320,128,95462,1,0,0:0:0:0:
160,320,95468,1,0,0:0:0:0:
288,192,95576,1,0,0:0:0:0:
128,64,95600,1,0,0:0:0:0:
96,192,95606,1,0,0:0:0:0:
256,192,95636,1,0,0:0:0:0:
128,288,95792,1,0,0:0:0:0:
288,192,95888,1,0,0:0:0:0:
192,224,95924,1,0,0:0:0:0:
128,256,95960,1,0,0:0:0:0:
320,352,95966,1,0,0:0:0:0:
416,128,95984,1,0,0:0:0:0:
256,256,96056,1,0,0:0:0:0:
128,96,96062,1,0,0:0:0:0:
384,160,96140,1,0,0:0:0:0:
160,64,96146,1,0,0:0:0:0:
192,320,96254,1,0,0:0:0:0:
352,128,96290,1,0,0:0:0:0:
224,64,96332,1,0,0:0:0:0:
256,192,96428,1,0,0:0:0:0:
416,224,96494,1,0,0:0:0:0:
256,64,96536,1,0,0:0:0:0:
352,160,96680,1,0,0:0:0:0:
352,64,96734,1,0,0:0:0:0:
256,128,96812,1,0,0:0:0:0:
448,96,96830,1,0,0:0:0:0:
448,128,96872,1,0,0:0:0:0:
64,288,96878,1,0,0:0:0:0:
416,128,96926,1,0,0:0:0:0:
160,224,97112,1,0,0:0:0:0:
288,224,97136,1,0,0:0:0:0:
320,224,97148,1,0,0:0:0:0:
288,288,97226,1,0,0:0:0:0:
192,256,97238,1,0,0:0:0:0:
32,288,97256,1,0,0:0:0:0:
384,224,97286,1,0,0:0:0:0:
224,128,97328,1,0,0:0:0:0:
352,96,97418,1,0,0:0:0:0:
448,288,97430,1,0,0:0:0:0:
448,32,97454,1,0,0:0:0:0:
192,192,97514,1,0,0:0:0:0:
256,288,97538,1,0,0:0:0:0:
64,64,97544,1,0,0:0:0:0:
192,160,97598,1,0,0:0:0:0:
32,256,97610,1,0,0:0:0:0:
352,256,97664,1,0,0:0:0:0:
416,160,97712,1,0,0:0:0:0:
448,288,97730,1,0,0:0:0:0:
160,160,97736,1,0,0:0:0:0:
256,192,97784,1,0,0:0:0:0:
352,224,97832,1,0,0:0:0:0:
352,32,97856,1,0,0:0:0:0:
416,160,97916,1,0,0:0:0:0:
96,320,97940,1,0,0:0:0:0:
384,288,97946,1,0,0:0:0:0:
448,320,97958,1,0,0:0:0:0:
352,288,97976,1,0,0:0:0:0:
256,256,98018,1,0,0:0:0:0:
320,64,98036,1,0,0:0:0:0:
96,160,98066,1,0,0:0:0:0:
224,0,98114,1,0,0:0:0:0:
256,64,98162,1,0,0:0:0:0:
96,96,98180,1,0,0:0:0:0:
192,64,98192,1,0,0:0:0:0:
224,160,98240,1,0,0:0:0:0:
352,288,98270,1,0,0:0:0:0:
416,160,98348,1,0,0:0:0:0:
128,128,98354,1,0,0:0:0:0:
160,352,98372,1,0,0:0:0:0:
256,32,98384,1,0,0:0:0:0:
288,192,98510,1,0,0:0:0:0:
192,64,98546,1,0,0:0:0:0:
320,96,98576,1,0,0:0:0:0:
96,160,98666,1,0,0:0:0:0:
256,320,98720,1,0,0:0:0:0:
320,288,98834,1,0,0:0:0:0:
448,224,98852,1,0,0:0:0:0:
0,288,98876,1,0,0:0:0:0:
192,288,98972,1,0,0:0:0:0:
64,96,98984,1,0,0:0:0:0:
256,64,98990,1,0,0:0:0:0:
352,160,99050,1,0,0:0:0:0:
352,128,99086,1,0,0:0:0:0:
192,320,99098,1,0,0:0:0:0:
160,64,99122,1,0,0:0:0:0:
384,128,99182,1,0,0:0:0:0:
288,288,99296,1,0,0:0:0:0:
192,128,99302,1,0,0:0:0:0:
384,64,99308,1,0,0:0:0:0:
320,192,99320,1,0,0:0:0:0:
416,224,99344,1,0,0:0:0:0:
416,128,99398,1,0,0:0:0:0:
384,160,99416,1,0,0:0:0:0:
480,224,99422,1,0,0:0:0:0:
192,128,99452,1,0,0:0:0:0:
448,224,99470,1,0,0:0:0:0:
416,128,99536,1,0,0:0:0:0:
288,128,99542,1,0,0:0:0:0:
352,128,99548,1,0,0:0:0:0:
128,32,99554,1,0,0:0:0:0:
448,224,99626,1,0,0:0:0:0:
416,64,99674,1,0,0:0:0:0:
96,288,99704,1,0,0:0:0:0:
448,32,99812,1,0,0:0:0:0:
448,192,99842,1,0,0:0:0:0:
320,160,99848,1,0,0:0:0:0:
192,160,99890,1,0,0:0:0:0:
96,128,99956,1,0,0:0:0:0:
384,160,99968,1,0,0:0:0:0:
352,96,99998,1,0,0:0:0:0:
416,192,100028,1,0,0:0:0:0:
96,96,100034,1,0,0:0:0:0:
288,128,100088,1,0,0:0:0:0:
448,288,100094,1,0,0:0:0:0:
224,128,100130,1,0,0:0:0:0:
320,160,100196,1,0,0:0:0:0:
416,64,100238,1,0,0:0:0:0:
96,160,100346,1,0,0:0:0:0:
288,256,100370,1,0,0:0:0:0:
128,192,100412,1,0,0:0:0:0:
64,160,100454,1,0,0:0:0:0:
96,32,100466,1,0,0:0:0:0:
256,288,100472,1,0,0:0:0:0:
224,96,100508,1,0,0:0:0:0:
288,224,100556,1,0,0:0:0:0:
448,320,100580,1,0,0:0:0:0:
288,288,100592,1,0,0:0:0:0:
384,96,100622,1,0,0:0:0:0:
224,64,100628,1,0,0:0:0:0:
160,192,100640,1,0,0:0:0:0:
256,160,100748,1,0,0:0:0:0:
224,320,100838,1,0,0:0:0:0:
32,32,100880,1,0,0:0:0:0:
256,288,100910,1,0,0:0:0:0:
224,192,101012,1,0,0:0:0:0:
160,288,101030,1,0,0:0:0:0:
416,96,101036,1,0,0:0:0:0:
480,320,101048,1,0,0:0:0:0:
192,96,101078,1,0,0:0:0:0:
192,128,101198,1,0,0:0:0:0:
128,288,101294,1,0,0:0:0:0:
128,288,101348,1,0,0:0:0:0:
32,128,101384,1,0,0:0:0:0:
96,224,101420,1,0,0:0:0:0:
192,192,101438,1,0,0:0:0:0:
256,288,101498,1,0,0:0:0:0:
288,64,101522,1,0,0:0:0:0:
64,192,101552,1,0,0:0:0:0:
288,288,101558,1,0,0:0:0:0:
256,256,101624,1,0,0:0:0:0:
192,256,101630,1,0,0:0:0:0:
352,320,101654,1,0,0:0:0:0:
192,128,101660,1,0,0:0:0:0:
288,320,101690,1,0,0:0:0:0:
288,288,101726,1,0,0:0:0:0:
352,224,101762,1,0,0:0:0:0:
128,64,101834,1,0,0:0:0:0:
288,288,101882,1,0,0:0:0:0:
320,288,101906,1,0,0:0:0:0:
160,192,101942,1,0,0:0:0:0:
256,256,101966,1,0,0:0:0:0:
96,352,102050,1,0,0:0:0:0:
128,64,102074,1,0,0:0:0:0:
448,320,102110,1,0,0:0:0:0:
160,32,102176,1,0,0:0:0:0:
160,128,102194,1,0,0:0:0:0:
416,96,102200,1,0,0:0:0:0:
352,192,102224,1,0,0:0:0:0:
384,160,102254,1,0,0:0:0:0:
416,192,102374,1,0,0:0:0:0:
448,64,102434,1,0,0:0:0:0:
448,128,102440,1,0,0:0:0:0:
320,160,102566,1,0,0:0:0:0:
352,160,102602,1,0,0:0:0:0:
352,64,102614,1,0,0:0:0:0:
160,256,102674,1,0,0:0:0:0:
448,192,102812,1,0,0:0:0:0:
192,256,102908,1,0,0:0:0:0:
320,64,102926,1,0,0:0:0:0:
288,224,102932,1,0,0:0:0:0:
288,64,103010,1,0,0:0:0:0:
384,224,103076,1,0,0:0:0:0:
160,96,103142,1,0,0:0:0:0:
320,96,103160,1,0,0:0:0:0:
288,192,103172,1,0,0:0:0:0:
32,64,103280,1,0,0:0:0:0:
416,224,103298,1,0,0:0:0:0:
320,160,103406,1,0,0:0:0:0:
32,64,103472,1,0,0:0:0:0:
416,224,103490,1,0,0:0:0:0:
96,256,103496,1,0,0:0:0:0:
256,128,103544,1,0,0:0:0:0:
256,288,103550,1,0,0:0:0:0:
192,224,103556,1,0,0:0:0:0:
96,160,103574,1,0,0:0:0:0:
320,192,103580,1,0,0:0:0:0:
192,192,103628,1,0,0:0:0:0:
32,256,103640,1,0,0:0:0:0:
96,256,103688,1,0,0:0:0:0:
192,96,103724,1,0,0:0:0:0:
192,352,103730,1,0,0:0:0:0:
224,320,103742,1,0,0:0:0:0:
320,352,103748,1,0,0:0:0:0:
448,352,103754,1,0,0:0:0:0:
480,320,103760,1,0,0:0:0:0:
480,96,103772,1,0,0:0:0:0:
384,64,103778,1,0,0:0:0:0:
352,256,103898,1,0,0:0:0:0:
256,256,103922,1,0,0:0:0:0:
416,224,104048,1,0,0:0:0:0:
384,256,104090,1,0,0:0:0:0:
352,96,104144,1,0,0:0:0:0:
224,288,104258,1,0,0:0:0:0:
96,64,104282,1,0,0:0:0:0:
128,96,104366,1,0,0:0:0:0:
416,256,104378,1,0,0:0:0:0:
192,224,104432,1,0,0:0:0:0:
384,320,104558,1,0,0:0:0:0:
128,320,104606,1,0,0:0:0:0:
96,128,104726,1,0,0:0:0:0:
352,320,104762,1,0,0:0:0:0:
448,192,104822,1,0,0:0:0:0:
448,288,104828,1,0,0:0:0:0:
128,160,104870,1,0,0:0:0:0:
448,224,104888,1,0,0:0:0:0:
160,64,104912,1,0,0:0:0:0:
192,224,104960,1,0,0:0:0:0:
224,32,104966,1,0,0:0:0:0:
256,64,104978,1,0,0:0:0:0:
256,192,104984,1,0,0:0:0:0:
224,128,105002,1,0,0:0:0:0:
224,96,105008,1,0,0:0:0:0:
192,128,105014,1,0,0:0:0:0:
160,128,105020,1,0,0:0:0:0:
32,192,105026,1,0,0:0:0:0:
64,192,105032,1,0,0:0:0:0:
192,288,105038,1,0,0:0:0:0:
160,288,105050,1,0,0:0:0:0:
288,288,105056,1,0,0:0:0:0:
448,64,105062,1,0,0:0:0:0:
448,64,105068,1,0,0:0:0:0:
320,192,105074,1,0,0:0:0:0:
384,288,105086,1,0,0:0:0:0:
416,224,105092,1,0,0:0:0:0:
448,128,105098,1,0,0:0:0:0:
480,384,105104,1,0,0:0:0:0:
128,192,105110,1,0,0:0:0:0:
32,256,105128,1,0,0:0:0:0:
32,128,105134,1,0,0:0:0:0:
32,32,105140,1,0,0:0:0:0:
32,0,105146,1,0,0:0:0:0:
352,32,105164,1,0,0:0:0:0:
416,64,105182,1,0,0:0:0:0:
416,192,105200,1,0,0:0:0:0:
320,224,105206,1,0,0:0:0:0:
192,384,105212,1,0,0:0:0:0:
128,320,105218,1,0,0:0:0:0:
64,320,105224,1,0,0:0:0:0:
288,320,105230,1,0,0:0:0:0:
320,320,105236,1,0,0:0:0:0:
352,256,105242,1,0,0:0:0:0:
352,32,105248,1,0,0:0:0:0:
256,128,105350,1,0,0:0:0:0:
128,192,105488,1,0,0:0:0:0:
160,192,105572,1,0,0:0:0:0:
288,256,105686,1,0,0:0:0:0:
192,128,105692,1,0,0:0:0:0:
288,256,105716,1,0,0:0:0:0:
128,256,105770,1,0,0:0:0:0:
96,256,105848,1,0,0:0:0:0:
96,192,105926,1,0,0:0:0:0:
64,128,105956,1,0,0:0:0:0:
128,224,106010,1,0,0:0:0:0:
384,192,106022,1,0,0:0:0:0:
416,256,106028,1,0,0:0:0:0:
320,160,106034,1,0,0:0:0:0:
320,64,106040,1,0,0:0:0:0:
352,128,106052,1,0,0:0:0:0:
352,128,106058,1,0,0:0:0:0:
64,256,106070,1,0,0:0:0:0:
96,320,106082,1,0,0:0:0:0:
64,288,106100,1,0,0:0:0:0:
128,320,106106,1,0,0:0:0:0:
128,32,106112,1,0,0:0:0:0:
160,32,106118,1,0,0:0:0:0:
64,32,106196,1,0,0:0:0:0:
448,96,106202,1,0,0:0:0:0:
64,96,106208,1,0,0:0:0:0:
64,96,106226,1,0,0:0:0:0:
96,128,106244,1,0,0:0:0:0:
224,64,106268,1,0,0:0:0:0:
160,128,106430,1,0,0:0:0:0:
224,224,106538,1,0,0:0:0:0:
224,320,106574,1,0,0:0:0:0:
480,288,106610,1,0,0:0:0:0:
352,320,106628,1,0,0:0:0:0:
320,320,106634,1,0,0:0:0:0:
416,224,106640,1,0,0:0:0:0:
352,64,106646,1,0,0:0:0:0:
288,64,106652,1,0,0:0:0:0:
256,96,106658,1,0,0:0:0:0:
256,160,106730,1,0,0:0:0:0:
64,32,106748,1,0,0:0:0:0:
64,32,106754,1,0,0:0:0:0:
96,160,106760,1,0,0:0:0:0:
480,32,106778,1,0,0:0:0:0:
480,32,106784,1,0,0:0:0:0:
384,192,106790,1,0,0:0:0:0:
416,256,106796,1,0,0:0:0:0:
352,96,106820,1,0,0:0:0:0:
96,224,106856,1,0,0:0:0:0:
224,96,107156,1,0,0:0:0:0:
128,64,107168,1,0,0:0:0:0:
128,64,107174,1,0,0:0:0:0:
256,32,107186,1,0,0:0:0:0:
480,64,107198,1,0,0:0:0:0:
480,352,107210,1,0,0:0:0:0:
384,352,107216,1,0,0:0:0:0:
96,320,107228,1,0,0:0:0:0:
224,320,107234,1,0,0:0:0:0:
448,288,107240,1,0,0:0:0:0:
128,288,107246,1,0,0:0:0:0:
256,256,107247,1,0,0:0:0:0:
352,64,107258,1,0,0:0:0:0:
448,96,107264,1,0,0:0:0:0:
512,224,107270,1,0,0:0:0:0:
224,288,107282,1,0,0:0:0:0:
224,288,107288,1,0,0:0:0:0:
384,320,107294,1,0,0:0:0:0:
384,32,107318,1,0,0:0:0:0:
192,96,107336,1,0,0:0:0:0:
96,160,107348,1,0,0:0:0:0:
352,256,107480,1,0,0:0:0:0:
256,256,107510,1,0,0:0:0:0:
384,96,107528,1,0,0:0:0:0:
320,128,107552,1,0,0:0:0:0:
320,128,107558,1,0,0:0:0:0:
480,160,107564,1,0,0:0:0:0:
128,128,107570,1,0,0:0:0:0:
32,64,107594,1,0,0:0:0:0:
32,64,107600,1,0,0:0:0:0:
64,128,107606,1,0,0:0:0:0:
192,128,107612,1,0,0:0:0:0:
224,128,107618,1,0,0:0:0:0:
288,320,107624,1,0,0:0:0:0:
160,288,107630,1,0,0:0:0:0:
96,288,107636,1,0,0:0:0:0:
0,320,107642,1,0,0:0:0:0:
224,256,107654,1,0,0:0:0:0:
480,192,107660,1,0,0:0:0:0:
352,64,107678,1,0,0:0:0:0:
128,32,107690,1,0,0:0:0:0:
128,32,107696,1,0,0:0:0:0:
256,32,107708,1,0,0:0:0:0:
224,32,107714,1,0,0:0:0:0:
160,64,107726,1,0,0:0:0:0:
160,64,107732,1,0,0:0:0:0:
96,96,107738,1,0,0:0:0:0:
288,288,107762,1,0,0:0:0:0:
96,320,107774,1,0,0:0:0:0:
192,320,107786,1,0,0:0:0:0:
160,352,107792,1,0,0:0:0:0:
320,128,107804,1,0,0:0:0:0:
352,96,107810,1,0,0:0:0:0:
416,160,107816,1,0,0:0:0:0:
416,224,107822,1,0,0:0:0:0:
256,96,108146,1,0,0:0:0:0:
128,288,108224,1,0,0:0:0:0:
384,288,108236,1,0,0:0:0:0:
448,96,108248,1,0,0:0:0:0:
416,64,108254,1,0,0:0:0:0:
64,160,108266,1,0,0:0:0:0:
64,192,108272,1,0,0:0:0:0:
96,256,108278,1,0,0:0:0:0:
256,224,108284,1,0,0:0:0:0:
224,224,108290,1,0,0:0:0:0:
320,160,108302,1,0,0:0:0:0:
224,96,108308,1,0,0:0:0:0:
96,32,108320,1,0,0:0:0:0:
256,64,108326,1,0,0:0:0:0:
416,96,108332,1,0,0:0:0:0:
384,256,108344,1,0,0:0:0:0:
224,288,108350,1,0,0:0:0:0:
32,256,108356,1,0,0:0:0:0:
32,352,108374,1,0,0:0:0:0:
32,320,108422,1,0,0:0:0:0:
32,160,108434,1,0,0:0:0:0:
32,96,108458,1,0,0:0:0:0:
288,96,108464,1,0,0:0:0:0:
96,32,108470,1,0,0:0:0:0:
256,32,108476,1,0,0:0:0:0:
416,64,108482,1,0,0:0:0:0:
480,32,108494,1,0,0:0:0:0:
512,64,108500,1,0,0:0:0:0:
512,160,108506,1,0,0:0:0:0:
480,288,108512,1,0,0:0:0:0:
192,320,108518,1,0,0:0:0:0:
128,96,108584,1,0,0:0:0:0:
352,288,108596,1,0,0:0:0:0:
384,96,108608,1,0,0:0:0:0:
352,96,108614,1,0,0:0:0:0:
416,256,108626,1,0,0:0:0:0:
480,192,108638,1,0,0:0:0:0:
448,128,108644,1,0,0:0:0:0:
480,96,108650,1,0,0:0:0:0:
128,96,108716,1,0,0:0:0:0:
288,288,108722,1,0,0:0:0:0:
352,320,108728,1,0,0:0:0:0:
352,352,108734,1,0,0:0:0:0:
512,352,108740,1,0,0:0:0:0:
448,160,108746,1,0,0:0:0:0:
384,32,108752,1,0,0:0:0:0:
160,128,108758,1,0,0:0:0:0:
448,256,108770,1,0,0:0:0:0:
448,320,108776,1,0,0:0:0:0:
384,352,108782,1,0,0:0:0:0:
64,128,108896,1,0,0:0:0:0:
32,192,109016,1,0,0:0:0:0:
416,192,109076,1,0,0:0:0:0:
352,96,109082,1,0,0:0:0:0:
64,256,109094,1,0,0:0:0:0:
128,320,109100,1,0,0:0:0:0:
448,256,109106,1,0,0:0:0:0:
480,96,109112,1,0,0:0:0:0:
384,64,109118,1,0,0:0:0:0:
64,192,109130,1,0,0:0:0:0:
128,288,109136,1,0,0:0:0:0:
352,288,109148,1,0,0:0:0:0:
352,352,109178,1,0,0:0:0:0:
160,224,109538,1,0,0:0:0:0:
288,64,109550,1,0,0:0:0:0:
416,32,109556,1,0,0:0:0:0:
128,96,109568,1,0,0:0:0:0:
448,256,109580,1,0,0:0:0:0:
192,288,109586,1,0,0:0:0:0:
32,320,109592,1,0,0:0:0:0:
480,192,109604,1,0,0:0:0:0:
160,128,109616,1,0,0:0:0:0:
0,64,109634,1,0,0:0:0:0:
96,32,109640,1,0,0:0:0:0:
128,96,109646,1,0,0:0:0:0:
32,128,109652,1,0,0:0:0:0:
160,32,109670,1,0,0:0:0:0:
256,64,109718,1,0,0:0:0:0:
224,96,109730,1,0,0:0:0:0:
192,128,109736,1,0,0:0:0:0:
256,224,109748,1,0,0:0:0:0:
192,256,109760,1,0,0:0:0:0:
256,288,109766,1,0,0:0:0:0:
224,320,109778,1,0,0:0:0:0:
224,64,109790,1,0,0:0:0:0:
224,64,109796,1,0,0:0:0:0:
288,32,109802,1,0,0:0:0:0:
352,128,109814,1,0,0:0:0:0:
32,352,111092,1,0,0:0:0:0:
32,320,111098,1,0,0:0:0:0:
32,288,111104,1,0,0:0:0:0:
32,256,111110,1,0,0:0:0:0:
32,224,111116,1,0,0:0:0:0:
32,192,111122,1,0,0:0:0:0:
32,160,111128,1,0,0:0:0:0:
32,160,111134,1,0,0:0:0:0:
32,128,111140,1,0,0:0:0:0:
32,96,111146,1,0,0:0:0:0:
32,64,111158,1,0,0:0:0:0:
32,32,111164,1,0,0:0:0:0:
32,0,111170,1,0,0:0:0:0:
64,0,111176,1,0,0:0:0:0:
96,0,111182,1,0,0:0:0:0:
128,0,111188,1,0,0:0:0:0:
160,0,111194,1,0,0:0:0:0:
192,0,111200,1,0,0:0:0:0:
224,0,111206,1,0,0:0:0:0:
64,128,111212,1,0,0:0:0:0:
96,128,111218,1,0,0:0:0:0:
128,128,111224,1,0,0:0:0:0:
160,128,111230,1,0,0:0:0:0:
192,128,111236,1,0,0:0:0:0:
0,0,113054,1,0,0:0:0:0:
0,32,113060,1,0,0:0:0:0:
0,64,113066,1,0,0:0:0:0:
0,96,113072,1,0,0:0:0:0:
0,128,113078,1,0,0:0:0:0:
0,160,113084,1,0,0:0:0:0:
0,192,113090,1,0,0:0:0:0:
0,224,113096,1,0,0:0:0:0:
0,256,113114,1,0,0:0:0:0:
0,288,113120,1,0,0:0:0:0:
0,320,113132,1,0,0:0:0:0:
0,352,113138,1,0,0:0:0:0:
32,352,113144,1,0,0:0:0:0:
64,352,113150,1,0,0:0:0:0:
96,352,113156,1,0,0:0:0:0:
128,352,113162,1,0,0:0:0:0:
160,352,113168,1,0,0:0:0:0:
192,352,113186,1,0,0:0:0:0:
224,352,113192,1,0,0:0:0:0:
256,352,113198,1,0,0:0:0:0:
256,320,113204,1,0,0:0:0:0:
256,288,113210,1,0,0:0:0:0:
256,256,113216,1,0,0:0:0:0:
256,224,113222,1,0,0:0:0:0:
256,192,113228,1,0,0:0:0:0:
256,160,113234,1,0,0:0:0:0:
256,128,113240,1,0,0:0:0:0:
256,96,113246,1,0,0:0:0:0:
256,64,113252,1,0,0:0:0:0:
256,32,113258,1,0,0:0:0:0:
256,0,113264,1,0,0:0:0:0:
128,224,114938,1,0,0:0:0:0:
96,128,114944,1,0,0:0:0:0:
256,64,114950,1,0,0:0:0:0:
352,160,114962,1,0,0:0:0:0:
416,64,114968,1,0,0:0:0:0:
480,224,114974,1,0,0:0:0:0:
224,224,114980,1,0,0:0:0:0:
384,256,114998,1,0,0:0:0:0:
128,64,115004,1,0,0:0:0:0:
96,224,115022,1,0,0:0:0:0:
384,320,115028,1,0,0:0:0:0:
128,320,115034,1,0,0:0:0:0:
192,160,115040,1,0,0:0:0:0:
32,64,115046,1,0,0:0:0:0:
448,320,115052,1,0,0:0:0:0:
416,192,115058,1,0,0:0:0:0:
288,128,115070,1,0,0:0:0:0:
288,96,115076,1,0,0:0:0:0:
256,224,115088,1,0,0:0:0:0:
192,320,115100,1,0,0:0:0:0:
192,192,115112,1,0,0:0:0:0:
416,288,115118,1,0,0:0:0:0:
320,192,115124,1,0,0:0:0:0:
288,160,115142,1,0,0:0:0:0:
192,128,115160,1,0,0:0:0:0:
224,96,115166,1,0,0:0:0:0:
384,32,115172,1,0,0:0:0:0:
480,0,115178,1,0,0:0:0:0:
512,32,115190,1,0,0:0:0:0:
480,96,115196,1,0,0:0:0:0:
512,192,115202,1,0,0:0:0:0:
96,352,120290,5,0,0:0:0:0:
96,320,120296,1,0,0:0:0:0:
96,288,120302,1,0,0:0:0:0:
96,256,120308,1,0,0:0:0:0:
96,224,120314,1,0,0:0:0:0:
96,192,120320,1,0,0:0:0:0:
96,160,120326,1,0,0:0:0:0:
96,128,120332,1,0,0:0:0:0:
0,96,120338,1,0,0:0:0:0:
32,96,120344,1,0,0:0:0:0:
64,96,120356,1,0,0:0:0:0:
96,96,120362,1,0,0:0:0:0:
128,96,120368,1,0,0:0:0:0:
160,96,120374,1,0,0:0:0:0:
192,96,120380,1,0,0:0:0:0:
256,352,120392,1,0,0:0:0:0:
256,320,120398,1,0,0:0:0:0:
256,288,120404,1,0,0:0:0:0:
256,224,120416,1,0,0:0:0:0:
256,128,120440,1,0,0:0:0:0:
256,96,120446,1,0,0:0:0:0:
288,96,120452,1,0,0:0:0:0:
320,96,120458,1,0,0:0:0:0:
352,96,120464,1,0,0:0:0:0:
384,96,120470,1,0,0:0:0:0:
384,160,120482,1,0,0:0:0:0:
384,192,120488,1,0,0:0:0:0:
352,192,120500,1,0,0:0:0:0:
320,192,120506,1,0,0:0:0:0:
288,192,120512,1,0,0:0:0:0:
320,224,120518,1,0,0:0:0:0:
352,256,120524,1,0,0:0:0:0:
384,288,120530,1,0,0:0:0:0:
384,320,120536,1,0,0:0:0:0:
384,352,120542,1,0,0:0:0:0:
32,64,121184,1,0,0:0:0:0:
32,96,121190,1,0,0:0:0:0:
32,128,121196,1,0,0:0:0:0:
32,160,121202,1,0,0:0:0:0:
32,192,121226,1,0,0:0:0:0:
32,224,121238,1,0,0:0:0:0:
32,256,121250,1,0,0:0:0:0:
32,288,121256,1,0,0:0:0:0:
32,320,121262,1,0,0:0:0:0:
128,320,121268,1,0,0:0:0:0:
128,288,121274,1,0,0:0:0:0:
128,256,121298,1,0,0:0:0:0:
128,224,121316,1,0,0:0:0:0:
128,192,121334,1,0,0:0:0:0:
128,160,121340,1,0,0:0:0:0:
128,128,121346,1,0,0:0:0:0:
128,96,121352,1,0,0:0:0:0:
128,64,121358,1,0,0:0:0:0:
160,64,121364,1,0,0:0:0:0:
192,64,121370,1,0,0:0:0:0:
224,64,121376,1,0,0:0:0:0:
256,64,121382,1,0,0:0:0:0:
256,96,121388,1,0,0:0:0:0:
256,128,121400,1,0,0:0:0:0:
256,160,121412,1,0,0:0:0:0:
256,192,121424,1,0,0:0:0:0:
256,224,121430,1,0,0:0:0:0:
256,256,121442,1,0,0:0:0:0:
256,288,121448,1,0,0:0:0:0:
256,320,121454,1,0,0:0:0:0:
224,320,121460,1,0,0:0:0:0:
192,320,121466,1,0,0:0:0:0:
160,320,121472,1,0,0:0:0:0:
320,64,121478,1,0,0:0:0:0:
320,96,121490,1,0,0:0:0:0:
320,128,121496,1,0,0:0:0:0:
320,160,121502,1,0,0:0:0:0:
320,192,121508,1,0,0:0:0:0:
320,224,121514,1,0,0:0:0:0:
320,256,121520,1,0,0:0:0:0:
320,288,121526,1,0,0:0:0:0:
320,320,121532,1,0,0:0:0:0:
384,320,121550,1,0,0:0:0:0:
384,288,121556,1,0,0:0:0:0:
384,256,121562,1,0,0:0:0:0:
384,224,121568,1,0,0:0:0:0:
384,192,121574,1,0,0:0:0:0:
384,160,121592,1,0,0:0:0:0:
384,128,121598,1,0,0:0:0:0:
384,96,121604,1,0,0:0:0:0:
384,64,121610,1,0,0:0:0:0:
416,64,121616,1,0,0:0:0:0:
448,64,121622,1,0,0:0:0:0:
480,64,121628,1,0,0:0:0:0:
512,64,121634,1,0,0:0:0:0:
512,96,121646,1,0,0:0:0:0:
512,128,121652,1,0,0:0:0:0:
512,160,121658,1,0,0:0:0:0:
512,192,121664,1,0,0:0:0:0:
512,224,121676,1,0,0:0:0:0:
512,256,121688,1,0,0:0:0:0:
512,288,121694,1,0,0:0:0:0:
512,320,121706,1,0,0:0:0:0:
480,320,121712,1,0,0:0:0:0:
448,320,121718,1,0,0:0:0:0:
416,320,121724,1,0,0:0:0:0:
32,64,122312,1,0,0:0:0:0:
32,96,122318,1,0,0:0:0:0:
32,128,122324,1,0,0:0:0:0:
32,160,122330,1,0,0:0:0:0:
32,192,122354,1,0,0:0:0:0:
32,224,122366,1,0,0:0:0:0:
32,256,122378,1,0,0:0:0:0:
32,288,122384,1,0,0:0:0:0:
32,320,122390,1,0,0:0:0:0:
128,320,122396,1,0,0:0:0:0:
128,288,122402,1,0,0:0:0:0:
128,256,122426,1,0,0:0:0:0:
128,224,122444,1,0,0:0:0:0:
128,192,122462,1,0,0:0:0:0:
128,160,122468,1,0,0:0:0:0:
128,128,122474,1,0,0:0:0:0:
128,96,122480,1,0,0:0:0:0:
128,64,122486,1,0,0:0:0:0:
160,64,122492,1,0,0:0:0:0:
192,64,122498,1,0,0:0:0:0:
224,64,122504,1,0,0:0:0:0:
256,64,122510,1,0,0:0:0:0:
256,96,122516,1,0,0:0:0:0:
256,128,122528,1,0,0:0:0:0:
256,160,122540,1,0,0:0:0:0:
256,192,122552,1,0,0:0:0:0:
256,224,122558,1,0,0:0:0:0:
256,256,122570,1,0,0:0:0:0:
256,288,122576,1,0,0:0:0:0:
256,320,122582,1,0,0:0:0:0:
224,320,122588,1,0,0:0:0:0:
192,320,122594,1,0,0:0:0:0:
160,320,122600,1,0,0:0:0:0:
320,64,122606,1,0,0:0:0:0:
320,96,122618,1,0,0:0:0:0:
320,128,122624,1,0,0:0:0:0:
320,160,122630,1,0,0:0:0:0:
320,192,122636,1,0,0:0:0:0:
320,224,122642,1,0,0:0:0:0:
320,256,122648,1,0,0:0:0:0:
320,288,122654,1,0,0:0:0:0:
320,320,122660,1,0,0:0:0:0:
384,320,122678,1,0,0:0:0:0:
384,288,122684,1,0,0:0:0:0:
384,256,122690,1,0,0:0:0:0:
384,224,122696,1,0,0:0:0:0:
384,192,122702,1,0,0:0:0:0:
384,160,122720,1,0,0:0:0:0:
384,128,122726,1,0,0:0:0:0:
384,96,122732,1,0,0:0:0:0:
384,64,122738,1,0,0:0:0:0:
416,64,122744,1,0,0:0:0:0:
512,64,122762,1,0,0:0:0:0:
512,96,122774,1,0,0:0:0:0:
512,128,122780,1,0,0:0:0:0:
512,160,122786,1,0,0:0:0:0:
512,192,122792,1,0,0:0:0:0:
512,224,122804,1,0,0:0:0:0:
512,256,122816,1,0,0:0:0:0:
512,288,122822,1,0,0:0:0:0:
512,320,122834,1,0,0:0:0:0:
480,320,122840,1,0,0:0:0:0:
448,320,122846,1,0,0:0:0:0:
416,320,122852,1,0,0:0:0:0:
32,64,123362,1,0,0:0:0:0:
32,96,123368,1,0,0:0:0:0:
32,128,123374,1,0,0:0:0:0:
32,160,123380,1,0,0:0:0:0:
32,192,123404,1,0,0:0:0:0:
32,224,123416,1,0,0:0:0:0:
32,256,123428,1,0,0:0:0:0:
32,288,123434,1,0,0:0:0:0:
128,320,123446,1,0,0:0:0:0:
128,288,123452,1,0,0:0:0:0:
128,256,123476,1,0,0:0:0:0:
128,224,123494,1,0,0:0:0:0:
128,192,123512,1,0,0:0:0:0:
128,160,123518,1,0,0:0:0:0:
128,128,123524,1,0,0:0:0:0:
128,96,123530,1,0,0:0:0:0:
128,64,123536,1,0,0:0:0:0:
160,64,123542,1,0,0:0:0:0:
192,64,123548,1,0,0:0:0:0:
224,64,123554,1,0,0:0:0:0:
256,64,123560,1,0,0:0:0:0:
256,96,123566,1,0,0:0:0:0:
256,128,123578,1,0,0:0:0:0:
256,160,123590,1,0,0:0:0:0:
256,192,123602,1,0,0:0:0:0:
256,224,123608,1,0,0:0:0:0:
256,256,123620,1,0,0:0:0:0:
256,288,123626,1,0,0:0:0:0:
256,320,123632,1,0,0:0:0:0:
224,320,123638,1,0,0:0:0:0:
192,320,123644,1,0,0:0:0:0:
160,320,123650,1,0,0:0:0:0:
320,64,123656,1,0,0:0:0:0:
320,96,123668,1,0,0:0:0:0:
320,128,123674,1,0,0:0:0:0:
320,160,123680,1,0,0:0:0:0:
320,192,123686,1,0,0:0:0:0:
320,224,123692,1,0,0:0:0:0:
320,256,123698,1,0,0:0:0:0:
320,288,123704,1,0,0:0:0:0:
320,320,123710,1,0,0:0:0:0:
384,320,123728,1,0,0:0:0:0:
384,288,123734,1,0,0:0:0:0:
384,256,123740,1,0,0:0:0:0:
384,224,123746,1,0,0:0:0:0:
384,192,123752,1,0,0:0:0:0:
384,160,123770,1,0,0:0:0:0:
384,128,123776,1,0,0:0:0:0:
384,96,123782,1,0,0:0:0:0:
384,64,123788,1,0,0:0:0:0:
416,64,123794,1,0,0:0:0:0:
512,64,123812,1,0,0:0:0:0:
512,96,123824,1,0,0:0:0:0:
512,128,123830,1,0,0:0:0:0:
512,160,123836,1,0,0:0:0:0:
512,192,123842,1,0,0:0:0:0:
512,224,123854,1,0,0:0:0:0:
512,256,123866,1,0,0:0:0:0:
512,288,123872,1,0,0:0:0:0:
512,320,123884,1,0,0:0:0:0:
480,320,123890,1,0,0:0:0:0:
448,320,123896,1,0,0:0:0:0:
416,320,123902,1,0,0:0:0:0:
32,32,124292,1,0,0:0:0:0:
64,32,124298,1,0,0:0:0:0:
96,32,124304,1,0,0:0:0:0:
128,32,124310,1,0,0:0:0:0:
160,32,124316,1,0,0:0:0:0:
192,32,124322,1,0,0:0:0:0:
192,64,124328,1,0,0:0:0:0:
192,96,124334,1,0,0:0:0:0:
192,128,124340,1,0,0:0:0:0:
192,160,124346,1,0,0:0:0:0:
192,64,124352,1,0,0:0:0:0:
192,192,124358,1,0,0:0:0:0:
192,224,124364,1,0,0:0:0:0:
192,256,124376,1,0,0:0:0:0:
192,288,124382,1,0,0:0:0:0:
192,320,124388,1,0,0:0:0:0:
160,320,124394,1,0,0:0:0:0:
128,320,124400,1,0,0:0:0:0:
96,320,124412,1,0,0:0:0:0:
64,320,124424,1,0,0:0:0:0:
32,320,124430,1,0,0:0:0:0:
32,288,124436,1,0,0:0:0:0:
32,256,124442,1,0,0:0:0:0:
32,224,124448,1,0,0:0:0:0:
32,192,124454,1,0,0:0:0:0:
32,160,124460,1,0,0:0:0:0:
32,128,124466,1,0,0:0:0:0:
32,96,124472,1,0,0:0:0:0:
32,64,124478,1,0,0:0:0:0:
320,32,124484,1,0,0:0:0:0:
352,32,124490,1,0,0:0:0:0:
384,32,124496,1,0,0:0:0:0:
416,32,124502,1,0,0:0:0:0:
448,32,124508,1,0,0:0:0:0:
480,32,124514,1,0,0:0:0:0:
480,64,124520,1,0,0:0:0:0:
480,96,124526,1,0,0:0:0:0:
480,128,124532,1,0,0:0:0:0:
480,160,124538,1,0,0:0:0:0:
480,192,124544,1,0,0:0:0:0:
480,224,124550,1,0,0:0:0:0:
480,256,124556,1,0,0:0:0:0:
480,288,124562,1,0,0:0:0:0:
480,320,124568,1,0,0:0:0:0:
448,320,124574,1,0,0:0:0:0:
416,320,124580,1,0,0:0:0:0:
384,320,124586,1,0,0:0:0:0:
352,320,124592,1,0,0:0:0:0:
320,320,124598,1,0,0:0:0:0:
320,288,124604,1,0,0:0:0:0:
320,256,124610,1,0,0:0:0:0:
320,224,124616,1,0,0:0:0:0:
320,192,124622,1,0,0:0:0:0:
320,160,124628,1,0,0:0:0:0:
320,128,124634,1,0,0:0:0:0:
320,96,124640,1,0,0:0:0:0:
320,64,124646,1,0,0:0:0:0:
0,352,127214,1,0,0:0:0:0:
0,320,127220,1,0,0:0:0:0:
0,288,127232,1,0,0:0:0:0:
0,256,127244,1,0,0:0:0:0:
0,224,127250,1,0,0:0:0:0:
0,192,127256,1,0,0:0:0:0:
0,160,127262,1,0,0:0:0:0:
0,128,127268,1,0,0:0:0:0:
0,96,127274,1,0,0:0:0:0:
0,64,127280,1,0,0:0:0:0:
0,32,127286,1,0,0:0:0:0:
0,0,127292,1,0,0:0:0:0:
32,0,127298,1,0,0:0:0:0:
64,0,127304,1,0,0:0:0:0:
96,0,127310,1,0,0:0:0:0:
128,0,127316,1,0,0:0:0:0:
160,0,127322,1,0,0:0:0:0:
192,0,127328,1,0,0:0:0:0:
224,0,127334,1,0,0:0:0:0:
32,128,127340,1,0,0:0:0:0:
64,128,127346,1,0,0:0:0:0:
96,128,127352,1,0,0:0:0:0:
128,128,127358,1,0,0:0:0:0:
288,0,127364,1,0,0:0:0:0:
288,32,127370,1,0,0:0:0:0:
288,64,127376,1,0,0:0:0:0:
288,96,127382,1,0,0:0:0:0:
288,128,127388,1,0,0:0:0:0:
288,160,127394,1,0,0:0:0:0:
288,192,127400,1,0,0:0:0:0:
288,224,127406,1,0,0:0:0:0:
288,256,127412,1,0,0:0:0:0:
288,288,127418,1,0,0:0:0:0:
288,320,127424,1,0,0:0:0:0:
288,352,127430,1,0,0:0:0:0:
320,352,127436,1,0,0:0:0:0:
352,352,127442,1,0,0:0:0:0:
384,352,127448,1,0,0:0:0:0:
416,352,127454,1,0,0:0:0:0:
448,352,127460,1,0,0:0:0:0:
480,352,127466,1,0,0:0:0:0:
512,352,127472,1,0,0:0:0:0:
512,320,127478,1,0,0:0:0:0:
512,288,127484,1,0,0:0:0:0:
512,256,127490,1,0,0:0:0:0:
512,224,127496,1,0,0:0:0:0:
512,192,127502,1,0,0:0:0:0:
512,160,127508,1,0,0:0:0:0:
512,128,127514,1,0,0:0:0:0:
512,96,127520,1,0,0:0:0:0:
512,64,127526,1,0,0:0:0:0:
512,32,127532,1,0,0:0:0:0:
512,0,127538,1,0,0:0:0:0:
0,352,129608,1,0,0:0:0:0:
0,320,129614,1,0,0:0:0:0:
0,288,129626,1,0,0:0:0:0:
0,256,129638,1,0,0:0:0:0:
0,224,129644,1,0,0:0:0:0:
0,192,129650,1,0,0:0:0:0:
0,160,129656,1,0,0:0:0:0:
0,128,129662,1,0,0:0:0:0:
0,96,129668,1,0,0:0:0:0:
0,64,129674,1,0,0:0:0:0:
0,32,129680,1,0,0:0:0:0:
0,0,129686,1,0,0:0:0:0:
32,0,129692,1,0,0:0:0:0:
64,0,129698,1,0,0:0:0:0:
96,0,129704,1,0,0:0:0:0:
128,0,129710,1,0,0:0:0:0:
160,0,129716,1,0,0:0:0:0:
192,0,129722,1,0,0:0:0:0:
224,0,129728,1,0,0:0:0:0:
32,128,129734,1,0,0:0:0:0:
64,128,129740,1,0,0:0:0:0:
96,128,129746,1,0,0:0:0:0:
128,128,129752,1,0,0:0:0:0:
288,0,129758,1,0,0:0:0:0:
288,32,129764,1,0,0:0:0:0:
288,64,129770,1,0,0:0:0:0:
288,96,129776,1,0,0:0:0:0:
288,128,129782,1,0,0:0:0:0:
288,160,129788,1,0,0:0:0:0:
288,192,129794,1,0,0:0:0:0:
288,224,129800,1,0,0:0:0:0:
288,256,129806,1,0,0:0:0:0:
288,288,129812,1,0,0:0:0:0:
288,320,129818,1,0,0:0:0:0:
288,352,129824,1,0,0:0:0:0:
320,352,129830,1,0,0:0:0:0:
352,352,129836,1,0,0:0:0:0:
384,352,129842,1,0,0:0:0:0:
416,352,129848,1,0,0:0:0:0:
448,352,129854,1,0,0:0:0:0:
480,352,129860,1,0,0:0:0:0:
512,352,129866,1,0,0:0:0:0:
512,320,129872,1,0,0:0:0:0:
512,288,129878,1,0,0:0:0:0:
512,256,129884,1,0,0:0:0:0:
512,224,129890,1,0,0:0:0:0:
512,192,129896,1,0,0:0:0:0:
512,160,129902,1,0,0:0:0:0:
512,128,129908,1,0,0:0:0:0:
512,96,129914,1,0,0:0:0:0:
512,64,129920,1,0,0:0:0:0:
512,32,129926,1,0,0:0:0:0:
512,0,129932,1,0,0:0:0:0:
96,352,143888,5,0,0:0:0:0:
96,320,143894,1,0,0:0:0:0:
96,288,143900,1,0,0:0:0:0:
96,256,143906,1,0,0:0:0:0:
96,224,143912,1,0,0:0:0:0:
96,192,143918,1,0,0:0:0:0:
96,160,143924,1,0,0:0:0:0:
96,128,143930,1,0,0:0:0:0:
0,96,143936,1,0,0:0:0:0:
32,96,143942,1,0,0:0:0:0:
64,96,143954,1,0,0:0:0:0:
96,96,143960,1,0,0:0:0:0:
128,96,143966,1,0,0:0:0:0:
160,96,143972,1,0,0:0:0:0:
192,96,143978,1,0,0:0:0:0:
256,352,143990,1,0,0:0:0:0:
256,320,143996,1,0,0:0:0:0:
256,288,144002,1,0,0:0:0:0:
256,224,144014,1,0,0:0:0:0:
256,128,144038,1,0,0:0:0:0:
256,96,144044,1,0,0:0:0:0:
288,96,144050,1,0,0:0:0:0:
320,96,144056,1,0,0:0:0:0:
352,96,144062,1,0,0:0:0:0:
384,96,144068,1,0,0:0:0:0:
384,160,144080,1,0,0:0:0:0:
384,192,144086,1,0,0:0:0:0:
352,192,144098,1,0,0:0:0:0:
320,192,144104,1,0,0:0:0:0:
288,192,144110,1,0,0:0:0:0:
320,224,144116,1,0,0:0:0:0:
352,256,144122,1,0,0:0:0:0:
384,288,144128,1,0,0:0:0:0:
384,320,144134,1,0,0:0:0:0:
384,352,144140,1,0,0:0:0:0:
32,64,144782,1,0,0:0:0:0:
32,96,144788,1,0,0:0:0:0:
32,128,144794,1,0,0:0:0:0:
32,160,144800,1,0,0:0:0:0:
32,192,144824,1,0,0:0:0:0:
32,224,144836,1,0,0:0:0:0:
32,256,144848,1,0,0:0:0:0:
32,288,144854,1,0,0:0:0:0:
32,320,144860,1,0,0:0:0:0:
128,320,144866,1,0,0:0:0:0:
128,288,144872,1,0,0:0:0:0:
128,256,144896,1,0,0:0:0:0:
128,224,144914,1,0,0:0:0:0:
128,192,144932,1,0,0:0:0:0:
128,160,144938,1,0,0:0:0:0:
128,128,144944,1,0,0:0:0:0:
128,96,144950,1,0,0:0:0:0:
128,64,144956,1,0,0:0:0:0:
160,64,144962,1,0,0:0:0:0:
192,64,144968,1,0,0:0:0:0:
224,64,144974,1,0,0:0:0:0:
256,64,144980,1,0,0:0:0:0:
256,96,144986,1,0,0:0:0:0:
256,128,144998,1,0,0:0:0:0:
256,160,145010,1,0,0:0:0:0:
256,192,145022,1,0,0:0:0:0:
256,224,145028,1,0,0:0:0:0:
256,256,145040,1,0,0:0:0:0:
256,288,145046,1,0,0:0:0:0:
256,320,145052,1,0,0:0:0:0:
224,320,145058,1,0,0:0:0:0:
192,320,145064,1,0,0:0:0:0:
160,320,145070,1,0,0:0:0:0:
320,64,145076,1,0,0:0:0:0:
320,96,145088,1,0,0:0:0:0:
320,128,145094,1,0,0:0:0:0:
320,160,145100,1,0,0:0:0:0:
320,192,145106,1,0,0:0:0:0:
320,224,145112,1,0,0:0:0:0:
320,256,145118,1,0,0:0:0:0:
320,288,145124,1,0,0:0:0:0:
320,320,145130,1,0,0:0:0:0:
384,320,145148,1,0,0:0:0:0:
384,288,145154,1,0,0:0:0:0:
384,256,145160,1,0,0:0:0:0:
384,224,145166,1,0,0:0:0:0:
384,192,145172,1,0,0:0:0:0:
384,160,145190,1,0,0:0:0:0:
384,128,145196,1,0,0:0:0:0:
384,96,145202,1,0,0:0:0:0:
384,64,145208,1,0,0:0:0:0:
416,64,145214,1,0,0:0:0:0:
448,64,145220,1,0,0:0:0:0:
480,64,145226,1,0,0:0:0:0:
512,64,145232,1,0,0:0:0:0:
512,96,145244,1,0,0:0:0:0:
512,128,145250,1,0,0:0:0:0:
512,160,145256,1,0,0:0:0:0:
512,192,145262,1,0,0:0:0:0:
512,224,145274,1,0,0:0:0:0:
512,256,145286,1,0,0:0:0:0:
512,288,145292,1,0,0:0:0:0:
512,320,145304,1,0,0:0:0:0:
480,320,145310,1,0,0:0:0:0:
448,320,145316,1,0,0:0:0:0:
416,320,145322,1,0,0:0:0:0:
32,64,145910,1,0,0:0:0:0:
32,96,145916,1,0,0:0:0:0:
32,128,145922,1,0,0:0:0:0:
32,160,145928,1,0,0:0:0:0:
32,192,145952,1,0,0:0:0:0:
32,224,145964,1,0,0:0:0:0:
32,256,145976,1,0,0:0:0:0:
32,288,145982,1,0,0:0:0:0:
32,320,145988,1,0,0:0:0:0:
128,320,145994,1,0,0:0:0:0:
128,288,146000,1,0,0:0:0:0:
128,256,146024,1,0,0:0:0:0:
128,224,146042,1,0,0:0:0:0:
128,192,146060,1,0,0:0:0:0:
128,160,146066,1,0,0:0:0:0:
128,128,146072,1,0,0:0:0:0:
128,96,146078,1,0,0:0:0:0:
128,64,146084,1,0,0:0:0:0:
160,64,146090,1,0,0:0:0:0:
192,64,146096,1,0,0:0:0:0:
224,64,146102,1,0,0:0:0:0:
256,64,146108,1,0,0:0:0:0:
256,96,146114,1,0,0:0:0:0:
256,128,146126,1,0,0:0:0:0:
256,160,146138,1,0,0:0:0:0:
256,192,146150,1,0,0:0:0:0:
256,224,146156,1,0,0:0:0:0:
256,256,146168,1,0,0:0:0:0:
256,288,146174,1,0,0:0:0:0:
256,320,146180,1,0,0:0:0:0:
224,320,146186,1,0,0:0:0:0:
192,320,146192,1,0,0:0:0:0:
160,320,146198,1,0,0:0:0:0:
320,64,146204,1,0,0:0:0:0:
320,96,146216,1,0,0:0:0:0:
320,128,146222,1,0,0:0:0:0:
320,160,146228,1,0,0:0:0:0:
320,192,146234,1,0,0:0:0:0:
320,224,146240,1,0,0:0:0:0:
320,256,146246,1,0,0:0:0:0:
320,288,146252,1,0,0:0:0:0:
320,320,146258,1,0,0:0:0:0:
384,320,146276,1,0,0:0:0:0:
384,288,146282,1,0,0:0:0:0:
384,256,146288,1,0,0:0:0:0:
384,224,146294,1,0,0:0:0:0:
384,192,146300,1,0,0:0:0:0:
384,160,146318,1,0,0:0:0:0:
384,128,146324,1,0,0:0:0:0:
384,96,146330,1,0,0:0:0:0:
384,64,146336,1,0,0:0:0:0:
416,64,146342,1,0,0:0:0:0:
512,64,146360,1,0,0:0:0:0:
512,96,146372,1,0,0:0:0:0:
512,128,146378,1,0,0:0:0:0:
512,160,146384,1,0,0:0:0:0:
512,192,146390,1,0,0:0:0:0:
512,224,146402,1,0,0:0:0:0:
512,256,146414,1,0,0:0:0:0:
512,288,146420,1,0,0:0:0:0:
512,320,146432,1,0,0:0:0:0:
480,320,146438,1,0,0:0:0:0:
448,320,146444,1,0,0:0:0:0:
416,320,146450,1,0,0:0:0:0:
32,64,146960,1,0,0:0:0:0:
32,96,146966,1,0,0:0:0:0:
32,128,146972,1,0,0:0:0:0:
32,160,146978,1,0,0:0:0:0:
32,192,147002,1,0,0:0:0:0:
32,224,147014,1,0,0:0:0:0:
32,256,147026,1,0,0:0:0:0:
32,288,147032,1,0,0:0:0:0:
128,320,147044,1,0,0:0:0:0:
128,288,147050,1,0,0:0:0:0:
128,256,147074,1,0,0:0:0:0:
128,224,147092,1,0,0:0:0:0:
128,192,147110,1,0,0:0:0:0:
128,160,147116,1,0,0:0:0:0:
128,128,147122,1,0,0:0:0:0:
128,96,147128,1,0,0:0:0:0:
128,64,147134,1,0,0:0:0:0:
160,64,147140,1,0,0:0:0:0:
192,64,147146,1,0,0:0:0:0:
224,64,147152,1,0,0:0:0:0:
256,64,147158,1,0,0:0:0:0:
256,96,147164,1,0,0:0:0:0:
256,128,147176,1,0,0:0:0:0:
256,160,147188,1,0,0:0:0:0:
256,192,147200,1,0,0:0:0:0:
256,224,147206,1,0,0:0:0:0:
256,256,147218,1,0,0:0:0:0:
256,288,147224,1,0,0:0:0:0:
256,320,147230,1,0,0:0:0:0:
224,320,147236,1,0,0:0:0:0:
192,320,147242,1,0,0:0:0:0:
160,320,147248,1,0,0:0:0:0:
320,64,147254,1,0,0:0:0:0:
320,96,147266,1,0,0:0:0:0:
320,128,147272,1,0,0:0:0:0:
320,160,147278,1,0,0:0:0:0:
320,192,147284,1,0,0:0:0:0:
320,224,147290,1,0,0:0:0:0:
320,256,147296,1,0,0:0:0:0:
320,288,147302,1,0,0:0:0:0:
320,320,147308,1,0,0:0:0:0:
384,320,147326,1,0,0:0:0:0:
384,288,147332,1,0,0:0:0:0:
384,256,147338,1,0,0:0:0:0:
384,224,147344,1,0,0:0:0:0:
384,192,147350,1,0,0:0:0:0:
384,160,147368,1,0,0:0:0:0:
384,128,147374,1,0,0:0:0:0:
384,96,147380,1,0,0:0:0:0:
384,64,147386,1,0,0:0:0:0:
416,64,147392,1,0,0:0:0:0:
512,64,147410,1,0,0:0:0:0:
512,96,147422,1,0,0:0:0:0:
512,128,147428,1,0,0:0:0:0:
512,160,147434,1,0,0:0:0:0:
512,192,147440,1,0,0:0:0:0:
512,224,147452,1,0,0:0:0:0:
512,256,147464,1,0,0:0:0:0:
512,288,147470,1,0,0:0:0:0:
512,320,147482,1,0,0:0:0:0:
480,320,147488,1,0,0:0:0:0:
448,320,147494,1,0,0:0:0:0:
416,320,147500,1,0,0:0:0:0:
32,32,147890,1,0,0:0:0:0:
64,32,147896,1,0,0:0:0:0:
96,32,147902,1,0,0:0:0:0:
128,32,147908,1,0,0:0:0:0:
160,32,147914,1,0,0:0:0:0:
192,32,147920,1,0,0:0:0:0:
192,64,147926,1,0,0:0:0:0:
192,96,147932,1,0,0:0:0:0:
192,128,147938,1,0,0:0:0:0:
192,160,147944,1,0,0:0:0:0:
192,64,147950,1,0,0:0:0:0:
192,192,147956,1,0,0:0:0:0:
192,224,147962,1,0,0:0:0:0:
192,256,147974,1,0,0:0:0:0:
192,288,147980,1,0,0:0:0:0:
192,320,147986,1,0,0:0:0:0:
160,320,147992,1,0,0:0:0:0:
128,320,147998,1,0,0:0:0:0:
96,320,148010,1,0,0:0:0:0:
64,320,148022,1,0,0:0:0:0:
32,320,148028,1,0,0:0:0:0:
32,288,148034,1,0,0:0:0:0:
32,256,148040,1,0,0:0:0:0:
32,224,148046,1,0,0:0:0:0:
32,192,148052,1,0,0:0:0:0:
32,160,148058,1,0,0:0:0:0:
32,128,148064,1,0,0:0:0:0:
32,96,148070,1,0,0:0:0:0:
32,64,148076,1,0,0:0:0:0:
320,32,148082,1,0,0:0:0:0:
352,32,148088,1,0,0:0:0:0:
384,32,148094,1,0,0:0:0:0:
416,32,148100,1,0,0:0:0:0:
448,32,148106,1,0,0:0:0:0:
480,32,148112,1,0,0:0:0:0:
480,64,148118,1,0,0:0:0:0:
480,96,148124,1,0,0:0:0:0:
480,128,148130,1,0,0:0:0:0:
480,160,148136,1,0,0:0:0:0:
480,192,148142,1,0,0:0:0:0:
480,224,148148,1,0,0:0:0:0:
480,256,148154,1,0,0:0:0:0:
480,288,148160,1,0,0:0:0:0:
480,320,148166,1,0,0:0:0:0:
448,320,148172,1,0,0:0:0:0:
416,320,148178,1,0,0:0:0:0:
384,320,148184,1,0,0:0:0:0:
352,320,148190,1,0,0:0:0:0:
320,320,148196,1,0,0:0:0:0:
320,288,148202,1,0,0:0:0:0:
320,256,148208,1,0,0:0:0:0:
320,224,148214,1,0,0:0:0:0:
320,192,148220,1,0,0:0:0:0:
320,160,148226,1,0,0:0:0:0:
320,128,148232,1,0,0:0:0:0:
320,96,148238,1,0,0:0:0:0:
320,64,148244,1,0,0:0:0:0:
96,352,150026,5,0,0:0:0:0:
96,320,150032,1,0,0:0:0:0:
96,288,150038,1,0,0:0:0:0:
96,256,150044,1,0,0:0:0:0:
96,224,150050,1,0,0:0:0:0:
96,192,150056,1,0,0:0:0:0:
96,160,150062,1,0,0:0:0:0:
96,128,150068,1,0,0:0:0:0:
0,96,150074,1,0,0:0:0:0:
32,96,150080,1,0,0:0:0:0:
64,96,150092,1,0,0:0:0:0:
96,96,150098,1,0,0:0:0:0:
128,96,150104,1,0,0:0:0:0:
160,96,150110,1,0,0:0:0:0:
192,96,150116,1,0,0:0:0:0:
256,352,150128,1,0,0:0:0:0:
256,320,150134,1,0,0:0:0:0:
256,288,150140,1,0,0:0:0:0:
256,224,150152,1,0,0:0:0:0:
256,128,150176,1,0,0:0:0:0:
256,96,150182,1,0,0:0:0:0:
288,96,150188,1,0,0:0:0:0:
320,96,150194,1,0,0:0:0:0:
352,96,150200,1,0,0:0:0:0:
384,96,150206,1,0,0:0:0:0:
384,160,150218,1,0,0:0:0:0:
384,192,150224,1,0,0:0:0:0:
352,192,150236,1,0,0:0:0:0:
320,192,150242,1,0,0:0:0:0:
288,192,150248,1,0,0:0:0:0:
320,224,150254,1,0,0:0:0:0:
352,256,150260,1,0,0:0:0:0:
384,288,150266,1,0,0:0:0:0:
384,320,150272,1,0,0:0:0:0:
384,352,150278,1,0,0:0:0:0:
32,64,150920,1,0,0:0:0:0:
32,96,150926,1,0,0:0:0:0:
32,128,150932,1,0,0:0:0:0:
32,160,150938,1,0,0:0:0:0:
32,192,150962,1,0,0:0:0:0:
32,224,150974,1,0,0:0:0:0:
32,256,150986,1,0,0:0:0:0:
32,288,150992,1,0,0:0:0:0:
32,320,150998,1,0,0:0:0:0:
128,320,151004,1,0,0:0:0:0:
128,288,151010,1,0,0:0:0:0:
128,256,151034,1,0,0:0:0:0:
128,224,151052,1,0,0:0:0:0:
128,192,151070,1,0,0:0:0:0:
128,160,151076,1,0,0:0:0:0:
128,128,151082,1,0,0:0:0:0:
128,96,151088,1,0,0:0:0:0:
128,64,151094,1,0,0:0:0:0:
160,64,151100,1,0,0:0:0:0:
192,64,151106,1,0,0:0:0:0:
224,64,151112,1,0,0:0:0:0:
256,64,151118,1,0,0:0:0:0:
256,96,151124,1,0,0:0:0:0:
256,128,151136,1,0,0:0:0:0:
256,160,151148,1,0,0:0:0:0:
256,192,151160,1,0,0:0:0:0:
256,224,151166,1,0,0:0:0:0:
256,256,151178,1,0,0:0:0:0:
256,288,151184,1,0,0:0:0:0:
256,320,151190,1,0,0:0:0:0:
224,320,151196,1,0,0:0:0:0:
192,320,151202,1,0,0:0:0:0:
160,320,151208,1,0,0:0:0:0:
320,64,151214,1,0,0:0:0:0:
320,96,151226,1,0,0:0:0:0:
320,128,151232,1,0,0:0:0:0:
320,160,151238,1,0,0:0:0:0:
320,192,151244,1,0,0:0:0:0:
320,224,151250,1,0,0:0:0:0:
320,256,151256,1,0,0:0:0:0:
320,288,151262,1,0,0:0:0:0:
320,320,151268,1,0,0:0:0:0:
384,320,151286,1,0,0:0:0:0:
384,288,151292,1,0,0:0:0:0:
384,256,151298,1,0,0:0:0:0:
384,224,151304,1,0,0:0:0:0:
384,192,151310,1,0,0:0:0:0:
384,160,151328,1,0,0:0:0:0:
384,128,151334,1,0,0:0:0:0:
384,96,151340,1,0,0:0:0:0:
384,64,151346,1,0,0:0:0:0:
416,64,151352,1,0,0:0:0:0:
448,64,151358,1,0,0:0:0:0:
480,64,151364,1,0,0:0:0:0:
512,64,151370,1,0,0:0:0:0:
512,96,151382,1,0,0:0:0:0:
512,128,151388,1,0,0:0:0:0:
512,160,151394,1,0,0:0:0:0:
512,192,151400,1,0,0:0:0:0:
512,224,151412,1,0,0:0:0:0:
512,256,151424,1,0,0:0:0:0:
512,288,151430,1,0,0:0:0:0:
512,320,151442,1,0,0:0:0:0:
480,320,151448,1,0,0:0:0:0:
448,320,151454,1,0,0:0:0:0:
416,320,151460,1,0,0:0:0:0:
32,64,152048,1,0,0:0:0:0:
32,96,152054,1,0,0:0:0:0:
32,128,152060,1,0,0:0:0:0:
32,160,152066,1,0,0:0:0:0:
32,192,152090,1,0,0:0:0:0:
32,224,152102,1,0,0:0:0:0:
32,256,152114,1,0,0:0:0:0:
32,288,152120,1,0,0:0:0:0:
32,320,152126,1,0,0:0:0:0:
128,320,152132,1,0,0:0:0:0:
128,288,152138,1,0,0:0:0:0:
128,256,152162,1,0,0:0:0:0:
128,224,152180,1,0,0:0:0:0:
128,192,152198,1,0,0:0:0:0:
128,160,152204,1,0,0:0:0:0:
128,128,152210,1,0,0:0:0:0:
128,96,152216,1,0,0:0:0:0:
128,64,152222,1,0,0:0:0:0:
160,64,152228,1,0,0:0:0:0:
192,64,152234,1,0,0:0:0:0:
224,64,152240,1,0,0:0:0:0:
256,64,152246,1,0,0:0:0:0:
256,96,152252,1,0,0:0:0:0:
256,128,152264,1,0,0:0:0:0:
256,160,152276,1,0,0:0:0:0:
256,192,152288,1,0,0:0:0:0:
256,224,152294,1,0,0:0:0:0:
256,256,152306,1,0,0:0:0:0:
256,288,152312,1,0,0:0:0:0:
256,320,152318,1,0,0:0:0:0:
224,320,152324,1,0,0:0:0:0:
192,320,152330,1,0,0:0:0:0:
160,320,152336,1,0,0:0:0:0:
320,64,152342,1,0,0:0:0:0:
320,96,152354,1,0,0:0:0:0:
320,128,152360,1,0,0:0:0:0:
320,160,152366,1,0,0:0:0:0:
320,192,152372,1,0,0:0:0:0:
320,224,152378,1,0,0:0:0:0:
320,256,152384,1,0,0:0:0:0:
320,288,152390,1,0,0:0:0:0:
320,320,152396,1,0,0:0:0:0:
384,320,152414,1,0,0:0:0:0:
384,288,152420,1,0,0:0:0:0:
384,256,152426,1,0,0:0:0:0:
384,224,152432,1,0,0:0:0:0:
384,192,152438,1,0,0:0:0:0:
384,160,152456,1,0,0:0:0:0:
384,128,152462,1,0,0:0:0:0:
384,96,152468,1,0,0:0:0:0:
384,64,152474,1,0,0:0:0:0:
416,64,152480,1,0,0:0:0:0:
512,64,152498,1,0,0:0:0:0:
512,96,152510,1,0,0:0:0:0:
512,128,152516,1,0,0:0:0:0:
512,160,152522,1,0,0:0:0:0:
512,192,152528,1,0,0:0:0:0:
512,224,152540,1,0,0:0:0:0:
512,256,152552,1,0,0:0:0:0:
512,288,152558,1,0,0:0:0:0:
512,320,152570,1,0,0:0:0:0:
480,320,152576,1,0,0:0:0:0:
448,320,152582,1,0,0:0:0:0:
416,320,152588,1,0,0:0:0:0:
32,64,153098,1,0,0:0:0:0:
32,96,153104,1,0,0:0:0:0:
32,128,153110,1,0,0:0:0:0:
32,160,153116,1,0,0:0:0:0:
32,192,153140,1,0,0:0:0:0:
32,224,153152,1,0,0:0:0:0:
32,256,153164,1,0,0:0:0:0:
32,288,153170,1,0,0:0:0:0:
128,320,153182,1,0,0:0:0:0:
128,288,153188,1,0,0:0:0:0:
128,256,153212,1,0,0:0:0:0:
128,224,153230,1,0,0:0:0:0:
128,192,153248,1,0,0:0:0:0:
128,160,153254,1,0,0:0:0:0:
128,128,153260,1,0,0:0:0:0:
128,96,153266,1,0,0:0:0:0:
128,64,153272,1,0,0:0:0:0:
160,64,153278,1,0,0:0:0:0:
192,64,153284,1,0,0:0:0:0:
224,64,153290,1,0,0:0:0:0:
256,64,153296,1,0,0:0:0:0:
256,96,153302,1,0,0:0:0:0:
256,128,153314,1,0,0:0:0:0:
256,160,153326,1,0,0:0:0:0:
256,192,153338,1,0,0:0:0:0:
256,224,153344,1,0,0:0:0:0:
256,256,153356,1,0,0:0:0:0:
256,288,153362,1,0,0:0:0:0:
256,320,153368,1,0,0:0:0:0:
224,320,153374,1,0,0:0:0:0:
192,320,153380,1,0,0:0:0:0:
160,320,153386,1,0,0:0:0:0:
320,64,153392,1,0,0:0:0:0:
320,96,153404,1,0,0:0:0:0:
320,128,153410,1,0,0:0:0:0:
320,160,153416,1,0,0:0:0:0:
320,192,153422,1,0,0:0:0:0:
320,224,153428,1,0,0:0:0:0:
320,256,153434,1,0,0:0:0:0:
320,288,153440,1,0,0:0:0:0:
320,320,153446,1,0,0:0:0:0:
384,320,153464,1,0,0:0:0:0:
384,288,153470,1,0,0:0:0:0:
384,256,153476,1,0,0:0:0:0:
384,224,153482,1,0,0:0:0:0:
384,192,153488,1,0,0:0:0:0:
384,160,153506,1,0,0:0:0:0:
384,128,153512,1,0,0:0:0:0:
384,96,153518,1,0,0:0:0:0:
384,64,153524,1,0,0:0:0:0:
416,64,153530,1,0,0:0:0:0:
512,64,153548,1,0,0:0:0:0:
512,96,153560,1,0,0:0:0:0:
512,128,153566,1,0,0:0:0:0:
512,160,153572,1,0,0:0:0:0:
512,192,153578,1,0,0:0:0:0:
512,224,153590,1,0,0:0:0:0:
512,256,153602,1,0,0:0:0:0:
512,288,153608,1,0,0:0:0:0:
512,320,153620,1,0,0:0:0:0:
480,320,153626,1,0,0:0:0:0:
448,320,153632,1,0,0:0:0:0:
416,320,153638,1,0,0:0:0:0:
32,32,154028,1,0,0:0:0:0:
64,32,154034,1,0,0:0:0:0:
96,32,154040,1,0,0:0:0:0:
128,32,154046,1,0,0:0:0:0:
160,32,154052,1,0,0:0:0:0:
192,32,154058,1,0,0:0:0:0:
192,64,154064,1,0,0:0:0:0:
192,96,154070,1,0,0:0:0:0:
192,128,154076,1,0,0:0:0:0:
192,160,154082,1,0,0:0:0:0:
192,64,154088,1,0,0:0:0:0:
192,192,154094,1,0,0:0:0:0:
192,224,154100,1,0,0:0:0:0:
192,256,154112,1,0,0:0:0:0:
192,288,154118,1,0,0:0:0:0:
192,320,154124,1,0,0:0:0:0:
160,320,154130,1,0,0:0:0:0:
128,320,154136,1,0,0:0:0:0:
96,320,154148,1,0,0:0:0:0:
64,320,154160,1,0,0:0:0:0:
32,320,154166,5,0,0:0:0:0:
32,288,154172,1,0,0:0:0:0:
32,256,154178,1,0,0:0:0:0:
32,224,154184,1,0,0:0:0:0:
32,192,154190,1,0,0:0:0:0:
32,160,154196,1,0,0:0:0:0:
32,128,154202,1,0,0:0:0:0:
32,96,154208,1,0,0:0:0:0:
32,64,154214,1,0,0:0:0:0:
320,32,154220,1,0,0:0:0:0:
352,32,154226,1,0,0:0:0:0:
384,32,154232,1,0,0:0:0:0:
416,32,154238,1,0,0:0:0:0:
448,32,154244,1,0,0:0:0:0:
480,32,154250,1,0,0:0:0:0:
480,64,154256,1,0,0:0:0:0:
480,96,154262,1,0,0:0:0:0:
480,128,154268,1,0,0:0:0:0:
480,160,154274,1,0,0:0:0:0:
480,192,154280,1,0,0:0:0:0:
480,224,154286,1,0,0:0:0:0:
480,256,154292,1,0,0:0:0:0:
480,288,154298,1,0,0:0:0:0:
480,320,154304,1,0,0:0:0:0:
448,320,154310,1,0,0:0:0:0:
416,320,154316,1,0,0:0:0:0:
384,320,154322,1,0,0:0:0:0:
352,320,154328,1,0,0:0:0:0:
320,320,154334,1,0,0:0:0:0:
320,288,154340,1,0,0:0:0:0:
320,256,154346,1,0,0:0:0:0:
320,224,154352,1,0,0:0:0:0:
320,192,154358,1,0,0:0:0:0:
320,160,154364,1,0,0:0:0:0:
320,128,154370,1,0,0:0:0:0:
320,96,154376,1,0,0:0:0:0:
320,64,154382,1,0,0:0:0:0:
32,32,155048,1,0,0:0:0:0:
64,32,155054,1,0,0:0:0:0:
96,32,155060,1,0,0:0:0:0:
128,32,155066,1,0,0:0:0:0:
160,32,155072,1,0,0:0:0:0:
192,32,155078,1,0,0:0:0:0:
192,64,155084,1,0,0:0:0:0:
192,96,155090,1,0,0:0:0:0:
192,128,155096,1,0,0:0:0:0:
192,160,155102,1,0,0:0:0:0:
192,64,155108,1,0,0:0:0:0:
192,192,155114,1,0,0:0:0:0:
192,224,155120,1,0,0:0:0:0:
192,256,155132,1,0,0:0:0:0:
192,288,155138,1,0,0:0:0:0:
192,320,155144,1,0,0:0:0:0:
160,320,155150,1,0,0:0:0:0:
128,320,155156,1,0,0:0:0:0:
96,320,155168,1,0,0:0:0:0:
64,320,155180,1,0,0:0:0:0:
32,320,155186,5,0,0:0:0:0:
32,288,155192,1,0,0:0:0:0:
32,256,155198,1,0,0:0:0:0:
32,224,155204,1,0,0:0:0:0:
32,192,155210,1,0,0:0:0:0:
32,160,155216,1,0,0:0:0:0:
32,128,155222,1,0,0:0:0:0:
32,96,155228,1,0,0:0:0:0:
32,64,155234,1,0,0:0:0:0:
320,32,155240,1,0,0:0:0:0:
352,32,155246,1,0,0:0:0:0:
384,32,155252,1,0,0:0:0:0:
416,32,155258,1,0,0:0:0:0:
448,32,155264,1,0,0:0:0:0:
480,32,155270,1,0,0:0:0:0:
480,64,155276,1,0,0:0:0:0:
480,96,155282,1,0,0:0:0:0:
480,128,155288,1,0,0:0:0:0:
480,160,155294,1,0,0:0:0:0:
480,192,155300,1,0,0:0:0:0:
480,224,155306,1,0,0:0:0:0:
480,256,155312,1,0,0:0:0:0:
480,288,155318,1,0,0:0:0:0:
480,320,155324,1,0,0:0:0:0:
448,320,155330,1,0,0:0:0:0:
416,320,155336,1,0,0:0:0:0:
384,320,155342,1,0,0:0:0:0:
352,320,155348,1,0,0:0:0:0:
320,320,155354,1,0,0:0:0:0:
320,288,155360,1,0,0:0:0:0:
320,256,155366,1,0,0:0:0:0:
320,224,155372,1,0,0:0:0:0:
320,192,155378,1,0,0:0:0:0:
320,160,155384,1,0,0:0:0:0:
320,128,155390,1,0,0:0:0:0:
320,96,155396,1,0,0:0:0:0:
320,64,155402,1,0,0:0:0:0:
32,32,156998,1,0,0:0:0:0:
64,32,157004,1,0,0:0:0:0:
96,32,157010,1,0,0:0:0:0:
128,32,157016,1,0,0:0:0:0:
160,32,157022,1,0,0:0:0:0:
192,32,157028,1,0,0:0:0:0:
192,64,157034,1,0,0:0:0:0:
192,96,157040,1,0,0:0:0:0:
192,128,157046,1,0,0:0:0:0:
192,160,157052,1,0,0:0:0:0:
192,64,157058,1,0,0:0:0:0:
192,192,157064,1,0,0:0:0:0:
192,224,157070,1,0,0:0:0:0:
192,256,157082,1,0,0:0:0:0:
192,288,157088,1,0,0:0:0:0:
192,320,157094,1,0,0:0:0:0:
160,320,157100,1,0,0:0:0:0:
128,320,157106,1,0,0:0:0:0:
96,320,157118,1,0,0:0:0:0:
64,320,157130,1,0,0:0:0:0:
32,320,157136,5,0,0:0:0:0:
32,288,157142,1,0,0:0:0:0:
32,256,157148,1,0,0:0:0:0:
32,224,157154,1,0,0:0:0:0:
32,192,157160,1,0,0:0:0:0:
32,160,157166,1,0,0:0:0:0:
32,128,157172,1,0,0:0:0:0:
32,96,157178,1,0,0:0:0:0:
32,64,157184,1,0,0:0:0:0:
320,32,157190,1,0,0:0:0:0:
352,32,157196,1,0,0:0:0:0:
384,32,157202,1,0,0:0:0:0:
416,32,157208,1,0,0:0:0:0:
448,32,157214,1,0,0:0:0:0:
480,32,157220,1,0,0:0:0:0:
480,64,157226,1,0,0:0:0:0:
480,96,157232,1,0,0:0:0:0:
480,128,157238,1,0,0:0:0:0:
480,160,157244,1,0,0:0:0:0:
480,192,157250,1,0,0:0:0:0:
480,224,157256,1,0,0:0:0:0:
480,256,157262,1,0,0:0:0:0:
480,288,157268,1,0,0:0:0:0:
480,320,157274,1,0,0:0:0:0:
448,320,157280,1,0,0:0:0:0:
416,320,157286,1,0,0:0:0:0:
384,320,157292,1,0,0:0:0:0:
352,320,157298,1,0,0:0:0:0:
320,320,157304,1,0,0:0:0:0:
320,288,157310,1,0,0:0:0:0:
320,256,157316,1,0,0:0:0:0:
320,224,157322,1,0,0:0:0:0:
320,192,157328,1,0,0:0:0:0:
320,160,157334,1,0,0:0:0:0:
320,128,157340,1,0,0:0:0:0:
320,96,157346,1,0,0:0:0:0:
320,64,157352,1,0,0:0:0:0:
32,32,159482,5,0,0:0:0:0:
64,32,159488,1,0,0:0:0:0:
96,32,159494,1,0,0:0:0:0:
128,32,159500,1,0,0:0:0:0:
160,32,159506,1,0,0:0:0:0:
192,32,159512,1,0,0:0:0:0:
192,64,159518,1,0,0:0:0:0:
192,96,159524,1,0,0:0:0:0:
192,128,159530,1,0,0:0:0:0:
192,160,159536,1,0,0:0:0:0:
192,64,159542,1,0,0:0:0:0:
192,192,159548,1,0,0:0:0:0:
192,224,159554,1,0,0:0:0:0:
192,256,159566,1,0,0:0:0:0:
192,288,159572,1,0,0:0:0:0:
192,320,159578,1,0,0:0:0:0:
160,320,159584,1,0,0:0:0:0:
128,320,159590,1,0,0:0:0:0:
96,320,159602,1,0,0:0:0:0:
64,320,159614,1,0,0:0:0:0:
32,320,159620,5,0,0:0:0:0:
32,288,159626,1,0,0:0:0:0:
32,256,159632,1,0,0:0:0:0:
32,224,159638,1,0,0:0:0:0:
32,192,159644,1,0,0:0:0:0:
32,160,159650,1,0,0:0:0:0:
32,128,159656,1,0,0:0:0:0:
32,96,159662,1,0,0:0:0:0:
32,64,159668,1,0,0:0:0:0:
320,32,159674,1,0,0:0:0:0:
352,32,159680,1,0,0:0:0:0:
384,32,159686,1,0,0:0:0:0:
416,32,159692,1,0,0:0:0:0:
448,32,159698,1,0,0:0:0:0:
480,32,159704,1,0,0:0:0:0:
480,64,159710,1,0,0:0:0:0:
480,96,159716,1,0,0:0:0:0:
480,128,159722,1,0,0:0:0:0:
480,160,159728,1,0,0:0:0:0:
480,192,159734,1,0,0:0:0:0:
480,224,159740,1,0,0:0:0:0:
480,256,159746,1,0,0:0:0:0:
480,288,159752,1,0,0:0:0:0:
480,320,159758,1,0,0:0:0:0:
448,320,159764,1,0,0:0:0:0:
416,320,159770,1,0,0:0:0:0:
384,320,159776,1,0,0:0:0:0:
352,320,159782,1,0,0:0:0:0:
320,320,159788,1,0,0:0:0:0:
320,288,159794,1,0,0:0:0:0:
320,256,159800,1,0,0:0:0:0:
320,224,159806,1,0,0:0:0:0:
320,192,159812,1,0,0:0:0:0:
320,160,159818,1,0,0:0:0:0:
320,128,159824,1,0,0:0:0:0:
320,96,159830,1,0,0:0:0:0:
320,64,159836,1,0,0:0:0:0:
32,32,161066,1,0,0:0:0:0:
64,32,161072,1,0,0:0:0:0:
96,32,161078,1,0,0:0:0:0:
128,32,161084,1,0,0:0:0:0:
160,32,161090,1,0,0:0:0:0:
192,32,161096,1,0,0:0:0:0:
192,64,161102,1,0,0:0:0:0:
192,96,161108,1,0,0:0:0:0:
192,128,161114,1,0,0:0:0:0:
192,160,161120,1,0,0:0:0:0:
192,64,161126,1,0,0:0:0:0:
192,192,161132,1,0,0:0:0:0:
192,224,161138,1,0,0:0:0:0:
192,256,161150,1,0,0:0:0:0:
192,288,161156,1,0,0:0:0:0:
192,320,161162,1,0,0:0:0:0:
160,320,161168,1,0,0:0:0:0:
128,320,161174,1,0,0:0:0:0:
96,320,161186,1,0,0:0:0:0:
64,320,161198,1,0,0:0:0:0:
32,320,161204,5,0,0:0:0:0:
32,288,161210,1,0,0:0:0:0:
32,256,161216,1,0,0:0:0:0:
32,224,161222,1,0,0:0:0:0:
32,192,161228,1,0,0:0:0:0:
32,160,161234,1,0,0:0:0:0:
32,128,161240,1,0,0:0:0:0:
32,96,161246,1,0,0:0:0:0:
32,64,161252,1,0,0:0:0:0:
320,32,161258,1,0,0:0:0:0:
352,32,161264,1,0,0:0:0:0:
384,32,161270,1,0,0:0:0:0:
416,32,161276,1,0,0:0:0:0:
448,32,161282,1,0,0:0:0:0:
480,32,161288,1,0,0:0:0:0:
480,64,161294,1,0,0:0:0:0:
480,96,161300,1,0,0:0:0:0:
480,128,161306,1,0,0:0:0:0:
480,160,161312,1,0,0:0:0:0:
480,192,161318,1,0,0:0:0:0:
480,224,161324,1,0,0:0:0:0:
480,256,161330,1,0,0:0:0:0:
480,288,161336,1,0,0:0:0:0:
480,320,161342,1,0,0:0:0:0:
448,320,161348,1,0,0:0:0:0:
416,320,161354,1,0,0:0:0:0:
384,320,161360,1,0,0:0:0:0:
352,320,161366,1,0,0:0:0:0:
320,320,161372,1,0,0:0:0:0:
320,288,161378,1,0,0:0:0:0:
320,256,161384,1,0,0:0:0:0:
320,224,161390,1,0,0:0:0:0:
320,192,161396,1,0,0:0:0:0:
