osu file format v4

[General]
AudioFilename: 02 Blood Gulch Blues.mp3
AudioLeadIn: 1000
AudioHash: bfe55beca19d3e946ef7b0ae9189062a
PreviewTime: -1
SampleSet: Normal
EditorBookmarks: 200,13200,29110,47435,48617,49799,50982,56597,67533,79947,81721,91031,103888

[Metadata]
Title:Blood Gulch Blues
Artist:Trocadero
Creator:Slain087
Version:Normal

[Difficulty]
HPDrainRate:6
CircleSize:6
OverallDifficulty:5
SliderMultiplier: 1
SliderTickRate: 1

[Events]
2,33743,37072
2,140738,163575
3,0,163,162,255

[TimingPoints]
16992,295.566502463054,4,1,0

[HitObjects]
256,192,1918,1,2,
384,256,4873,2,0,L|384:256|384:128|96:128,1,280
224,160,6056,1,0,
288,224,7090,1,0,
288,160,8125,1,0,
224,160,9159,1,0,
224,96,10489,1,0,
224,128,10785,1,0,
256,128,11080,1,0,
64,160,12854,5,0,
128,160,13149,1,0,
224,160,13740,1,0,
288,160,14036,1,0,
384,160,14627,1,0,
448,160,14923,1,0,
384,160,17583,5,0,
384,224,17878,1,0,
288,224,18469,1,0,
224,224,18765,1,0,
128,224,19356,1,0,
128,160,19652,1,0,
192,96,22164,5,0,
192,160,22459,1,0,
192,224,22755,1,0,
224,256,23051,1,0,
288,256,23346,1,0,
320,224,23642,1,0,
320,160,23937,1,0,
320,96,24233,1,0,
256,192,26154,12,0,33543
217,49,38272,6,0,B|217:49|153:113|89:177|181:272|57:316|473:113,1,550
458,123,40341,2,0,B|458:123|26:36|26:356|294:356|330:187,1,560
271,273,42706,6,0,B|271:273|79:433|47:177|-18:414|-40:6|303:49|127:189|15:401|303:113,1,630
256,160,44923,2,0,B|256:160|576:160|591:417|256:448|192:192|512:256,1,650
480,256,47435,6,0,B|480:256|512:32|364:80|384:256,2,280
480,256,49652,2,0,B|480:256|160:224,2,300
480,256,51868,6,0,B|480:256|263:212|32:256,2,400
64,64,56597,5,0,
128,64,56893,1,0,
192,64,57189,1,0,
256,64,57484,1,0,
256,224,58666,1,0,
352,224,59258,1,0,
416,224,59553,1,0,
416,64,61031,5,0,
320,64,61622,1,0,
256,64,61918,1,0,
256,192,63395,5,0,
160,192,63987,1,0,
96,192,64282,1,0,
64,64,67829,6,0,B|64:64|64:352|276:288|128:32|480:32|291:212,2,550
256,192,71819,12,0,73297
256,160,73888,2,0,B|256:160|32:96|25:357|480:352|538:344|352:32|256:32|160:64|-5:33|96:256,1,910
256,96,77878,2,0,B|256:96|32:288|448:256,1,280
297,259,79208,1,2,
384,256,79947,6,0,B|384:256|384:32|137:50|96:192,2,400
352,256,82607,6,0,B|352:256|164:36|580:4|516:292|580:-28|260:4|164:68|115:167,1,700
285,192,86154,1,0,
256,352,88814,2,4,B|256:352|256:320,10,70
256,352,91918,6,0,B|256:352|64:192|64:96|160:32|288:32|416:96|448:96,1,560
352,96,93987,1,0,
288,160,95317,1,0,
320,256,97681,1,0,
192,128,100046,1,0,
256,192,102115,1,0,
160,96,104479,6,0,B|160:96|160:288|416:288,2,280
288,256,106696,5,2,
320,224,107139,1,0,
320,192,107435,1,0,
288,160,107730,1,0,
256,128,108026,1,2,
224,160,108322,1,0,
192,192,108617,1,0,
192,224,108913,1,0,
192,256,109208,1,0,
224,256,109504,1,2,
256,256,109799,1,0,
384,288,110686,6,0,L|384:288|384:160|256:64|128:160|128:288,1,560
256,192,113494,5,2,
416,192,114824,1,2,
256,192,116597,2,2,B|256:192|303:130|444:261|306:356|192:352|64:352|111:77|288:64,1,600
256,64,119258,6,0,B|256:64|448:64|448:320|256:320|64:320|64:64,1,560
192,192,122804,5,4,
224,192,123100,1,4,
320,192,123691,1,4,
288,192,123987,1,4,
256,192,124578,6,0,B|256:192|416:64|64:32|64:288|288:384|64:352|0:128|160:64|256:32,1,600
292,50,126647,1,0,
354,52,126942,1,0,
224,160,127533,5,0,
192,128,127829,1,0,
128,64,128420,1,0,
288,224,129898,5,0,
320,256,130193,1,0,
352,288,130489,1,0,
416,352,131080,1,4,
64,64,132558,6,0,L|64:64|64:320|480:320,1,650
256,192,136696,12,4,140538
