osu file format v14

[General]
AudioFilename: Tritonal - Anchor (Noisestorm Remix).mp3
AudioLeadIn: 0
PreviewTime: 42925
Countdown: 0
SampleSet: Normal
StackLeniency: 0.7
Mode: 0
LetterboxInBreaks: 0
WidescreenStoryboard: 0

[Editor]
Bookmarks: 22189,44132,60589,66075,88018,109961
DistanceSpacing: 1.2
BeatDivisor: 2
GridSize: 4
TimelineZoom: 1

[Metadata]
Title:Anchor (Noisestorm Remix)
TitleUnicode:Anchor (Noisestorm Remix)
Artist:Tritonal
ArtistUnicode:Tritonal
Creator:Secretpipe
Version:Normal
Source:
Tags:liquid dnb drum and bass Asphyxia Kin
BeatmapID:648532
BeatmapSetID:287426

[Difficulty]
HPDrainRate:4
CircleSize:3
OverallDifficulty:4
ApproachRate:4.5
SliderMultiplier:0.9
SliderTickRate:1

[Events]
//Background and Video events
0,0,"new bg.jpg",0,0
//Break Periods
//Storyboard Layer 0 (Background)
//Storyboard Layer 1 (Fail)
//Storyboard Layer 2 (Pass)
//Storyboard Layer 3 (Foreground)
//Storyboard Sound Samples

[TimingPoints]
240,342.857142857143,4,1,1,40,1,0
22182,-113.636363636364,4,1,1,40,0,0
44125,-100,4,1,1,55,0,1
63325,-100,4,1,1,45,0,0
65382,-100,4,1,1,25,0,0
66068,-100,4,1,1,25,0,1
66075,-100,4,1,1,55,0,1
86640,-100,4,1,1,55,0,0
88011,-100,4,1,1,55,0,1
109954,-100,4,1,1,55,0,0

[Colours]
Combo1 : 242,168,207
Combo2 : 150,219,117
Combo3 : 193,163,228
Combo4 : 211,223,132

[HitObjects]
67,176,22182,6,0,B|183:144|180:210|302:181,1,237.600007250977,6|2,0:0|0:0,0:0:0:0:
392,148,23554,1,2,0:0:0:0:
345,334,24240,2,0,L|254:337,1,79.2000024169922,2|2,0:0|0:0,0:0:0:0:
233,245,24925,6,0,L|358:240,2,118.800003625488,2|2|2,0:0|0:0|0:0,0:0:0:0:
88,241,26468,2,0,P|88:265|95:294,2,39.6000012084961
92,193,26982,1,2,0:0:0:0:
139,109,27325,1,2,0:0:0:0:
233,93,27668,6,0,P|317:93|353:73,1,118.800003625488,2|0,0:0|0:0,0:0:0:0:
388,52,28354,2,0,L|384:136,1,79.2000024169922,2|2,0:0|0:0,0:0:0:0:
412,224,29040,2,0,P|351:218|294:242,1,118.800003625488,2|0,0:0|0:0,0:0:0:0:
258,266,29725,1,2,0:0:0:0:
175,314,30068,1,2,0:0:0:0:
180,218,30411,6,0,P|211:165|264:134,2,118.800003625488,2|2|2,0:0|0:0|0:0,0:0:0:0:
95,263,31782,2,0,P|72:255|55:239,2,39.6000012084961
178,311,32468,2,0,P|168:333|151:348,2,39.6000012084961,2|0|2,0:0|0:0|0:0,0:0:0:0:
214,221,33154,6,0,P|237:181|276:158,1,79.2000024169922
360,159,33840,2,0,P|399:182|422:221,1,79.2000024169922
415,306,34525,2,0,P|392:345|353:368,1,79.2000024169922
267,362,35211,2,0,P|228:339|205:300,1,79.2000024169922
158,229,35897,5,0,0:0:0:0:
94,166,36240,1,0,0:0:0:0:
158,102,36582,1,0,0:0:0:0:
221,166,36925,1,0,0:0:0:0:
285,237,37268,5,0,0:0:0:0:
348,301,37611,1,0,0:0:0:0:
412,237,37954,1,0,0:0:0:0:
348,174,38297,1,0,0:0:0:0:
287,99,38640,6,0,P|303:81|329:72,2,39.6000012084961
192,116,39325,2,0,P|185:92|191:63,2,39.6000012084961
198,212,40011,2,0,P|114:212|78:192,1,118.800003625488,2|0,0:0|0:0,0:0:0:0:
46,165,40697,2,0,L|50:249,1,79.2000024169922,2|2,0:0|0:0,0:0:0:0:
256,192,41382,12,4,42754,0:0:0:0:
208,192,44125,6,0,B|243:194|272:176|272:176|308:195|350:193,2,135,4|0|8,0:0|0:0|0:0,0:0:0:0:
116,131,45497,2,0,P|93:199|120:259,2,135,0|0|8,0:0|0:0|0:0,0:0:0:0:
200,64,46868,2,0,B|238:63|264:80|264:80|297:63|336:65,2,135,0|0|8,0:0|0:0|0:0,0:0:0:0:
92,48,48240,2,0,P|73:30|66:1,2,45,0|0|8,0:0|0:0|0:0,0:0:0:0:
40,140,48925,2,0,P|15:134|-8:112,2,45,0|0|8,0:0|0:0|0:0,0:0:0:0:
100,228,49611,70,0,B|144:212|188:220|222:260|222:260|220:312|248:352|302:367,1,270,0|8,0:0|0:0,0:0:0:0:
320,268,50982,2,0,B|364:284|408:276|442:236|442:236|440:184|468:144|514:130,1,270,0|8,0:0|0:0,0:0:0:0:
462,33,52354,2,0,B|428:35|401:71|401:71|390:36|362:20,1,135,4|0,0:0|0:0,0:0:0:0:
212,56,53382,2,0,B|240:91|236:144|196:175|196:175|144:160|96:174|67:226,1,270,8|0,0:0|0:0,0:0:0:0:
160,279,54754,1,8,0:0:0:0:
252,336,55097,6,0,L|386:347,2,135,4|0|8,0:0|0:0|0:0,0:0:0:0:
160,280,56468,2,0,L|25:294,2,135,0|0|8,0:0|0:0|0:0,0:0:0:0:
260,244,57840,2,0,P|301:239|384:284,2,135,0|0|8,0:0|0:0|0:0,0:0:0:0:
160,280,59211,2,0,L|144:324,2,45,0|0|8,0:0|0:0|0:0,0:0:0:0:
148,172,59897,2,0,L|164:124,2,45,0|0|8,0:0|0:0|0:0,0:0:0:0:
52,224,60582,6,0,P|16:160|28:88,2,135,0|0|8,0:0|0:0|0:0,0:0:0:0:
124,140,61954,2,0,P|156:84|236:48,2,135,0|0|8,0:0|0:0|0:0,0:0:0:0:
256,192,63325,12,0,65382,0:0:0:0:
160,72,66068,5,4,0:0:0:0:
372,116,66754,6,0,P|372:164|384:208,1,90,0|8,0:0|0:0,0:0:0:0:
440,296,67440,1,0,0:0:0:0:
440,296,67782,2,0,P|332:292|268:332,1,180,8|8,0:0|0:0,0:0:0:0:
216,236,68811,6,0,P|252:208|296:192,2,90,0|8|0,0:0|0:0|0:0,0:0:0:0:
157,330,69840,1,8,0:0:0:0:
49,324,70182,2,0,P|58:280|88:247,1,90,0|8,0:0|0:0,0:0:0:0:
172,176,70868,2,0,P|201:142|211:99,1,90,0|8,0:0|0:0,0:0:0:0:
316,124,71554,6,0,P|290:209|230:276,2,180,0|0|0,0:0|0:0|0:0,0:0:0:0:
292,20,73268,1,8,0:0:0:0:
400,36,73611,1,0,0:0:0:0:
428,140,73954,1,8,0:0:0:0:
400,244,74297,6,0,L|380:340,1,90,0|8,0:0|0:0,0:0:0:0:
276,348,74982,2,0,L|294:259,1,90,0|8,0:0|0:0,0:0:0:0:
316,152,75668,1,0,0:0:0:0:
212,184,76011,1,8,0:0:0:0:
294,259,76354,1,0,0:0:0:0:
400,244,76697,1,8,0:0:0:0:
432,140,77040,6,0,L|456:36,2,90,4|8|0,0:0|0:0|0:0,0:0:0:0:
400,244,78068,1,8,0:0:0:0:
294,260,78411,2,0,L|273:347,2,90,0|8|0,0:0|0:0|0:0,0:0:0:0:
324,156,79440,1,8,0:0:0:0:
248,80,79782,6,0,P|204:68|152:88,1,90,0|8,0:0|0:0,0:0:0:0:
116,176,80468,2,0,P|158:188|201:175,1,90,0|8,0:0|0:0,0:0:0:0:
224,280,81154,2,0,P|159:298|95:280,2,135,0|0|8,0:0|0:0|0:0,0:0:0:0:
328,252,82526,6,0,P|346:267|356:293,2,45,0|0|8,0:0|0:0|0:0,0:0:0:0:
328,144,83211,2,0,P|352:143|379:155,2,45,0|0|8,0:0|0:0|0:0,0:0:0:0:
224,112,83897,1,0,0:0:0:0:
156,196,84240,1,8,0:0:0:0:
216,284,84582,5,0,0:0:0:0:
256,192,85268,12,0,87325,0:0:0:0:
110,271,88011,6,0,L|102:181,1,90,4|8,0:0|0:0,0:0:0:0:
188,112,88697,2,0,L|195:201,1,90,0|8,0:0|0:0,0:0:0:0:
212,308,89382,2,0,B|309:282|307:337|407:313,1,180,0|0,0:0|0:0,0:0:0:0:
492,288,90411,1,8,0:0:0:0:
416,212,90754,6,0,B|345:229|347:182|263:204,1,135,0|0,0:0|0:0,0:0:0:0:
124,228,91782,1,8,0:0:0:0:
180,76,92297,2,0,P|156:64|120:64,2,45,0|8|0,0:0|0:0|0:0,0:0:0:0:
224,108,92811,2,0,P|268:116|328:112,1,90,0|8,0:0|0:0,0:0:0:0:
400,180,93497,6,0,P|392:224|396:284,1,90,0|8,0:0|0:0,0:0:0:0:
304,328,94182,2,0,P|259:326|214:334,1,90,0|8,0:0|0:0,0:0:0:0:
108,348,94868,1,0,0:0:0:0:
56,256,95211,1,8,0:0:0:0:
128,176,95554,1,0,0:0:0:0:
224,228,95897,1,8,0:0:0:0:
224,120,96240,6,0,L|348:40,2,135,0|0|8,0:0|0:0|0:0,0:0:0:0:
128,176,97611,2,0,P|110:161|100:135,2,45,0|0|8,0:0|0:0|0:0,0:0:0:0:
220,232,98297,2,0,P|205:250|179:260,2,45,0|0|8,0:0|0:0|0:0,0:0:0:0:
316,284,98982,6,0,P|291:318|246:341,2,90,4|8|0,0:0|0:0|0:0,0:0:0:0:
380,196,100011,1,8,0:0:0:0:
456,272,100354,2,0,P|470:311|462:361,2,90,0|8|0,0:0|0:0|0:0,0:0:0:0:
380,196,101382,1,8,0:0:0:0:
404,90,101725,6,0,B|342:74|344:116|271:96,1,135,6|2,0:0|0:0,0:0:0:0:
110,106,102754,1,8,0:0:0:0:
211,232,103268,2,0,P|187:232|155:244,2,45,0|8|0,0:0|0:0|0:0,0:0:0:0:
264,248,103782,2,0,P|308:256|368:252,1,90,0|8,0:0|0:0,0:0:0:0:
408,160,104468,6,0,P|363:151|318:153,1,90,0|8,0:0|0:0,0:0:0:0:
212,152,105154,2,0,P|167:150|122:158,1,90,0|8,0:0|0:0,0:0:0:0:
16,180,105840,1,0,0:0:0:0:
11,287,106182,1,0,0:0:0:0:
112,324,106525,1,0,0:0:0:0:
179,239,106868,5,0,0:0:0:0:
256,192,107211,12,4,109954,0:0:0:0:
