osu file format v14

[General]
AudioFilename: Tritonal x Cash Cash - Untouchable (Sacrofiz Remix).mp3
AudioLeadIn: 0
PreviewTime: 45172
Countdown: 0
SampleSet: Soft
StackLeniency: 0.7
Mode: 3
LetterboxInBreaks: 0
SpecialStyle: 0
WidescreenStoryboard: 0

[Editor]
DistanceSpacing: 1
BeatDivisor: 4
GridSize: 4
TimelineZoom: 2

[Metadata]
Title:Untouchable (Sacrofiz Remix)
TitleUnicode:Untouchable (Sacrofiz Remix)
Artist:Tritonal & Cash Cash
ArtistUnicode:Tritonal & Cash Cash
Creator:erlinadewi-
Version:Hyper
Source:
Tags:EDM dance electronic progressive house [BANGKE] [_A_v_a_l_o_n_]
BeatmapID:1047549
BeatmapSetID:491608

[Difficulty]
HPDrainRate:7.5
CircleSize:4
OverallDifficulty:7.5
ApproachRate:5
SliderMultiplier:1.4
SliderTickRate:1

[Events]
//Background and Video events
0,0,"BG.jpg",0,0
//Break Periods
//Storyboard Layer 0 (Background)
//Storyboard Layer 1 (Fail)
//Storyboard Layer 2 (Pass)
//Storyboard Layer 3 (Foreground)
//Storyboard Sound Samples

[TimingPoints]
172,468.75,4,2,1,30,1,0
90172,-100,4,2,1,30,0,1
103297,-100,4,2,1,30,0,0
105640,-100,4,2,1,30,0,1
120172,-100,4,2,1,30,0,0

[HitObjects]
64,192,172,5,0,0:0:0:0:
192,192,172,1,2,0:0:0:0:
192,192,640,1,2,0:0:0:0:
320,192,640,1,0,0:0:0:0:
320,192,1109,1,2,0:0:0:0:
448,192,1109,1,0,0:0:0:0:
64,192,1578,1,0,0:0:0:0:
192,192,1578,1,2,0:0:0:0:
448,192,2047,1,0,0:0:0:0:
320,192,2047,1,2,0:0:0:0:
192,192,2515,1,2,0:0:0:0:
320,192,2515,1,0,0:0:0:0:
192,192,2984,1,0,0:0:0:0:
64,192,2984,1,2,0:0:0:0:
320,192,3453,1,2,0:0:0:0:
448,192,3453,1,0,0:0:0:0:
64,192,3922,1,2,0:0:0:0:
192,192,3922,1,0,0:0:0:0:
192,192,4390,1,2,0:0:0:0:
320,192,4390,1,0,0:0:0:0:
448,192,4859,1,2,0:0:0:0:
320,192,4859,1,0,0:0:0:0:
64,192,5328,1,0,0:0:0:0:
192,192,5328,1,2,0:0:0:0:
448,192,5797,1,2,0:0:0:0:
320,192,5797,1,0,0:0:0:0:
320,192,6265,1,0,0:0:0:0:
192,192,6265,1,2,0:0:0:0:
64,192,6734,1,2,0:0:0:0:
192,192,6734,1,0,0:0:0:0:
448,192,7203,1,0,0:0:0:0:
320,192,7203,1,2,0:0:0:0:
192,192,7672,1,2,0:0:0:0:
64,192,7672,1,0,0:0:0:0:
192,192,8140,1,2,0:0:0:0:
320,192,8140,1,0,0:0:0:0:
320,192,8609,1,2,0:0:0:0:
448,192,8609,1,0,0:0:0:0:
192,192,9078,1,0,0:0:0:0:
64,192,9078,1,2,0:0:0:0:
320,192,9547,1,2,0:0:0:0:
448,192,9547,1,0,0:0:0:0:
320,192,10015,1,0,0:0:0:0:
192,192,10015,1,2,0:0:0:0:
64,192,10484,1,2,0:0:0:0:
192,192,10484,1,0,0:0:0:0:
320,192,10953,1,2,0:0:0:0:
448,192,10953,1,0,0:0:0:0:
64,192,11422,1,2,0:0:0:0:
192,192,11422,1,0,0:0:0:0:
192,192,11890,1,2,0:0:0:0:
320,192,11890,1,0,0:0:0:0:
320,192,12359,1,2,0:0:0:0:
448,192,12359,1,0,0:0:0:0:
192,192,12828,1,2,0:0:0:0:
64,192,12828,1,0,0:0:0:0:
448,192,13297,1,8,0:0:0:0:
320,192,13297,1,0,0:0:0:0:
320,192,13765,1,8,0:0:0:0:
448,192,13765,1,0,0:0:0:0:
320,192,14234,1,8,0:0:0:0:
448,192,14234,1,0,0:0:0:0:
64,192,14468,1,8,0:0:0:0:
192,192,14468,1,4,0:0:0:0:
448,192,14468,1,0,0:0:0:0:
192,192,14703,1,8,0:0:0:0:
64,192,14703,1,4,0:0:0:0:
448,192,14703,128,0,15172:0:0:0:0:
320,192,15172,1,8,0:0:0:0:
64,192,15172,1,2,0:0:0:0:
192,192,15406,1,0,0:0:0:0:
320,192,15640,1,2,0:0:0:0:
448,192,15640,1,8,0:0:0:0:
64,192,15875,1,0,0:0:0:0:
192,192,16109,1,2,0:0:0:0:
320,192,16109,1,8,0:0:0:0:
448,192,16343,1,0,0:0:0:0:
320,192,16461,1,8,0:0:0:0:
64,192,16578,1,2,0:0:0:0:
192,192,16578,1,8,0:0:0:0:
192,192,16812,1,0,0:0:0:0:
320,192,16812,1,8,0:0:0:0:
320,192,17047,1,2,0:0:0:0:
448,192,17047,1,8,0:0:0:0:
64,192,17281,1,0,0:0:0:0:
192,192,17515,1,8,0:0:0:0:
448,192,17515,1,2,0:0:0:0:
320,192,17750,1,0,0:0:0:0:
64,192,17984,1,8,0:0:0:0:
448,192,17984,1,2,0:0:0:0:
192,192,18218,1,0,0:0:0:0:
320,192,18453,1,2,0:0:0:0:
448,192,18453,1,8,0:0:0:0:
64,192,18687,1,0,0:0:0:0:
448,192,18922,1,2,0:0:0:0:
192,192,18922,1,8,0:0:0:0:
320,192,19156,1,0,0:0:0:0:
64,192,19390,1,8,0:0:0:0:
192,192,19390,1,2,0:0:0:0:
448,192,19625,1,0,0:0:0:0:
320,192,19859,1,8,0:0:0:0:
192,192,19859,1,2,0:0:0:0:
64,192,20093,1,0,0:0:0:0:
192,192,20211,1,8,0:0:0:0:
320,192,20328,1,2,0:0:0:0:
448,192,20328,1,8,0:0:0:0:
192,192,20562,1,8,0:0:0:0:
320,192,20562,1,0,0:0:0:0:
64,192,20797,1,2,0:0:0:0:
192,192,20797,1,8,0:0:0:0:
448,192,21031,1,0,0:0:0:0:
192,192,21265,1,2,0:0:0:0:
64,192,21265,1,8,0:0:0:0:
320,192,21500,1,0,0:0:0:0:
64,192,21734,1,8,0:0:0:0:
448,192,21734,1,2,0:0:0:0:
192,192,21968,1,8,0:0:0:0:
320,192,22086,1,8,0:0:0:0:
64,192,22203,1,2,0:0:0:0:
448,192,22203,1,8,0:0:0:0:
192,192,22437,1,8,0:0:0:0:
320,192,22672,1,2,0:0:0:0:
64,192,22672,1,8,0:0:0:0:
448,192,22906,1,8,0:0:0:0:
64,192,23140,1,2,0:0:0:0:
192,192,23140,1,8,0:0:0:0:
320,192,23375,1,8,0:0:0:0:
192,192,23609,1,2,0:0:0:0:
448,192,23609,1,8,0:0:0:0:
320,192,23843,1,8,0:0:0:0:
192,192,23961,1,8,0:0:0:0:
64,192,24078,1,8,0:0:0:0:
448,192,24078,1,2,0:0:0:0:
320,192,24312,1,0,0:0:0:0:
192,192,24312,1,8,0:0:0:0:
448,192,24547,1,8,0:0:0:0:
64,192,24547,1,2,0:0:0:0:
320,192,24781,1,8,0:0:0:0:
448,192,25015,1,2,0:0:0:0:
192,192,25015,1,8,0:0:0:0:
320,192,25250,1,8,0:0:0:0:
64,192,25484,1,2,0:0:0:0:
448,192,25484,1,8,0:0:0:0:
192,192,25718,1,8,0:0:0:0:
64,192,25953,1,2,0:0:0:0:
320,192,25953,1,8,0:0:0:0:
192,192,26187,1,8,0:0:0:0:
320,192,26304,1,8,0:0:0:0:
448,192,26422,1,8,0:0:0:0:
64,192,26422,1,2,0:0:0:0:
192,192,26539,1,8,0:0:0:0:
320,192,26656,1,8,0:0:0:0:
448,192,26773,1,8,0:0:0:0:
64,192,26890,1,2,0:0:0:0:
192,192,26890,1,8,0:0:0:0:
448,192,27007,1,8,0:0:0:0:
320,192,27125,1,8,0:0:0:0:
192,192,27242,1,8,0:0:0:0:
448,192,27359,1,2,0:0:0:0:
64,192,27359,1,8,0:0:0:0:
320,192,27476,1,8,0:0:0:0:
64,192,27593,1,8,0:0:0:0:
192,192,27711,1,8,0:0:0:0:
448,192,27828,1,8,0:0:0:0:
320,192,27828,1,2,0:0:0:0:
192,192,27945,1,8,0:0:0:0:
64,192,28062,1,8,0:0:0:0:
320,192,28179,1,8,0:0:0:0:
64,192,28297,1,8,0:0:0:0:
448,192,28297,1,0,0:0:0:0:
320,192,28414,1,0,0:0:0:0:
192,192,28531,1,0,0:0:0:0:
320,192,28648,1,0,0:0:0:0:
448,192,28765,1,8,0:0:0:0:
64,192,28765,1,8,0:0:0:0:
192,192,28882,1,0,0:0:0:0:
320,192,29000,1,0,0:0:0:0:
192,192,29117,1,0,0:0:0:0:
64,192,29234,1,8,0:0:0:0:
448,192,29234,1,0,0:0:0:0:
320,192,29351,1,0,0:0:0:0:
192,192,29468,1,2,0:0:0:0:
448,192,29468,1,0,0:0:0:0:
64,192,29468,1,4,0:0:0:0:
64,192,29703,1,4,0:0:0:0:
192,192,29703,1,2,0:0:0:0:
448,192,29703,128,0,30172:0:0:0:0:
192,192,30172,1,4,0:0:0:0:
320,192,30172,128,0,30875:0:0:0:0:
192,192,30875,128,0,31578:0:0:0:0:
448,192,31578,128,0,33453:0:0:0:0:
320,192,32047,1,0,0:0:0:0:
192,192,32750,1,0,0:0:0:0:
64,192,33453,1,0,0:0:0:0:
192,192,33922,128,0,34625:0:0:0:0:
320,192,34625,128,0,35328:0:0:0:0:
64,192,35328,128,0,37203:0:0:0:0:
192,192,35797,1,0,0:0:0:0:
448,192,36500,1,0,0:0:0:0:
320,192,37203,1,0,0:0:0:0:
192,192,37672,128,0,38375:0:0:0:0:
320,192,38375,128,0,39078:0:0:0:0:
448,192,39078,128,0,41422:0:0:0:0:
192,192,43297,128,0,45172:0:0:0:0:
64,192,45172,1,2,0:0:0:0:
448,192,45172,1,0,0:0:0:0:
320,192,45172,1,0,0:0:0:0:
320,192,45640,1,0,0:0:0:0:
192,192,45640,1,8,0:0:0:0:
448,192,45875,1,2,0:0:0:0:
64,192,45875,1,0,0:0:0:0:
192,192,46109,1,0,0:0:0:0:
448,192,46343,1,0,0:0:0:0:
320,192,46343,1,2,0:0:0:0:
64,192,46578,1,8,0:0:0:0:
320,192,46578,128,0,47047:0:0:0:0:
448,192,47047,1,2,0:0:0:0:
192,192,47047,1,0,0:0:0:0:
448,192,47515,1,8,0:0:0:0:
64,192,47515,1,0,0:0:0:0:
320,192,47750,1,2,0:0:0:0:
192,192,47750,1,0,0:0:0:0:
448,192,47984,1,0,0:0:0:0:
64,192,48218,1,2,0:0:0:0:
192,192,48218,1,0,0:0:0:0:
448,192,48453,1,8,0:0:0:0:
320,192,48453,1,0,0:0:0:0:
192,192,48687,1,2,0:0:0:0:
320,192,48922,1,2,0:0:0:0:
64,192,48922,128,0,49390:0:0:0:0:
192,192,49390,1,8,0:0:0:0:
448,192,49390,1,0,0:0:0:0:
192,192,49625,128,0,50093:0:0:0:0:
320,192,49625,1,2,0:0:0:0:
64,192,49859,1,0,0:0:0:0:
320,192,50093,1,2,0:0:0:0:
448,192,50093,1,0,0:0:0:0:
320,192,50328,128,8,50797:0:0:0:0:
64,192,50328,1,0,0:0:0:0:
192,192,50797,1,2,0:0:0:0:
448,192,50797,1,0,0:0:0:0:
192,192,51265,1,8,0:0:0:0:
320,192,51265,1,0,0:0:0:0:
448,192,51500,1,0,0:0:0:0:
64,192,51500,1,2,0:0:0:0:
320,192,51734,1,0,0:0:0:0:
192,192,51968,1,2,0:0:0:0:
64,192,51968,1,0,0:0:0:0:
320,192,52203,1,8,0:0:0:0:
448,192,52203,1,0,0:0:0:0:
64,192,52437,1,2,0:0:0:0:
192,192,52672,128,0,53140:0:0:0:0:
320,192,52672,1,2,0:0:0:0:
448,192,53140,1,8,0:0:0:0:
64,192,53140,1,0,0:0:0:0:
192,192,53375,1,2,0:0:0:0:
320,192,53375,128,0,53843:0:0:0:0:
64,192,53609,1,0,0:0:0:0:
192,192,53843,1,2,0:0:0:0:
448,192,53843,1,2,0:0:0:0:
448,192,54078,128,8,54547:0:0:0:0:
64,192,54078,1,0,0:0:0:0:
320,192,54547,1,2,0:0:0:0:
192,192,54547,1,0,0:0:0:0:
320,192,55015,1,8,0:0:0:0:
448,192,55015,1,0,0:0:0:0:
192,192,55250,1,2,0:0:0:0:
64,192,55250,1,0,0:0:0:0:
448,192,55484,1,0,0:0:0:0:
64,192,55718,1,0,0:0:0:0:
320,192,55718,1,2,0:0:0:0:
192,192,55953,1,8,0:0:0:0:
448,192,55953,1,0,0:0:0:0:
64,192,56187,1,2,0:0:0:0:
192,192,56422,1,2,0:0:0:0:
320,192,56422,128,0,56890:0:0:0:0:
64,192,56890,1,0,0:0:0:0:
448,192,56890,1,8,0:0:0:0:
320,192,57125,1,2,0:0:0:0:
192,192,57125,128,0,57593:0:0:0:0:
64,192,57359,1,0,0:0:0:0:
448,192,57593,1,2,0:0:0:0:
320,192,57593,1,0,0:0:0:0:
64,192,57828,128,8,58297:0:0:0:0:
448,192,57828,1,0,0:0:0:0:
320,192,58297,128,0,60172:0:0:0:0:
192,192,59703,128,0,60172:0:0:0:0:
64,192,60172,1,0,0:0:0:0:
448,192,60172,1,0,0:0:0:0:
192,192,60406,1,0,0:0:0:0:
448,192,60640,1,0,0:0:0:0:
192,192,60875,1,0,0:0:0:0:
320,192,60875,1,0,0:0:0:0:
64,192,61109,1,0,0:0:0:0:
320,192,61343,1,0,0:0:0:0:
64,192,61578,1,0,0:0:0:0:
448,192,61578,1,0,0:0:0:0:
192,192,61812,1,0,0:0:0:0:
320,192,62047,1,0,0:0:0:0:
64,192,62281,1,0,0:0:0:0:
448,192,62515,128,0,62750:0:0:0:0:
320,192,62750,1,0,0:0:0:0:
64,192,62984,128,0,63218:0:0:0:0:
192,192,63218,128,0,63453:0:0:0:0:
320,192,63453,128,0,63687:0:0:0:0:
448,192,63687,128,0,63922:0:0:0:0:
192,192,63922,1,0,0:0:0:0:
64,192,63922,1,0,0:0:0:0:
320,192,64156,1,0,0:0:0:0:
192,192,64390,1,0,0:0:0:0:
64,192,64625,1,0,0:0:0:0:
448,192,64625,1,0,0:0:0:0:
320,192,64859,1,0,0:0:0:0:
192,192,65093,1,0,0:0:0:0:
448,192,65328,1,0,0:0:0:0:
320,192,65328,1,0,0:0:0:0:
64,192,65562,1,0,0:0:0:0:
320,192,65797,1,0,0:0:0:0:
192,192,66031,1,0,0:0:0:0:
448,192,66265,1,0,0:0:0:0:
192,192,66500,1,0,0:0:0:0:
320,192,66734,1,0,0:0:0:0:
64,192,66968,1,0,0:0:0:0:
448,192,67203,1,0,0:0:0:0:
320,192,67437,1,0,0:0:0:0:
192,192,67672,1,0,0:0:0:0:
448,192,67672,1,0,0:0:0:0:
64,192,67906,1,0,0:0:0:0:
320,192,68140,1,0,0:0:0:0:
64,192,68375,1,0,0:0:0:0:
448,192,68375,1,0,0:0:0:0:
192,192,68609,1,0,0:0:0:0:
320,192,68843,1,0,0:0:0:0:
448,192,69078,1,0,0:0:0:0:
192,192,69078,1,0,0:0:0:0:
64,192,69312,1,0,0:0:0:0:
320,192,69547,1,0,0:0:0:0:
192,192,69781,1,0,0:0:0:0:
448,192,70015,128,0,70250:0:0:0:0:
320,192,70250,1,0,0:0:0:0:
64,192,70484,128,0,70718:0:0:0:0:
192,192,70718,128,0,70953:0:0:0:0:
320,192,70953,128,0,71187:0:0:0:0:
448,192,71187,128,0,71422:0:0:0:0:
64,192,71422,1,0,0:0:0:0:
192,192,71422,1,0,0:0:0:0:
320,192,71656,1,0,0:0:0:0:
192,192,71890,1,0,0:0:0:0:
320,192,72125,1,0,0:0:0:0:
64,192,72125,1,0,0:0:0:0:
448,192,72359,1,0,0:0:0:0:
192,192,72593,1,0,0:0:0:0:
448,192,72828,1,0,0:0:0:0:
320,192,72828,1,0,0:0:0:0:
64,192,73062,1,0,0:0:0:0:
192,192,73297,1,0,0:0:0:0:
320,192,73531,1,0,0:0:0:0:
448,192,73765,1,0,0:0:0:0:
64,192,74000,1,0,0:0:0:0:
320,192,74234,1,0,0:0:0:0:
192,192,74468,1,0,0:0:0:0:
448,192,74703,1,0,0:0:0:0:
64,192,74937,1,0,0:0:0:0:
320,192,75172,1,8,0:0:0:0:
192,192,75172,128,0,75875:0:0:0:0:
64,192,75406,1,0,0:0:0:0:
448,192,75640,1,8,0:0:0:0:
320,192,75640,1,0,0:0:0:0:
448,192,75875,128,0,76343:0:0:0:0:
192,192,76109,1,8,0:0:0:0:
64,192,76109,1,0,0:0:0:0:
320,192,76343,128,0,76578:0:0:0:0:
448,192,76578,1,8,0:0:0:0:
64,192,76578,128,0,78453:0:0:0:0:
192,192,76812,1,0,0:0:0:0:
448,192,77047,1,8,0:0:0:0:
320,192,77047,1,0,0:0:0:0:
320,192,77281,1,0,0:0:0:0:
448,192,77515,1,8,0:0:0:0:
192,192,77515,1,0,0:0:0:0:
320,192,77750,1,0,0:0:0:0:
192,192,77984,1,8,0:0:0:0:
320,192,77984,1,8,0:0:0:0:
448,192,78218,1,0,0:0:0:0:
192,192,78453,1,8,0:0:0:0:
448,192,78453,1,0,0:0:0:0:
64,192,78687,1,8,0:0:0:0:
320,192,78687,1,0,0:0:0:0:
448,192,78922,128,8,79625:0:0:0:0:
192,192,78922,1,0,0:0:0:0:
64,192,79156,1,0,0:0:0:0:
320,192,79390,1,8,0:0:0:0:
192,192,79390,1,0,0:0:0:0:
64,192,79625,128,0,80328:0:0:0:0:
448,192,79859,1,8,0:0:0:0:
320,192,79859,1,0,0:0:0:0:
192,192,80093,1,0,0:0:0:0:
448,192,80328,1,8,0:0:0:0:
320,192,80328,128,0,82203:0:0:0:0:
64,192,80562,1,0,0:0:0:0:
192,192,80797,1,8,0:0:0:0:
448,192,80797,1,0,0:0:0:0:
192,192,81031,1,0,0:0:0:0:
448,192,81265,1,8,0:0:0:0:
64,192,81265,1,0,0:0:0:0:
64,192,81500,1,0,0:0:0:0:
448,192,81734,1,8,0:0:0:0:
192,192,81734,1,0,0:0:0:0:
448,192,81968,1,0,0:0:0:0:
64,192,82203,1,8,0:0:0:0:
192,192,82203,1,0,0:0:0:0:
448,192,82437,1,0,0:0:0:0:
320,192,82437,1,8,0:0:0:0:
192,192,82672,1,8,0:0:0:0:
64,192,82672,1,4,0:0:0:0:
448,192,82672,1,0,0:0:0:0:
192,192,82906,1,8,0:0:0:0:
320,192,82906,1,0,0:0:0:0:
448,192,83140,1,8,0:0:0:0:
320,192,83140,1,0,0:0:0:0:
64,192,83375,1,8,0:0:0:0:
192,192,83375,1,0,0:0:0:0:
448,192,83609,1,8,0:0:0:0:
320,192,83609,1,0,0:0:0:0:
192,192,83843,1,8,0:0:0:0:
320,192,83843,1,0,0:0:0:0:
64,192,84078,1,0,0:0:0:0:
192,192,84078,1,8,0:0:0:0:
320,192,84312,1,0,0:0:0:0:
448,192,84312,1,8,0:0:0:0:
192,192,84547,1,0,0:0:0:0:
64,192,84547,1,8,0:0:0:0:
192,192,84781,1,8,0:0:0:0:
320,192,84781,1,0,0:0:0:0:
448,192,85015,1,8,0:0:0:0:
320,192,85015,1,0,0:0:0:0:
64,192,85250,1,8,0:0:0:0:
192,192,85250,1,0,0:0:0:0:
320,192,85484,1,8,0:0:0:0:
448,192,85484,1,0,0:0:0:0:
320,192,85718,1,8,0:0:0:0:
192,192,85718,1,0,0:0:0:0:
192,192,85953,1,8,0:0:0:0:
64,192,85953,1,0,0:0:0:0:
448,192,86187,1,0,0:0:0:0:
320,192,86187,1,8,0:0:0:0:
448,192,86422,1,2,0:0:0:0:
64,192,86422,1,0,0:0:0:0:
320,192,86539,1,2,0:0:0:0:
192,192,86656,1,2,0:0:0:0:
64,192,86773,1,2,0:0:0:0:
320,192,86890,1,2,0:0:0:0:
448,192,86890,1,0,0:0:0:0:
64,192,87007,1,2,0:0:0:0:
192,192,87125,1,2,0:0:0:0:
320,192,87242,1,2,0:0:0:0:
448,192,87359,1,2,0:0:0:0:
64,192,87359,1,0,0:0:0:0:
192,192,87476,1,2,0:0:0:0:
320,192,87593,1,2,0:0:0:0:
448,192,87711,1,2,0:0:0:0:
64,192,87828,1,2,0:0:0:0:
192,192,87828,1,0,0:0:0:0:
448,192,87945,1,2,0:0:0:0:
320,192,88062,1,2,0:0:0:0:
192,192,88179,1,2,0:0:0:0:
448,192,89703,1,4,0:0:0:0:
192,192,89703,1,2,0:0:0:0:
64,192,89703,1,0,0:0:0:0:
448,192,90172,1,2,0:0:0:0:
64,192,90172,1,8,0:0:0:0:
320,192,90172,1,4,0:0:0:0:
192,192,90406,1,0,0:0:0:0:
320,192,90523,1,0,0:0:0:0:
64,192,90640,1,2,0:0:0:0:
192,192,90640,1,8,0:0:0:0:
320,192,90875,1,0,0:0:0:0:
192,192,90992,1,0,0:0:0:0:
320,192,91109,1,8,0:0:0:0:
448,192,91109,1,2,0:0:0:0:
64,192,91343,1,0,0:0:0:0:
320,192,91461,1,0,0:0:0:0:
64,192,91578,1,2,0:0:0:0:
192,192,91578,1,8,0:0:0:0:
448,192,91812,1,0,0:0:0:0:
192,192,91929,1,0,0:0:0:0:
320,192,92047,1,8,0:0:0:0:
448,192,92047,1,2,0:0:0:0:
192,192,92281,1,0,0:0:0:0:
320,192,92398,1,0,0:0:0:0:
448,192,92515,1,2,0:0:0:0:
64,192,92515,1,8,0:0:0:0:
320,192,92750,1,0,0:0:0:0:
192,192,92867,1,0,0:0:0:0:
64,192,92984,1,2,0:0:0:0:
448,192,92984,1,8,0:0:0:0:
320,192,93218,1,0,0:0:0:0:
192,192,93336,1,0,0:0:0:0:
448,192,93453,1,8,0:0:0:0:
64,192,93453,128,2,93922:0:0:0:0:
320,192,93922,1,8,0:0:0:0:
448,192,93922,1,2,0:0:0:0:
192,192,94156,1,0,0:0:0:0:
320,192,94273,1,0,0:0:0:0:
64,192,94390,1,2,0:0:0:0:
192,192,94390,1,8,0:0:0:0:
320,192,94625,1,0,0:0:0:0:
192,192,94742,1,0,0:0:0:0:
320,192,94859,1,2,0:0:0:0:
448,192,94859,1,8,0:0:0:0:
64,192,95093,1,0,0:0:0:0:
320,192,95211,1,0,0:0:0:0:
192,192,95328,1,2,0:0:0:0:
64,192,95328,1,8,0:0:0:0:
448,192,95562,1,0,0:0:0:0:
192,192,95679,1,0,0:0:0:0:
320,192,95797,1,2,0:0:0:0:
448,192,95797,1,8,0:0:0:0:
192,192,96031,1,0,0:0:0:0:
320,192,96148,1,0,0:0:0:0:
64,192,96265,1,8,0:0:0:0:
448,192,96265,1,2,0:0:0:0:
320,192,96500,1,0,0:0:0:0:
192,192,96617,1,0,0:0:0:0:
64,192,96734,1,8,0:0:0:0:
448,192,96734,1,2,0:0:0:0:
320,192,96968,1,0,0:0:0:0:
192,192,97086,1,0,0:0:0:0:
448,192,97203,128,2,97672:0:0:0:0:
64,192,97203,1,8,0:0:0:0:
192,192,97437,1,0,0:0:0:0:
320,192,97554,1,0,0:0:0:0:
192,192,97672,1,2,0:0:0:0:
64,192,97672,1,8,0:0:0:0:
320,192,97906,1,0,0:0:0:0:
192,192,98023,1,0,0:0:0:0:
448,192,98140,1,8,0:0:0:0:
320,192,98140,1,2,0:0:0:0:
192,192,98375,1,0,0:0:0:0:
320,192,98492,1,0,0:0:0:0:
192,192,98609,1,2,0:0:0:0:
64,192,98609,1,8,0:0:0:0:
320,192,98843,1,0,0:0:0:0:
192,192,98961,1,0,0:0:0:0:
448,192,99078,1,2,0:0:0:0:
64,192,99078,1,8,0:0:0:0:
192,192,99312,1,0,0:0:0:0:
320,192,99429,1,0,0:0:0:0:
448,192,99547,1,8,0:0:0:0:
64,192,99547,1,2,0:0:0:0:
448,192,99781,1,0,0:0:0:0:
320,192,99898,1,0,0:0:0:0:
192,192,100015,1,8,0:0:0:0:
64,192,100015,1,2,0:0:0:0:
64,192,100250,1,0,0:0:0:0:
192,192,100367,1,0,0:0:0:0:
448,192,100484,1,2,0:0:0:0:
320,192,100484,1,8,0:0:0:0:
64,192,100718,1,0,0:0:0:0:
192,192,100836,1,2,0:0:0:0:
320,192,100953,1,2,0:0:0:0:
448,192,100953,128,8,101422:0:0:0:0:
64,192,101187,1,2,0:0:0:0:
192,192,101187,1,0,0:0:0:0:
320,192,101422,1,8,0:0:0:0:
192,192,101422,1,2,0:0:0:0:
64,192,101656,1,0,0:0:0:0:
192,192,101773,1,0,0:0:0:0:
448,192,101890,1,8,0:0:0:0:
320,192,101890,1,2,0:0:0:0:
320,192,102125,1,0,0:0:0:0:
192,192,102242,1,0,0:0:0:0:
64,192,102359,1,2,0:0:0:0:
448,192,102359,1,8,0:0:0:0:
192,192,102593,1,0,0:0:0:0:
320,192,102711,1,0,0:0:0:0:
64,192,102828,1,2,0:0:0:0:
448,192,102828,1,8,0:0:0:0:
320,192,103062,1,0,0:0:0:0:
448,192,103179,1,0,0:0:0:0:
192,192,103297,1,8,0:0:0:0:
64,192,103297,128,0,103531:0:0:0:0:
448,192,103531,1,0,0:0:0:0:
320,192,103648,1,0,0:0:0:0:
192,192,103765,1,8,0:0:0:0:
64,192,103765,128,0,104000:0:0:0:0:
320,192,104000,1,0,0:0:0:0:
448,192,104117,1,0,0:0:0:0:
192,192,104234,1,8,0:0:0:0:
64,192,104234,128,0,104468:0:0:0:0:
448,192,104468,1,8,0:0:0:0:
320,192,104468,1,0,0:0:0:0:
64,192,104703,1,4,0:0:0:0:
192,192,104703,1,8,0:0:0:0:
448,192,104703,128,2,105172:0:0:0:0:
192,192,105172,128,0,105406:0:0:0:0:
320,192,105406,128,0,105640:0:0:0:0:
448,192,105640,1,8,0:0:0:0:
64,192,105640,1,2,0:0:0:0:
192,192,105640,1,0,0:0:0:0:
448,192,105875,128,0,106109:0:0:0:0:
320,192,106109,1,8,0:0:0:0:
192,192,106109,1,2,0:0:0:0:
64,192,106343,128,0,106578:0:0:0:0:
192,192,106578,1,2,0:0:0:0:
320,192,106578,128,8,106812:0:0:0:0:
448,192,106812,128,0,107047:0:0:0:0:
64,192,107047,1,8,0:0:0:0:
192,192,107047,1,2,0:0:0:0:
64,192,107281,128,0,107515:0:0:0:0:
448,192,107515,1,2,0:0:0:0:
320,192,107515,1,8,0:0:0:0:
192,192,107750,128,0,107984:0:0:0:0:
64,192,107984,1,2,0:0:0:0:
448,192,107984,1,8,0:0:0:0:
320,192,108218,1,0,0:0:0:0:
192,192,108336,1,2,0:0:0:0:
64,192,108453,128,8,108687:0:0:0:0:
448,192,108453,1,2,0:0:0:0:
320,192,108687,1,2,0:0:0:0:
192,192,108687,128,0,108922:0:0:0:0:
448,192,108922,128,2,109625:0:0:0:0:
64,192,108922,1,8,0:0:0:0:
320,192,109156,1,0,0:0:0:0:
64,192,109390,1,2,0:0:0:0:
192,192,109390,1,8,0:0:0:0:
320,192,109625,128,0,110562:0:0:0:0:
64,192,109859,1,8,0:0:0:0:
192,192,109859,1,2,0:0:0:0:
192,192,110093,1,0,0:0:0:0:
448,192,110328,1,2,0:0:0:0:
64,192,110328,1,8,0:0:0:0:
192,192,110562,128,0,110797:0:0:0:0:
64,192,110797,1,8,0:0:0:0:
448,192,110797,1,2,0:0:0:0:
192,192,111031,128,0,111265:0:0:0:0:
64,192,111265,1,8,0:0:0:0:
448,192,111265,1,2,0:0:0:0:
192,192,111500,128,0,111734:0:0:0:0:
64,192,111734,1,8,0:0:0:0:
448,192,111734,1,2,0:0:0:0:
192,192,111968,128,0,112203:0:0:0:0:
320,192,112203,128,2,112437:0:0:0:0:
64,192,112203,1,8,0:0:0:0:
448,192,112437,128,8,112672:0:0:0:0:
320,192,112672,1,8,0:0:0:0:
64,192,112672,128,2,113375:0:0:0:0:
192,192,112906,1,0,0:0:0:0:
320,192,113140,1,2,0:0:0:0:
448,192,113140,1,8,0:0:0:0:
192,192,113375,128,0,113609:0:0:0:0:
448,192,113609,1,2,0:0:0:0:
64,192,113609,1,8,0:0:0:0:
320,192,113843,128,0,114078:0:0:0:0:
192,192,114078,1,8,0:0:0:0:
64,192,114078,128,2,114312:0:0:0:0:
448,192,114312,128,0,114547:0:0:0:0:
192,192,114547,1,2,0:0:0:0:
320,192,114547,1,8,0:0:0:0:
320,192,114781,128,0,115015:0:0:0:0:
448,192,115015,1,2,0:0:0:0:
64,192,115015,1,8,0:0:0:0:
192,192,115250,128,0,115484:0:0:0:0:
320,192,115484,1,2,0:0:0:0:
64,192,115484,1,8,0:0:0:0:
448,192,115718,1,0,0:0:0:0:
320,192,115836,1,2,0:0:0:0:
192,192,115953,1,2,0:0:0:0:
64,192,115953,128,8,116187:0:0:0:0:
320,192,116187,1,2,0:0:0:0:
448,192,116187,128,0,116422:0:0:0:0:
192,192,116422,128,4,116656:0:0:0:0:
64,192,116422,1,8,0:0:0:0:
320,192,116656,128,0,116890:0:0:0:0:
448,192,116890,128,8,117125:0:0:0:0:
64,192,116890,1,0,0:0:0:0:
192,192,117125,128,0,117359:0:0:0:0:
320,192,117359,1,8,0:0:0:0:
448,192,117359,1,0,0:0:0:0:
64,192,117593,128,0,117828:0:0:0:0:
320,192,117828,128,0,118062:0:0:0:0:
192,192,117828,1,8,0:0:0:0:
448,192,118062,128,0,119468:0:0:0:0:
64,192,118297,1,8,0:0:0:0:
192,192,118297,1,0,0:0:0:0:
64,192,118765,1,8,0:0:0:0:
192,192,118765,1,0,0:0:0:0:
64,192,119234,1,8,0:0:0:0:
192,192,119234,1,0,0:0:0:0:
320,192,119468,1,2,0:0:0:0:
192,192,119468,1,0,0:0:0:0:
448,192,119703,1,4,0:0:0:0:
64,192,119703,1,2,0:0:0:0:
320,192,119703,1,8,0:0:0:0:
192,192,119937,1,0,0:0:0:0:
320,192,120054,1,0,0:0:0:0:
64,192,120172,1,8,0:0:0:0:
448,192,120172,1,4,0:0:0:0:
