osu file format v12

[General]
AudioFilename: Tristam_Till_Its_Over_converted.mp3
AudioLeadIn: 0
PreviewTime: 69847
Countdown: 0
SampleSet: Soft
StackLeniency: 0.7
Mode: 0
LetterboxInBreaks: 0
EpilepsyWarning: 1
WidescreenStoryboard: 1

[Editor]
Bookmarks: -15,17439,34894,52348,69803,87257,104712,122166,139621,157075,174530,191985,209439,226894,244348,257439,261803
DistanceSpacing: 1.4
BeatDivisor: 4
GridSize: 4

[Metadata]
Title:Till it's Over
TitleUnicode:Till it's Over
Artist:Tristam
ArtistUnicode:Tristam
Creator:[Luanny]
Version:Easy
Source:
Tags:monstercat drumstep dubstep blue dragon djnightmare
BeatmapID:374472
BeatmapSetID:139415

[Difficulty]
HPDrainRate:2
CircleSize:2
OverallDifficulty:2
ApproachRate:2
SliderMultiplier:0.500000005960464
SliderTickRate:1

[Events]
//Background and Video events
0,0,"bg.jpg",0,0
//Break Periods
2,35137,50832
2,122409,138105
//Storyboard Layer 0 (Background)
//Storyboard Layer 1 (Fail)
//Storyboard Layer 2 (Pass)
//Storyboard Layer 3 (Foreground)
Sprite,Foreground,Centre,"Credits\SENPAINOTICEME.png",320,240 S,0,26210,,0.8952729 M,1,26210,26483,408,240,440,240 F,0,26210,26483,0,1 M,0,26483,34665,440,240,445,240 F,0,26483,34665,1 M,2,34665,34938,445,240,464,240 F,0,34665,34938,1,0
//Storyboard Sound Samples
//Background Colour Transformations
3,100,163,162,255

[TimingPoints]
29,545.454545454546,4,2,1,80,1,0
17483,-50,4,2,3,60,0,0
52392,-50,4,3,1,80,0,0
69847,-50,4,2,1,100,0,1
71483,-50,4,2,2,100,0,1
71619,-50,4,2,1,100,0,1
74756,-50,4,2,2,100,0,1
74892,-50,4,2,1,100,0,1
75847,-50,4,2,2,100,0,1
75983,-50,4,2,1,100,0,1
81301,-50,4,2,2,100,0,1
81438,-50,4,2,1,100,0,1
82392,-50,4,2,2,100,0,1
82529,-50,4,2,1,100,0,1
85665,-50,4,2,2,100,0,1
85801,-50,4,2,1,100,0,1
86210,-50,4,2,1,100,0,0
87301,-50,4,2,1,100,0,1
90029,-50,4,2,2,100,0,1
90165,-50,4,2,1,100,0,1
91119,-50,4,2,2,100,0,1
91256,-50,4,2,1,100,0,1
94392,-50,4,2,2,100,0,1
94529,-50,4,2,1,100,0,1
98756,-50,4,2,2,100,0,1
98892,-50,4,2,1,100,0,1
103119,-50,4,2,2,100,0,1
103256,-50,4,2,1,100,0,1
104756,-50,4,2,1,100,0,0
107483,-50,4,2,2,100,0,0
107619,-50,4,2,1,100,0,0
111847,-50,4,2,2,100,0,0
111983,-50,4,2,1,100,0,0
118392,-50,4,2,2,100,0,0
118529,-50,4,2,1,100,0,0
119483,-50,4,2,2,100,0,0
119619,-50,4,2,1,100,0,0
139665,-50,4,2,3,60,0,0
157119,-50,4,3,1,80,0,0
192029,-50,4,2,1,100,0,1
192574,-50,4,2,2,100,0,1
192710,-50,4,2,1,100,0,1
193665,-50,4,2,2,100,0,1
193801,-50,4,2,1,100,0,1
196938,-50,4,2,2,100,0,1
197074,-50,4,2,1,100,0,1
203483,-50,4,2,2,100,0,1
203619,-50,4,2,1,100,0,1
204574,-50,4,2,2,100,0,1
204710,-50,4,2,1,100,0,1
207847,-50,4,2,2,100,0,1
207983,-50,4,2,1,100,0,1
208392,-50,4,2,1,100,0,0
209483,-50,4,2,1,100,0,1
212210,-50,4,2,2,100,0,1
212347,-50,4,2,1,100,0,1
213301,-50,4,2,2,100,0,1
213438,-50,4,2,1,100,0,1
216574,-50,4,2,2,100,0,1
216710,-50,4,2,1,100,0,1
220938,-50,4,2,2,100,0,1
221074,-50,4,2,1,100,0,1
222029,-50,4,2,2,100,0,1
222165,-50,4,2,1,100,0,1
226938,-50,4,2,1,100,0,0
229665,-50,4,2,2,100,0,0
229801,-50,4,2,1,100,0,0
234029,-50,4,2,2,100,0,0
234301,-50,4,2,1,100,0,0
240574,-50,4,2,2,100,0,0
240710,-50,4,2,1,100,0,0
241665,-50,4,2,2,100,0,0
241801,-50,4,2,1,100,0,0
244938,-50,4,2,2,100,0,0
245074,-50,4,2,1,100,0,0
247119,-50,4,2,2,100,0,0
247256,-50,4,2,1,100,0,0
249301,-50,4,2,2,100,0,0
249438,-50,4,2,1,100,0,0
250392,-50,4,2,2,100,0,0
250529,-50,4,2,1,100,0,0
253665,-50,4,2,2,100,0,0
253801,-50,4,2,1,100,0,0
259529,-50,4,2,3,60,0,0

[Colours]
Combo1 : 240,209,32
Combo2 : 158,237,41

[HitObjects]
314,93,17483,2,0,P|407:72|475:139,1,200.000002384186,2|2,0:0|0:0,0:0:0:0:
380,168,19118,1,0,0:0:0:0:
284,188,19665,2,0,L|164:184,1,100.000001192093,2|0,0:0|0:0,0:0:0:0:
144,276,20756,2,0,L|343:282,1,200.000002384186,2|2,0:0|0:0,0:0:0:0:
436,244,22392,5,0,0:0:0:0:
396,152,22938,2,0,B|296:120|296:184|200:152,1,200.000002384186,2|2,0:0|0:0,0:0:0:0:
144,68,24574,1,0,0:0:0:0:
244,64,25119,2,0,L|260:284,1,200.000002384186,2|2,0:0|0:0,0:0:0:0:
280,360,26756,5,0,0:0:0:0:
184,328,27301,2,0,P|136:318|74:332,1,100.000001192093,2|0,0:0|0:0,0:0:0:0:
4,272,28392,2,0,P|96:228|200:236,2,200.000002384186,2|2|2,0:0|0:0|0:0,0:0:0:0:
84,332,31119,1,0,0:0:0:0:
180,364,31665,2,0,L|292:364,1,100.000001192093,2|2,0:0|0:0,0:0:0:0:
376,340,32756,6,0,P|348:280|380:148,2,200.000002384186,2|2|0,0:0|0:0|0:0,0:0:0:0:
56,308,52392,6,0,B|156:276|156:340|252:308,1,200.000002384186,4|0,0:0|0:0,0:0:0:0:
204,220,54029,1,2,0:0:0:0:
116,176,54574,2,0,P|152:136|290:174,1,200.000002384186,4|0,0:0|0:0,0:0:0:0:
296,260,56210,1,2,0:0:0:0:
216,320,56756,6,0,P|152:308|120:276,2,100.000001192093,4|2|0,0:0|0:0|0:0,0:0:0:0:
204,220,58393,1,0,0:0:0:0:
172,124,58938,2,0,L|144:24,2,100.000001192093,4|2|0,0:0|0:0|0:0,0:0:0:0:
108,200,60574,1,4,0:0:0:0:
128,296,61119,6,0,P|200:328|304:268,2,200.000002384186,4|2|4,0:0|0:0|0:0,0:0:0:0:
92,204,63847,1,2,0:0:0:0:
168,140,64392,2,0,L|272:136,1,100.000001192093,0|0,0:0|0:0,0:0:0:0:
356,180,65483,6,0,P|340:264|240:304,1,200.000002384186,4|0,0:0|0:0,0:0:0:0:
144,292,67119,1,2,0:0:0:0:
116,196,67665,2,0,P|132:112|232:72,2,200.000002384186,4|0|4,0:0|0:0|1:0,0:0:0:0:
208,200,70392,5,8,0:0:0:0:
228,288,70938,2,0,L|440:304,1,200.000002384186,4|4,0:0|0:0,0:0:0:0:
504,252,72574,1,8,0:0:0:0:
472,168,73119,2,0,P|428:136|364:144,1,100.000001192093,4|8,0:0|0:0,0:0:0:0:
404,224,74210,6,0,P|344:264|208:248,2,200.000002384186,4|4|4,0:0|0:0|0:0,0:0:0:0:
372,140,76938,1,8,0:0:0:0:
288,108,77483,2,0,L|184:108,2,100.000001192093,4|8|4,0:0|0:0|0:0,0:0:0:0:
328,188,79119,5,8,0:0:0:0:
336,276,79665,2,0,P|284:268|244:220,1,100.000001192093,4|8,0:0|0:0,0:0:0:0:
244,148,80756,2,0,P|316:96|408:140,2,200.000002384186,4|4|4,0:0|0:0|0:0,0:0:0:0:
260,236,83483,5,8,0:0:0:0:
208,308,84029,2,0,P|148:324|100:312,1,100.000001192093,4|8,0:0|0:0,0:0:0:0:
56,248,85119,2,0,P|112:204|128:76,1,200.000002384186,4|4,0:0|0:0,0:0:0:0:
300,52,87301,6,0,L|416:64,1,100.000001192093,4|8,1:0|0:0,0:0:0:0:
428,148,88392,2,0,L|312:160,1,100.000001192093,4|8,0:0|0:0,0:0:0:0:
300,244,89483,2,0,P|372:304|488:276,2,200.000002384186,4|4|4,0:0|0:0|0:0,0:0:0:0:
300,152,92210,5,8,0:0:0:0:
368,96,92756,2,0,P|320:64|260:72,1,100.000001192093,4|8,0:0|0:0,0:0:0:0:
212,124,93847,2,0,P|232:216|336:236,1,200.000002384186,4|4,0:0|0:0,0:0:0:0:
400,188,95483,1,8,0:0:0:0:
408,100,96029,6,0,L|300:60,1,100.000001192093,4|8,1:0|0:0,0:0:0:0:
228,88,97119,2,0,L|120:48,1,100.000001192093,4|8,0:0|0:0,0:0:0:0:
56,96,98210,2,0,P|20:180|76:284,1,200.000002384186,4|4,0:0|0:0,0:0:0:0:
140,224,99847,1,8,0:0:0:0:
204,288,100392,6,0,L|324:288,1,100.000001192093,4|8,0:0|0:0,0:0:0:0:
324,200,101483,2,0,L|204:200,1,100.000001192093,4|8,0:0|0:0,0:0:0:0:
148,148,102574,2,0,P|184:72|308:56,1,200.000002384186,4|0,0:0|0:0,0:0:0:0:
428,164,104756,5,4,1:0:0:0:
392,244,105301,1,8,0:0:0:0:
336,172,105847,2,0,P|340:132|384:80,1,100.000001192093,4|8,0:0|0:0,0:0:0:0:
464,76,106938,2,0,P|516:128|472:248,1,200.000002384186,4|4,0:0|0:0,0:0:0:0:
396,220,108574,1,8,0:0:0:0:
348,296,109119,6,0,L|236:308,1,100.000001192093,4|8,0:0|0:0,0:0:0:0:
188,240,110210,2,0,L|88:229,1,100.000001192093,4|8,0:0|0:0,0:0:0:0:
24,168,111301,2,0,P|48:104|164:56,1,200.000002384186,4|4,0:0|0:0,0:0:0:0:
224,124,112938,1,8,0:0:0:0:
296,72,113483,6,0,L|408:80,1,100.000001192093,4|8,1:0|0:0,0:0:0:0:
408,168,114574,2,0,L|296:160,1,100.000001192093,4|8,0:0|0:0,0:0:0:0:
232,208,115665,1,4,0:0:0:0:
236,296,116210,1,8,0:0:0:0:
308,348,116756,2,0,P|376:356|416:328,1,100.000001192093,4|8,0:0|0:0,0:0:0:0:
352,268,117847,6,0,P|320:204|368:76,2,200.000002384186,4|4|4,0:0|0:0|0:0,0:0:0:0:
432,308,120574,1,8,0:0:0:0:
484,236,121119,2,0,L|484:136,2,100.000001192093,4|8|2,0:0|0:0|0:0,0:0:0:0:
60,104,139665,6,0,L|52:212,2,100.000001192093,2|0|2,0:0|0:0|0:0,0:0:0:0:
124,40,141301,1,2,0:0:0:0:
168,116,141847,2,0,P|264:144|360:104,1,200.000002384186,2|2,0:0|0:0,0:0:0:0:
404,36,143483,1,2,0:0:0:0:
464,104,144029,6,0,L|464:304,2,200.000002384186,2|2|2,0:0|0:0|0:0,0:0:0:0:
400,40,146756,1,0,0:0:0:0:
312,56,147301,2,0,P|259:95|240:142,1,100.000001192093,2|2,0:0|0:0,0:0:0:0:
280,208,148392,6,0,P|192:200|160:100,1,200.000002384186,2|2,0:0|0:0,0:0:0:0:
184,20,150029,1,2,0:0:0:0:
252,80,150574,2,0,L|356:84,1,100.000001192093,2|0,0:0|0:0,0:0:0:0:
328,172,151665,2,0,L|432:176,1,100.000001192093,2|2,0:0|0:0,0:0:0:0:
484,248,152756,6,0,P|420:308|312:304,1,200.000002384186,2|2,0:0|0:0,0:0:0:0:
256,236,154392,1,2,0:0:0:0:
198,304,154938,2,0,P|101:311|28:248,2,200.000002384186,2|2|4,0:0|0:0|0:0,0:0:0:0:
172,220,157665,5,0,0:0:0:0:
260,204,158210,2,0,L|260:100,1,100.000001192093,2|0,0:0|0:0,0:0:0:0:
332,52,159301,2,0,P|420:92|444:196,2,200.000002384186,4|2|4,0:0|0:0|0:0,0:0:0:0:
244,68,162029,5,2,0:0:0:0:
192,140,162574,2,0,P|240:160|300:140,1,100.000001192093,0|0,0:0|0:0,0:0:0:0:
336,76,163665,2,0,L|356:284,1,200.000002384186,4|0,0:0|0:0,0:0:0:0:
304,348,165301,1,2,0:0:0:0:
248,280,165847,6,0,L|136:264,1,100.000001192093,4|2,0:0|0:0,0:0:0:0:
120,180,166938,2,0,L|232:164,1,100.000001192093,0|0,0:0|0:0,0:0:0:0:
260,84,168029,2,0,L|53:54,2,200.000002384186,4|0|4,0:0|0:0|0:0,0:0:0:0:
348,96,170756,5,2,0:0:0:0:
416,152,171301,2,0,P|368:184|320:180,1,100.000001192093,0|0,0:0|0:0,0:0:0:0:
260,124,172392,2,0,P|268:48|376:8,2,200.000002384186,4|2|4,0:0|0:0|0:0,0:0:0:0:
304,204,175119,5,2,0:0:0:0:
248,276,175665,2,0,B|152:308|152:244|52:276,1,200.000002384186,0|4,0:0|0:0,0:0:0:0:
12,356,177301,1,2,0:0:0:0:
100,368,177847,2,0,L|124:164,1,200.000002384186,0|4,0:0|0:0,0:0:0:0:
132,80,179483,5,2,0:0:0:0:
204,132,180029,2,0,P|252:139|304:112,2,100.000001192093,0|0|4,0:0|0:0|0:0,0:0:0:0:
240,48,181665,1,2,0:0:0:0:
328,32,182210,2,0,P|384:88|344:196,1,200.000002384186,0|4,0:0|0:0,0:0:0:0:
260,204,183847,5,2,0:0:0:0:
172,232,184392,2,0,L|172:336,1,100.000001192093,0|0,0:0|0:0,0:0:0:0:
252,372,185483,2,0,P|324:368|392:260,1,200.000002384186,4|0,0:0|0:0,0:0:0:0:
376,180,187119,1,2,0:0:0:0:
308,120,187665,6,0,B|208:88|208:152|112:120,2,200.000002384186,4|0|4,0:0|0:0|0:0,0:0:0:0:
336,204,190392,1,2,0:0:0:0:
272,268,190938,2,0,L|152:268,1,100.000001192093,0|2,0:0|0:0,0:0:0:0:
88,300,192029,6,0,P|56:240|96:120,2,200.000002384186,4|4|4,1:0|0:0|0:0,0:0:0:0:
168,260,194756,1,8,0:0:0:0:
220,336,195301,2,0,L|324:336,1,100.000001192093,4|8,0:0|0:0,0:0:0:0:
364,256,196392,6,0,P|304:188|320:80,1,200.000002384186,4|4,0:0|0:0,0:0:0:0:
396,48,198029,1,8,0:0:0:0:
468,100,198574,2,0,L|468:208,1,100.000001192093,4|8,0:0|0:0,0:0:0:0:
392,248,199665,2,0,L|392:356,2,100.000001192093,4|8|4,0:0|0:0|0:0,0:0:0:0:
356,164,201301,5,8,0:0:0:0:
280,112,201847,2,0,P|228:112|176:152,1,100.000001192093,4|8,0:0|0:0,0:0:0:0:
164,224,202938,2,0,P|180:300|292:328,2,200.000002384186,4|4|4,0:0|0:0|0:0,0:0:0:0:
204,144,205665,5,8,0:0:0:0:
264,212,206210,2,0,P|324:236|368:220,1,100.000001192093,4|8,0:0|0:0,0:0:0:0:
324,144,207301,2,0,P|300:80|180:20,1,200.000002384186,4|4,0:0|0:0,0:0:0:0:
60,148,209483,6,0,L|56:248,1,100.000001192093,4|8,1:0|0:0,0:0:0:0:
144,272,210574,2,0,L|148:172,1,100.000001192093,4|8,0:0|0:0,0:0:0:0:
196,96,211665,2,0,P|296:92|364:172,2,200.000002384186,4|4|4,0:0|0:0|0:0,0:0:0:0:
236,176,214392,5,8,0:0:0:0:
168,236,214938,2,0,L|168:340,1,100.000001192093,4|8,0:0|0:0,0:0:0:0:
252,372,216029,2,0,P|348:368|392:272,1,200.000002384186,4|4,0:0|0:0,0:0:0:0:
352,204,217665,1,8,0:0:0:0:
420,144,218210,6,0,P|376:116|308:124,1,100.000001192093,4|8,1:0|0:0,0:0:0:0:
260,172,219301,2,0,P|216:200|152:196,1,100.000001192093,4|8,0:0|0:0,0:0:0:0:
100,144,220392,2,0,P|160:200|156:316,2,200.000002384186,4|4|4,0:0|0:0|0:0,0:0:0:0:
16,116,223119,5,8,0:0:0:0:
68,44,223665,2,0,P|120:24|180:44,1,100.000001192093,4|8,0:0|0:0,0:0:0:0:
256,192,224755,12,4,226937,1:0:0:0:
120,140,227483,1,8,0:0:0:0:
176,212,228029,2,0,P|172:252|128:304,1,100.000001192093,4|8,0:0|0:0,0:0:0:0:
48,308,229120,2,0,P|-4:256|40:136,1,200.000002384186,4|4,0:0|0:0,0:0:0:0:
116,164,230756,1,8,0:0:0:0:
164,88,231301,6,0,L|276:76,1,100.000001192093,4|8,0:0|0:0,0:0:0:0:
324,144,232392,2,0,L|424:155,1,100.000001192093,4|8,0:0|0:0,0:0:0:0:
488,216,233483,2,0,P|464:280|348:328,1,200.000002384186,4|4,0:0|0:0,0:0:0:0:
288,260,235120,1,8,0:0:0:0:
216,312,235665,6,0,L|104:304,1,100.000001192093,4|8,1:0|0:0,0:0:0:0:
104,216,236756,2,0,L|216:224,1,100.000001192093,4|8,0:0|0:0,0:0:0:0:
280,176,237847,1,4,0:0:0:0:
276,88,238392,1,8,0:0:0:0:
204,36,238938,2,0,P|136:28|96:56,1,100.000001192093,4|8,0:0|0:0,0:0:0:0:
160,116,240029,6,0,P|192:180|144:308,2,200.000002384186,4|4|4,0:0|0:0|0:0,0:0:0:0:
80,76,242756,1,8,0:0:0:0:
28,148,243301,2,0,L|28:248,1,100.000001192093,4|8,0:0|0:0,0:0:0:0:
76,324,244392,6,0,B|176:292|176:356|272:324,1,200.000002384186,4|4,1:0|0:0,0:0:0:0:
324,248,246029,1,8,0:0:0:0:
244,206,246574,2,0,P|288:166|407:214,1,200.000002384186,4|4,0:0|0:0,0:0:0:0:
462,281,248210,1,8,0:0:0:0:
373,296,248756,6,0,L|409:92,2,200.000002384186,4|4|4,0:0|0:0|0:0,0:0:0:0:
316,368,251483,1,8,0:0:0:0:
224,348,252029,2,0,P|176:312|164:268,1,100.000001192093,4|8,0:0|0:0,0:0:0:0:
252,264,253119,6,0,P|312:208|308:88,1,200.000002384186,4|4,1:0|0:0,0:0:0:0:
252,28,254756,1,8,0:0:0:0:
172,68,255301,2,0,L|168:176,1,100.000001192093,4|8,0:0|0:0,0:0:0:0:
252,204,256392,2,0,L|256:312,1,100.000001192093,4|8,0:0|0:0,0:0:0:0:
324,364,257483,5,4,0:0:0:0:
456,240,258574,1,4,0:0:0:0:
280,204,259665,6,0,P|216:204|180:220,2,100.000001192093,6|2|2,0:0|0:0|0:0,0:0:0:0:
348,264,261301,2,0,L|408:264,1,50.0000005960464,0|2,0:0|0:0,0:0:0:0:
