osu file format v12

[General]
AudioFilename: Tristam_Till_Its_Over_converted.mp3
AudioLeadIn: 0
PreviewTime: 69847
Countdown: 0
SampleSet: Soft
StackLeniency: 0.7
Mode: 0
LetterboxInBreaks: 0
EpilepsyWarning: 1
WidescreenStoryboard: 1

[Editor]
Bookmarks: -15,17439,34894,52348,69257,69803,87257,104712,122166,139621,157075,174530,191985,200712,209439,226894,244348,257439,261803
DistanceSpacing: 1.2
BeatDivisor: 4
GridSize: 4

[Metadata]
Title:Till it's Over
TitleUnicode:Till it's Over
Artist:Tristam
ArtistUnicode:Tristam
Creator:[Luanny]
Version:BD's Hard
Source:
Tags:monstercat drumstep dubstep blue dragon djnightmare
BeatmapID:368934
BeatmapSetID:139415

[Difficulty]
HPDrainRate:6
CircleSize:4
OverallDifficulty:7
ApproachRate:8
SliderMultiplier:1.4
SliderTickRate:4

[Events]
//Background and Video events
0,0,"bg.jpg",0,0
//Break Periods
2,35138,51643
//Storyboard Layer 0 (Background)
//Storyboard Layer 1 (Fail)
//Storyboard Layer 2 (Pass)
//Storyboard Layer 3 (Foreground)
Sprite,Foreground,Centre,"Credits\mapper.png",320,240 M,1,17210,17483,220,240,234,240 F,0,17210,17483,0,1 S,0,17483,,0.7498181 M,0,17483,34665,234,240,243,240 F,0,17483,34665,1 M,2,34665,34938,243,240,262,240 F,0,34665,34938,1,0
Sprite,Foreground,Centre,"Credits\BDRAWKSOMG.png",320,240 S,0,26210,,0.6800001 M,1,26210,26483,408,240,440,240 F,0,26210,26483,0,1 M,0,26483,34665,440,240,445,240 F,0,26483,34665,1 M,2,34665,34938,445,240,464,240 F,0,34665,34938,1,0
//Storyboard Sound Samples
//Background Colour Transformations
3,100,163,162,255

[TimingPoints]
29,545.454545454546,4,2,1,80,1,0
17483,-76.9230769230769,4,2,3,60,0,0
52392,-100,4,3,1,80,0,0
69847,-50,4,2,1,100,0,1
86210,-50,4,2,1,100,0,0
87301,-50,4,2,1,100,0,1
104756,-58.8235294117647,4,2,1,100,0,0
122210,-100,4,2,3,50,0,0
138029,-100,4,2,3,5,0,0
139665,-76.9230769230769,4,2,3,60,0,0
157119,-100,4,3,1,80,0,0
190392,-76.9230769230769,4,3,1,80,0,0
192029,-50,4,2,1,100,0,1
208392,-50,4,2,1,100,0,0
209483,-50,4,2,1,100,0,1
226938,-58.8235294117647,4,2,1,100,0,0
259529,-76.9230769230769,4,2,3,60,0,0

[Colours]
Combo1 : 240,209,32
Combo2 : 158,237,41

[HitObjects]
92,64,17483,6,0,P|84:108|104:152,1,90.9999958343508,2|0,0:0|0:0,0:0:0:0:
144,220,17893,2,0,P|161:261|153:305,1,90.9999958343508,2|0,0:0|0:0,0:0:0:0:
96,364,18302,1,2,0:0:0:0:
36,212,18574,1,2,0:0:0:0:
188,148,18847,1,0,0:0:0:0:
248,300,19120,2,0,P|336:320|408:264,1,181.999991668702,2|2,0:0|0:0,0:0:0:0:
484,124,19938,5,0,0:0:0:0:
484,124,20074,2,0,L|456:24,1,90.9999958343508,2|0,0:0|0:0,0:0:0:0:
380,24,20483,1,2,0:0:0:0:
260,172,20756,2,0,P|204:156|176:128,1,90.9999958343508,0|0,0:0|0:0,0:0:0:0:
156,56,21165,1,0,0:0:0:0:
232,24,21302,2,0,P|288:40|316:68,1,90.9999958343508,2|0,0:0|0:0,0:0:0:0:
340,140,21711,1,2,0:0:0:0:
400,196,21847,6,0,L|384:248,1,45.4999979171754,2|0,0:0|0:0,0:0:0:0:
328,297,22120,2,0,L|344:349,1,45.4999979171754,0|2,0:0|0:0,0:0:0:0:
416,372,22393,2,0,P|468:344|480:312,1,90.9999958343508,0|2,0:0|0:0,0:0:0:0:
452,92,22938,6,0,L|400:76,1,45.4999979171754,2|2,0:0|0:0,0:0:0:0:
351,20,23211,2,0,L|299:36,1,45.4999979171754,0|0,0:0|0:0,0:0:0:0:
244,88,23483,2,0,B|198:103|198:72|152:88,1,90.9999958343508,2|2,0:0|0:0,0:0:0:0:
96,148,23893,1,2,0:0:0:0:
68,224,24029,6,0,L|96:320,1,90.9999958343508,2|0,0:0|0:0,0:0:0:0:
156,368,24438,2,0,L|184:272,1,90.9999958343508,2|0,0:0|0:0,0:0:0:0:
244,224,24847,2,0,L|272:320,1,90.9999958343508,2|0,0:0|0:0,0:0:0:0:
332,368,25256,2,0,L|360:272,1,90.9999958343508,2|0,0:0|0:0,0:0:0:0:
380,204,25665,1,2,0:0:0:0:
424,48,25938,1,2,0:0:0:0:
268,92,26211,6,0,P|220:96|176:72,1,90.9999958343508,2|0,0:0|0:0,0:0:0:0:
132,12,26620,1,2,0:0:0:0:
56,48,26756,2,0,L|8:40,2,45.4999979171754,0|0|2,0:0|0:0|0:0,0:0:0:0:
160,172,27302,1,2,0:0:0:0:
44,284,27574,1,0,0:0:0:0:
44,284,27711,1,2,0:0:0:0:
44,284,27847,2,0,L|68:376,1,90.9999958343508,0|2,0:0|0:0,0:0:0:0:
204,280,28393,6,0,P|272:276|328:324,1,136.499993751526,2|2,0:0|0:0,0:0:0:0:
376,380,28938,2,0,L|456:328,1,90.9999958343508,0|2,0:0|0:0,0:0:0:0:
452,168,29483,2,0,P|440:148|424:132,1,45.4999979171754,2|2,0:0|0:0,0:0:0:0:
320,160,29756,2,0,P|332:180|348:196,1,45.4999979171754,0|2,0:0|0:0,0:0:0:0:
344,64,30029,2,0,L|248:72,1,90.9999958343508,0|0,0:0|0:0,0:0:0:0:
196,140,30438,1,2,0:0:0:0:
96,252,30574,6,0,P|40:228|28:156,1,136.499993751526,2|2,0:0|0:0,0:0:0:0:
92,108,31120,2,0,P|148:132|160:204,1,136.499993751526,0|0,0:0|0:0,0:0:0:0:
96,252,31665,2,0,L|76:300,1,45.4999979171754,2|2,0:0|0:0,0:0:0:0:
164,296,31938,2,0,L|164:347,1,45.4999979171754,0|0,0:0|0:0,0:0:0:0:
244,312,32211,2,0,L|263:360,1,45.4999979171754,2|0,0:0|0:0,0:0:0:0:
323,295,32483,2,0,L|360:331,1,45.4999979171754,2|2,0:0|0:0,0:0:0:0:
392,252,32756,6,0,P|416:200|416:160,1,90.9999958343508,2|0,0:0|0:0,0:0:0:0:
368,100,33165,1,2,0:0:0:0:
288,112,33302,1,0,0:0:0:0:
244,312,33574,2,0,L|196:332,1,45.4999979171754,2|0,0:0|0:0,0:0:0:0:
132,372,33847,2,0,L|84:352,1,45.4999979171754,2|2,0:0|0:0,0:0:0:0:
16,320,34120,1,0,0:0:0:0:
16,320,34256,1,0,0:0:0:0:
16,320,34393,2,0,P|40:264|40:224,2,90.9999958343508,0|2|0,0:0|0:0|0:0,0:0:0:0:
56,256,52393,6,0,P|120:252|176:300,1,140,4|2,0:0|0:0,0:0:0:0:
216,372,53211,1,4,0:0:0:0:
292,336,53483,2,0,L|404:352,2,105,0|0|4,0:0|0:0|0:0,0:0:0:0:
252,260,54574,2,0,P|248:196|288:120,1,140,4|2,0:0|0:0,0:0:0:0:
352,88,55393,1,4,0:0:0:0:
408,148,55665,2,0,L|512:120,2,105,0|0|4,0:0|0:0|0:0,0:0:0:0:
336,192,56756,2,0,P|256:180|208:140,1,140,4|2,0:0|0:0,0:0:0:0:
192,64,57574,1,4,0:0:0:0:
268,28,57847,6,0,P|304:28|344:48,1,70,0|4,0:0|0:0,0:0:0:0:
394,100,58393,2,0,P|428:100|460:86,1,70,0|4,0:0|0:0,0:0:0:0:
312,124,58938,2,0,L|344:264,1,140,4|2,0:0|0:0,0:0:0:0:
272,328,59756,2,0,L|240:188,1,140,4|0,0:0|0:0,0:0:0:0:
216,112,60574,1,4,0:0:0:0:
136,84,60847,1,0,0:0:0:0:
60,52,61120,6,0,P|32:104|40:192,1,140,4|2,0:0|0:0,0:0:0:0:
92,248,61938,1,4,0:0:0:0:
44,316,62211,2,0,P|64:344|96:360,1,70,0|4,0:0|0:0,0:0:0:0:
132,340,62620,2,0,L|244:352,1,105,0|4,0:0|0:0,0:0:0:0:
320,368,63302,2,0,P|367:314|432:320,1,140,4|2,0:0|0:0,0:0:0:0:
500,368,64120,1,4,0:0:0:0:
500,368,64393,2,0,L|448:196,1,175,0|4,0:0|0:0,0:0:0:0:
432,164,65211,1,0,0:0:0:0:
456,84,65483,6,0,P|404:84|348:172,1,140,4|2,0:0|0:0,0:0:0:0:
364,228,66302,1,4,0:0:0:0:
304,288,66574,2,0,L|156:248,1,140,0|2,0:0|0:0,0:0:0:0:
88,228,67393,1,4,0:0:0:0:
36,164,67665,6,0,P|32:144|32:124,1,35,4|0,0:0|0:0,0:0:0:0:
96,40,67938,2,0,P|100:60|100:80,1,35,0|0,0:0|0:0,0:0:0:0:
144,156,68211,2,0,L|224:132,1,70,2|0,0:0|0:0,0:0:0:0:
276,96,68620,1,0,0:0:0:0:
344,128,68756,2,0,L|388:120,1,35,0|0,0:0|0:0,0:0:0:0:
363,208,69029,2,0,L|400:234,1,35,0|0,0:0|0:0,0:0:0:0:
320,280,69302,2,0,L|336:348,1,70,2|4,0:0|0:0,0:0:0:0:
92,352,69847,6,0,P|100:276|64:216,1,140,4|2,1:0|0:0,0:0:0:0:
8,168,70256,1,0,0:0:0:0:
24,84,70393,2,0,L|96:56,1,70,8|0,0:0|0:0,0:0:0:0:
148,118,70665,2,0,L|220:90,1,70,2|0,0:0|0:0,0:0:0:0:
292,64,70938,2,0,B|344:48|344:48|378:67|378:67|430:51,1,140,4|2,0:0|0:0,0:0:0:0:
496,8,71347,1,0,0:0:0:0:
512,92,71483,2,0,L|496:160,1,70,8|0,0:0|0:0,0:0:0:0:
436,219,71756,2,0,L|420:287,1,70,2|0,0:0|0:0,0:0:0:0:
364,348,72029,6,0,P|328:292|256:284,1,140,4|2,0:0|0:0,0:0:0:0:
180,304,72438,1,0,0:0:0:0:
104,336,72574,2,0,L|32:320,1,70,8|0,0:0|0:0,0:0:0:0:
0,200,72847,2,0,L|72:216,1,70,2|0,0:0|0:0,0:0:0:0:
152,228,73120,2,0,P|200:176|196:104,1,140,4|2,0:0|0:0,0:0:0:0:
136,52,73529,1,0,0:0:0:0:
56,80,73665,2,0,P|24:60|0:36,2,70,8|0|2,0:0|0:0|0:0,0:0:0:0:
136,52,74074,1,0,0:0:0:0:
216,28,74211,6,0,L|360:56,1,140,4|2,0:0|0:0,0:0:0:0:
432,80,74620,1,0,0:0:0:0:
492,140,74756,2,0,P|500:172|492:208,1,70,8|0,0:0|0:0,0:0:0:0:
388,288,75029,2,0,P|380:256|388:220,1,70,2|0,0:0|0:0,0:0:0:0:
456,328,75302,2,0,P|412:364|332:344,1,140,4|2,0:0|0:0,0:0:0:0:
304,268,75711,1,0,0:0:0:0:
316,184,75847,2,0,L|296:116,1,70,8|0,0:0|0:0,0:0:0:0:
216,60,76120,2,0,L|196:128,1,70,2|0,0:0|0:0,0:0:0:0:
160,204,76393,6,0,P|84:200|28:152,2,140,4|2|8,0:0|0:0|0:0,0:0:0:0:
240,184,77074,1,0,0:0:0:0:
304,240,77211,2,0,P|320:272|324:308,1,70,2|0,0:0|0:0,0:0:0:0:
276,376,77483,2,0,L|432:336,1,140,4|2,0:0|0:0,0:0:0:0:
492,312,77893,1,0,0:2:0:0:
428,256,78029,2,0,P|424:224|432:180,1,70,8|0,0:0|0:0,0:0:0:0:
496,136,78302,2,0,P|500:104|492:60,1,70,2|0,0:0|0:0,0:0:0:0:
428,16,78574,6,0,P|356:4|300:48,1,140,4|0,0:0|0:0,0:0:0:0:
272,120,78983,1,0,0:0:0:0:
348,152,79120,2,0,P|376:172|420:176,1,70,8|0,0:0|0:0,0:0:0:0:
272,120,79393,2,0,P|232:124|200:144,1,70,2|0,0:0|0:0,0:0:0:0:
152,204,79665,2,0,P|140:276|172:344,1,140,4|2,0:0|0:0,0:0:0:0:
240,376,80074,1,0,0:0:0:0:
324,368,80211,2,0,L|392:332,1,70,8|0,0:0|0:0,0:0:0:0:
445,275,80483,2,0,L|409:207,1,70,2|0,0:0|0:2,0:0:0:0:
348,152,80756,6,0,P|280:163|212:124,1,140,4|2,0:0|0:0,0:0:0:0:
160,68,81165,1,0,0:0:0:0:
228,20,81302,1,8,0:0:0:0:
228,20,81438,1,0,0:0:0:0:
228,20,81574,2,0,P|260:16|300:32,1,70,2|0,0:0|0:0,0:0:0:0:
368,68,81847,2,0,L|504:32,2,140,4|2|8,0:0|0:0|0:0,0:0:0:0:
300,120,82529,1,0,0:0:0:0:
280,200,82665,2,0,P|280:232|296:276,1,70,2|0,0:0|0:0,0:0:0:0:
348,332,82938,6,0,B|288:296|288:296|212:304,1,140,4|2,0:0|0:0,0:0:0:0:
136,328,83347,1,0,0:0:0:0:
56,352,83483,2,0,P|40:316|40:284,1,70,8|0,0:0|0:0,0:0:0:0:
88,216,83756,2,0,L|72:136,1,70,2|0,0:0|0:0,0:0:0:0:
44,68,84029,2,0,P|116:68|172:28,1,140,4|2,0:0|0:0,0:0:0:0:
252,12,84438,1,0,0:0:0:0:
252,12,84574,2,0,L|332:32,1,70,8|0,0:0|0:0,0:0:0:0:
400,96,84847,2,0,L|320:116,1,70,2|0,0:0|0:0,0:0:0:0:
272,168,85120,6,0,P|256:240|416:320,1,280,4|8,0:0|0:0,0:0:0:0:
476,268,85802,1,0,0:0:0:0:
488,184,85938,2,0,P|480:144|464:104,1,70,2|0,0:0|0:0,0:0:0:0:
410,57,86211,1,4,0:0:0:0:
32,308,87302,6,0,L|180:324,1,140,4|2,1:0|0:0,0:0:0:0:
244,280,87711,1,0,0:0:0:0:
324,300,87847,2,0,B|340:268|340:268|340:228,1,70,8|0,0:0|0:0,0:0:0:0:
280,112,88120,2,0,B|264:144|264:144|264:184,1,70,2|0,0:0|0:0,0:0:0:0:
340,232,88393,2,0,P|424:232|464:192,1,140,4|2,0:0|0:0,0:0:0:0:
504,124,88802,1,0,0:0:0:0:
432,80,88938,2,0,L|404:12,1,70,8|0,0:0|0:0,0:0:0:0:
352,80,89211,2,0,L|324:12,1,70,2|0,0:0|0:0,0:0:0:0:
280,112,89483,6,0,P|216:128|144:88,1,140,4|2,0:0|0:0,0:0:0:0:
112,20,89893,1,0,0:0:0:0:
32,52,90029,2,0,L|16:120,1,70,8|0,0:0|0:0,0:0:0:0:
72,208,90302,2,0,L|88:140,1,70,2|0,0:0|0:0,0:0:0:0:
152,97,90574,2,0,P|192:153|196:229,1,140,4|2,0:0|0:0,0:0:0:0:
152,292,90983,1,0,0:0:0:0:
80,332,91120,2,0,P|40:328|4:304,1,70,8|0,0:0|0:0,0:0:0:0:
152,292,91393,2,0,P|192:296|228:320,1,70,2|0,0:0|0:0,0:0:0:0:
284,360,91665,5,4,0:0:0:0:
364,332,91802,1,0,0:0:0:0:
444,360,91938,2,0,P|472:296|444:228,1,140,2|8,0:0|0:0,0:0:0:0:
376,192,92347,1,0,0:0:0:0:
300,228,92483,2,0,L|232:210,1,70,2|0,0:0|0:0,0:0:0:0:
160,252,92756,2,0,L|11:212,2,140,4|2|8,0:0|0:0|0:0,0:0:0:0:
232,210,93438,1,0,0:0:0:0:
248,128,93574,2,0,P|244:88|220:56,1,70,2|0,0:0|0:0,0:0:0:0:
156,20,93847,6,0,P|100:12|32:60,1,140,4|2,0:0|0:0,0:0:0:0:
0,136,94256,1,0,0:0:0:0:
44,208,94393,2,0,P|48:248|44:280,1,70,8|0,0:0|0:0,0:0:0:0:
8,352,94665,1,2,0:0:0:0:
8,352,94802,1,0,0:0:0:0:
92,364,94938,2,0,L|176:356,1,70,4|2,0:0|0:0,0:0:0:0:
324,312,95347,1,4,0:0:0:0:
404,284,95483,2,0,P|425:252|430:206,1,70,8|0,0:0|0:0,0:0:0:0:
424,136,95756,2,0,P|407:102|370:74,1,70,2|0,0:0|0:0,0:0:0:0:
308,40,96029,6,0,B|236:28|236:28|177:60,1,140,4|2,1:0|0:0,0:0:0:0:
108,112,96438,1,0,0:0:0:0:
148,188,96574,2,0,L|128:256,1,70,8|0,0:0|0:0,0:0:0:0:
108,112,96847,2,0,P|93:84|92:44,1,70,2|0,0:0|0:0,0:0:0:0:
178,61,97120,2,0,L|302:129,1,140,4|2,0:0|0:0,0:0:0:0:
300,213,97529,1,0,0:0:0:0:
300,296,97665,2,0,P|328:320|367:332,1,70,8|0,0:0|0:0,0:0:0:0:
443,331,97938,2,0,P|467:303|479:263,1,70,2|0,0:0|0:0,0:0:0:0:
478,188,98211,6,0,P|450:164|410:151,1,70,4|0,0:0|0:0,0:0:0:0:
336,140,98483,1,2,0:0:0:0:
336,140,98756,2,0,L|352:68,1,70,8|0,0:0|0:0,0:0:0:0:
280,8,99029,2,0,L|264:80,1,70,2|0,0:0|0:0,0:0:0:0:
252,160,99302,2,0,P|180:168|116:124,1,140,4|2,0:0|0:0,0:0:0:0:
88,56,99711,1,0,0:0:0:0:
88,56,99847,2,0,L|32:116,1,70,8|0,0:0|0:0,0:0:0:0:
67,188,100120,2,0,L|20:240,1,70,2|0,0:0|0:0,0:0:0:0:
100,272,100393,6,0,P|168:268|224:316,2,140,4|2|8,0:0|0:0|0:0,0:0:0:0:
28,316,101074,1,0,0:0:0:0:
84,384,101211,2,0,P|128:372|144:352,1,70,2|0,0:0|0:0,0:0:0:0:
100,272,101483,2,0,L|160:108,1,140,4|2,0:0|0:0,0:0:0:0:
216,88,101893,1,0,0:0:0:0:
292,48,102029,2,0,B|328:48|328:48|364:64,1,70,8|0,0:0|0:0,0:0:0:0:
418,121,102302,2,0,B|454:121|454:121|490:105,1,70,2|0,0:0|0:0,0:0:0:0:
344,164,102574,6,0,P|336:216|384:292,1,140,4|2,0:0|0:0,0:0:0:0:
444,340,102983,1,0,0:0:0:0:
460,256,103120,1,8,0:0:0:0:
460,256,103256,1,0,0:0:0:0:
460,256,103393,2,0,P|464:220|460:180,1,70,2|0,0:0|0:0,0:0:0:0:
256,192,103665,12,4,104756,1:0:0:0:
420,40,105029,5,2,0:0:0:0:
420,40,105165,1,0,0:0:0:0:
420,40,105302,2,0,P|456:88|452:148,1,119.000002269745,8|2,0:0|0:0,0:0:0:0:
400,196,105711,1,0,0:0:0:0:
328,184,105847,1,4,0:0:0:0:
284,320,106120,1,2,0:0:0:0:
216,296,106256,1,0,0:0:0:0:
148,272,106393,2,0,P|76:264|35:295,1,119.000002269745,8|2,0:0|0:0,0:0:0:0:
104,344,106802,1,0,0:0:0:0:
104,344,106938,2,0,L|60:104,1,238.00000453949,4|8,0:0|0:0,0:0:0:0:
180,32,107756,5,2,0:0:0:0:
252,40,107893,1,0,0:0:0:0:
324,48,108029,2,0,P|384:56|432:100,1,119.000002269745,4|2,0:0|0:0,0:0:0:0:
452,160,108438,1,0,0:0:0:0:
464,232,108574,2,0,B|451:280|451:280|464:292|464:292|448:340,1,119.000002269745,8|2,0:0|0:0,0:0:0:0:
388,384,108983,1,0,0:0:0:0:
316,376,109120,2,0,P|244:344|248:196,1,238.00000453949,4|8,0:0|0:0,0:0:0:0:
312,176,109802,6,0,P|320:112|288:60,1,119.000002269745,0|2,0:0|0:0,0:0:0:0:
217,66,110211,2,0,P|190:118|200:176,1,119.000002269745,4|2,0:0|0:0,0:0:0:0:
256,220,110620,1,0,0:0:0:0:
312,264,110756,2,0,L|432:232,1,119.000002269745,8|2,0:0|0:0,0:0:0:0:
496,212,111165,1,0,0:0:0:0:
448,160,111302,6,0,P|436:92|456:48,2,119.000002269745,4|2|8,0:0|0:0|0:0,0:0:0:0:
496,212,111983,1,0,0:0:0:0:
504,284,112120,2,0,L|476:344,1,59.5000011348725,2|0,0:0|0:0,0:0:0:0:
420,380,112393,2,0,P|372:336|312:328,1,119.000002269745,4|2,0:0|0:0,0:0:0:0:
252,352,112802,1,0,0:0:0:0:
184,380,112938,2,0,P|126:368|84:326,1,119.000002269745,8|2,0:0|0:0,0:0:0:0:
16,204,113483,6,0,L|152:176,1,119.000002269745,4|2,1:0|0:0,0:0:0:0:
204,164,113893,1,0,0:0:0:0:
276,152,114029,2,0,B|308:152|308:152|336:164,1,59.5000011348725,8|0,0:0|0:0,0:0:0:0:
372,272,114302,2,0,B|340:272|340:272|312:260,1,59.5000011348725,2|0,0:0|0:0,0:0:0:0:
276,152,114574,2,0,P|272:88|312:44,1,119.000002269745,4|2,0:0|0:0,0:0:0:0:
376,40,114983,1,0,0:0:0:0:
444,64,115120,1,8,0:0:0:0:
496,196,115393,1,2,0:0:0:0:
372,272,115665,2,0,L|120:232,1,238.00000453949,4|8,0:0|0:0,0:0:0:0:
72,200,116347,6,0,P|56:136|72:88,1,119.000002269745,0|0,0:0|0:0,0:0:0:0:
123,36,116756,2,0,P|187:20|235:36,1,119.000002269745,4|2,0:0|0:0,0:0:0:0:
296,76,117165,1,0,0:0:0:0:
292,148,117302,2,0,L|356:260,1,119.000002269745,8|2,0:0|0:0,0:0:0:0:
388,312,117711,1,0,0:0:0:0:
460,296,117847,2,0,P|476:280|488:244,1,59.5000011348725,4|0,0:0|0:0,0:0:0:0:
500,176,118120,2,0,P|499:153|483:119,1,59.5000011348725,2|0,0:0|0:0,0:0:0:0:
433,70,118393,2,0,P|417:54|381:42,1,59.5000011348725,8|0,0:0|0:0,0:0:0:0:
313,30,118665,2,0,P|290:30|256:46,1,59.5000011348725,2|0,0:0|0:0,0:0:0:0:
216,104,118938,6,0,L|92:72,1,119.000002269745,4|2,0:0|0:0,0:0:0:0:
32,48,119347,1,0,0:0:0:0:
32,48,119483,2,0,P|88:112|68:256,1,238.00000453949,8|4,0:0|0:0,0:0:0:0:
16,304,120165,1,0,0:0:0:0:
56,364,120302,2,0,L|120:356,1,59.5000011348725,2|0,0:0|0:0,0:0:0:0:
188,348,120574,2,0,P|252:340|300:372,1,119.000002269745,8|2,0:0|0:0,0:0:0:0:
432,328,121120,2,0,L|460:192,1,119.000002269745,4|2,0:0|0:0,0:0:0:0:
472,140,121529,1,0,0:0:0:0:
436,80,121665,1,8,0:0:0:0:
304,24,121938,1,2,0:0:0:0:
172,28,122211,6,0,P|116:48|92:104,2,105,2|2|2,0:0|0:0|0:0,0:0:0:0:
236,80,123302,1,0,0:0:0:0:
236,80,123438,2,0,L|260:148,1,70,2|0,0:0|0:0,0:0:0:0:
284,212,123847,1,2,0:0:0:0:
444,260,124393,1,0,0:0:0:0:
328,380,124938,1,2,0:0:0:0:
328,380,126574,6,0,P|280:348|256:344,1,70,2|0,0:0|0:0,0:0:0:0:
200,364,126983,2,0,L|184:296,1,70,2|0,0:0|0:0,0:0:0:0:
168,224,127393,2,0,P|124:224|72:256,2,105,2|2|2,0:0|0:0|0:0,0:0:0:0:
336,200,128756,1,0,0:0:0:0:
224,72,129302,1,2,0:0:0:0:
168,224,129847,1,0,0:0:0:0:
168,224,130938,6,0,L|240:256,1,70,2|0,0:0|0:0,0:0:0:0:
288,304,131347,2,0,L|360:272,1,70,2|0,0:0|0:0,0:0:0:0:
416,240,131756,2,0,P|408:180|436:132,2,105,2|2|2,0:0|0:0|0:0,0:0:0:0:
508,380,133120,1,0,0:0:0:0:
344,340,133665,1,2,0:0:0:0:
56,340,135302,6,0,P|64:296|64:264,1,70,2|0,0:0|0:0,0:0:0:0:
24,208,135711,2,0,L|52:128,1,70,2|0,0:0|0:0,0:0:0:0:
40,68,136120,2,0,P|88:64|144:92,1,105,2|0,0:0|0:0,0:0:0:0:
201,206,136938,5,2,0:0:0:0:
274,245,137211,1,0,0:0:0:0:
360,245,137483,1,0,0:0:0:0:
439,213,137756,1,2,0:0:0:0:
256,192,138029,12,2,139665,0:0:0:0:
424,64,139938,5,0,0:0:0:0:
424,64,140074,2,0,P|432:112|424:156,1,90.9999958343508,2|0,0:0|0:0,0:0:0:0:
388,216,140483,2,0,L|304:180,2,90.9999958343508,2|2|0,0:0|0:0|0:0,0:0:0:0:
452,248,141165,1,0,0:0:0:0:
372,372,141438,1,0,0:0:0:0:
372,372,141574,1,0,0:0:0:0:
236,324,141847,6,0,P|184:320|144:340,1,90.9999958343508,2|0,0:0|0:0,0:0:0:0:
88,376,142256,2,0,L|52:280,1,90.9999958343508,2|0,0:0|0:0,0:0:0:0:
36,220,142665,1,2,0:0:0:0:
60,152,142802,1,0,0:0:0:0:
124,112,142938,2,0,B|160:88|160:88|216:88,1,90.9999958343508,2|0,0:0|0:0,0:0:0:0:
276,108,143347,2,0,B|323:108|323:108|359:84,1,90.9999958343508,2|0,0:0|0:0,0:0:0:0:
412,32,143756,1,2,0:0:0:0:
268,32,144029,6,0,P|224:52|200:92,1,90.9999958343508,2|0,0:0|0:0,0:0:0:0:
201,159,144438,2,0,P|226:196|267:213,1,90.9999958343508,2|0,0:0|0:0,0:0:0:0:
340,196,144847,1,2,0:0:0:0:
444,296,145120,6,0,P|488:276|512:236,1,90.9999958343508,2|0,0:0|0:0,0:0:0:0:
511,169,145529,2,0,P|485:131|444:114,1,90.9999958343508,2|0,0:0|0:0,0:0:0:0:
372,132,145938,2,0,L|316:112,1,45.4999979171754,2|2,0:0|0:0,0:0:0:0:
276,68,146211,6,0,P|232:80|184:76,1,90.9999958343508,2|0,0:0|0:0,0:0:0:0:
135,25,146620,2,0,L|95:109,1,90.9999958343508,2|0,0:0|0:0,0:0:0:0:
72,176,147029,1,2,0:0:0:0:
72,176,147165,1,0,0:0:0:0:
72,176,147302,2,0,P|116:192|144:224,1,90.9999958343508,2|0,0:0|0:0,0:0:0:0:
168,292,147711,2,0,P|176:338|162:378,1,90.9999958343508,0|0,0:0|0:0,0:0:0:0:
104,332,148120,1,2,0:0:0:0:
220,228,148393,6,0,L|312:236,1,90.9999958343508,2|0,0:0|0:0,0:0:0:0:
384,240,148802,2,0,P|420:200|424:160,1,90.9999958343508,2|0,0:0|0:0,0:0:0:0:
416,92,149211,1,2,0:0:0:0:
280,40,149483,5,2,0:0:0:0:
312,184,149756,1,2,0:0:0:0:
312,184,149893,1,0,0:0:0:0:
452,224,150165,1,0,0:0:0:0:
452,224,150302,2,0,L|464:276,1,45.4999979171754,0|0,0:0|0:0,0:0:0:0:
476,340,150574,6,0,P|420:324|384:328,1,90.9999958343508,2|0,0:0|0:0,0:0:0:0:
324,364,150983,2,0,P|278:365|236:351,1,90.9999958343508,2|0,0:0|0:0,0:0:0:0:
188,296,151393,2,0,L|200:240,1,45.4999979171754,2|0,0:0|0:0,0:0:0:0:
208,180,151665,6,0,P|200:132|172:96,1,90.9999958343508,2|0,0:0|0:0,0:0:0:0:
144,32,152074,2,0,L|256:20,1,90.9999958343508,0|0,0:0|0:0,0:0:0:0:
304,40,152483,1,2,0:0:0:0:
360,88,152620,1,0,0:0:0:0:
384,156,152756,6,0,P|386:198|372:246,1,90.9999958343508,2|0,0:0|0:0,0:0:0:0:
332,304,153165,2,0,L|340:356,2,45.4999979171754,2|0|0,0:0|0:0|0:0,0:0:0:0:
264,276,153574,2,0,P|236:276|216:280,1,45.4999979171754,2|0,0:0|0:0,0:0:0:0:
152,304,153847,6,0,L|104:320,2,45.4999979171754,2|2|0,0:0|0:0|0:0,0:0:0:0:
116,240,154256,2,0,L|68:256,2,45.4999979171754,0|2|0,0:0|0:0|0:0,0:0:0:0:
144,172,154665,2,0,P|144:148|140:120,1,45.4999979171754,2|2,0:0|0:0,0:0:0:0:
100,64,154938,6,0,P|144:40|188:40,1,90.9999958343508,2|0,0:0|0:0,0:0:0:0:
252,60,155347,2,0,P|276:104|276:148,1,90.9999958343508,2|0,0:0|0:0,0:0:0:0:
248,212,155756,2,0,L|256:268,1,45.4999979171754,2|0,0:0|0:0,0:0:0:0:
276,328,156029,5,2,0:0:0:0:
336,284,156165,1,2,0:0:0:0:
408,276,156302,1,0,0:0:0:0:
480,292,156438,2,0,L|508:332,2,45.4999979171754,0|2|0,0:0|0:0|0:0,0:0:0:0:
460,220,156847,2,0,L|468:168,1,45.4999979171754,2|0,0:0|0:0,0:0:0:0:
480,100,157120,6,0,P|440:76|344:80,1,140,4|0,0:0|0:0,0:0:0:0:
284,168,157938,1,4,0:0:0:0:
176,136,158211,2,0,L|64:152,2,105,2|0|4,0:0|0:0|0:0,0:0:0:0:
284,168,159302,6,0,P|304:216|288:308,1,140,4|2,0:0|0:0,0:0:0:0:
200,364,160120,1,4,0:0:0:0:
96,320,160393,2,0,L|44:216,1,105,2|0,0:0|0:0,0:0:0:0:
16,160,160938,2,0,P|16:116|32:88,1,70,0|4,0:0|0:0,0:0:0:0:
124,36,161483,6,0,L|280:56,1,140,4|2,0:0|0:0,0:0:0:0:
376,64,162302,1,4,0:0:0:0:
452,144,162574,2,0,P|456:184|448:224,1,70,0|4,0:0|0:0,0:0:0:0:
356,272,163120,2,0,P|352:232|360:192,1,70,0|4,0:0|0:0,0:0:0:0:
277,148,163665,2,0,P|228:142|144:190,1,140,4|2,0:0|0:0,0:0:0:0:
192,312,164483,2,0,P|241:318|325:270,1,140,4|4,0:0|0:0,0:0:0:0:
376,180,165302,1,0,0:0:0:0:
416,76,165574,1,4,0:0:0:0:
488,160,165847,6,0,L|460:300,1,140,4|2,0:0|0:0,0:0:0:0:
388,384,166665,1,4,0:0:0:0:
292,324,166938,2,0,P|248:320|192:356,1,105,0|0,0:0|0:0,0:0:0:0:
132,380,167483,2,0,L|64:348,1,70,0|4,0:0|0:0,0:0:0:0:
12,252,168029,2,0,P|44:204|128:192,1,140,4|2,0:0|0:0,0:0:0:0:
208,260,168847,1,4,0:0:0:0:
308,212,169120,2,0,L|424:72,1,175,0|0,0:0|0:0,0:0:0:0:
468,20,169938,1,2,0:0:0:0:
468,20,170211,2,0,P|452:64|464:156,1,140,4|2,0:0|0:0,0:0:0:0:
500,260,171029,1,4,0:0:0:0:
420,340,171302,2,0,L|272:312,1,140,0|0,0:0|0:0,0:0:0:0:
172,292,172120,1,4,0:0:0:0:
64,260,172393,6,0,P|48:216|64:120,1,140,4|2,0:0|0:0,0:0:0:0:
184,48,173211,2,0,P|200:92|184:188,1,140,4|2,0:0|0:0,0:0:0:0:
172,292,174029,1,4,0:0:0:0:
272,344,174302,1,4,0:0:0:0:
376,308,174574,6,0,P|416:272|436:176,1,140,4|2,0:0|0:0,0:0:0:0:
404,84,175393,1,4,0:0:0:0:
308,140,175665,2,0,L|200:108,1,105,0|0,0:0|0:0,0:0:0:0:
136,88,176211,2,0,P|100:88|60:104,1,70,0|4,0:0|0:0,0:0:0:0:
20,200,176756,6,0,P|20:272|64:324,1,140,4|2,0:0|0:0,0:0:0:0:
168,292,177574,1,4,0:0:0:0:
256,364,177847,2,0,L|436:344,1,175,0|2,0:0|0:0,0:0:0:0:
488,296,178665,1,4,0:0:0:0:
488,296,178938,6,0,P|496:240|452:168,1,140,4|2,0:0|0:0,0:0:0:0:
356,116,179756,1,4,0:0:0:0:
356,228,180029,2,0,L|276:244,1,70,0|4,0:0|0:0,0:0:0:0:
208,321,180574,2,0,L|128:305,1,70,0|4,0:0|0:0,0:0:0:0:
52,236,181120,1,4,0:0:0:0:
36,124,181393,1,0,0:0:0:0:
112,40,181665,2,0,P|232:24|328:148,1,280,2|0,0:0|0:0,0:0:0:0:
280,240,183029,1,4,0:0:0:0:
300,348,183302,6,0,L|448:328,1,140,4|2,0:0|0:0,0:0:0:0:
484,228,184120,1,4,0:0:0:0:
376,204,184393,2,0,P|340:169|352:48,1,175,0|0,0:0|0:0,0:0:0:0:
420,28,185211,1,4,0:0:0:0:
420,28,185483,6,0,L|272:16,1,140,4|2,0:0|0:0,0:0:0:0:
172,44,186302,1,4,0:0:0:0:
104,132,186574,2,0,P|96:172|160:284,1,175,0|4,0:0|0:0,0:0:0:0:
232,264,187393,1,0,0:0:0:0:
232,264,187665,6,0,P|280:264|344:328,1,140,4|2,0:0|0:0,0:0:0:0:
444,372,188483,1,4,0:0:0:0:
484,268,188756,2,0,L|492:220,1,35,0|0,0:0|0:0,0:0:0:0:
424,208,189029,2,0,L|432:160,1,35,4|0,0:0|0:0,0:0:0:0:
364,148,189302,2,0,L|372:100,1,35,2|0,0:0|0:0,0:0:0:0:
304,88,189574,2,0,L|312:40,1,35,4|0,0:0|0:0,0:0:0:0:
248,16,189847,5,4,0:0:0:0:
180,12,189983,1,0,0:0:0:0:
112,28,190120,1,0,0:0:0:0:
60,76,190256,1,0,0:0:0:0:
60,76,190393,6,0,P|48:128|52:164,1,90.9999958343508,2|0,0:0|0:0,0:0:0:0:
100,244,190802,1,0,0:0:0:0:
184,212,190938,2,0,L|232:232,1,45.4999979171754,0|0,0:0|0:0,0:0:0:0:
226,320,191211,2,0,L|274:340,1,45.4999979171754,0|0,0:0|0:0,0:0:0:0:
344,288,191483,2,0,P|369:269|430:273,1,90.9999958343508,2|4,0:0|0:0,0:0:0:0:
456,104,192029,6,0,P|408:48|336:48,1,140,4|2,1:0|0:0,0:0:0:0:
272,84,192438,1,0,0:0:0:0:
308,160,192574,2,0,L|356:224,1,70,8|0,0:0|0:0,0:0:0:0:
312,312,192847,2,0,L|264:248,1,70,2|0,0:0|0:0,0:0:0:0:
192,224,193120,2,0,P|120:235|71:290,1,140,4|2,0:0|0:0,0:0:0:0:
112,360,193529,1,0,0:0:0:0:
192,332,193665,2,0,L|264:352,1,70,8|0,0:0|0:0,0:0:0:0:
319,291,193938,2,0,L|391:311,1,70,2|0,0:0|0:0,0:0:0:0:
472,304,194211,6,0,P|488:236|464:164,1,140,4|2,0:0|0:0,0:0:0:0:
404,116,194620,1,0,0:0:0:0:
324,148,194756,2,0,L|264:104,1,70,8|0,0:0|0:0,0:0:0:0:
183,106,195029,2,0,L|123:150,1,70,2|0,0:0|0:0,0:0:0:0:
42,147,195302,2,0,P|24:76|40:8,2,140,4|2|8,0:0|0:0|0:0,0:0:0:0:
92,216,195983,1,0,0:0:0:0:
96,300,196120,2,0,L|68:372,1,70,2|0,0:0|0:0,0:0:0:0:
92,216,196393,6,0,P|168:208|220:244,1,140,4|2,0:0|0:0,0:0:0:0:
268,312,196802,1,0,0:0:0:0:
348,340,196938,2,0,P|383:337|420:328,1,70,8|0,0:0|0:0,0:0:0:0:
475,269,197211,2,0,P|472:233|463:197,1,70,2|0,0:0|0:0,0:0:0:0:
428,124,197483,2,0,L|276:84,1,140,4|2,0:0|0:0,0:0:0:0:
208,88,197893,1,0,0:0:0:0:
140,136,198029,2,0,P|124:168|124:212,1,70,8|0,0:0|0:0,0:0:0:0:
208,260,198302,2,0,P|224:228|224:184,1,70,2|0,0:0|0:0,0:0:0:0:
208,87,198574,6,0,P|115:29|140:136,1,280,4|8,0:0|0:0,0:0:0:0:
216,172,199256,1,0,0:0:0:0:
292,136,199393,2,0,L|376:148,1,70,2|0,0:0|0:0,0:0:0:0:
444,168,199665,2,0,B|472:236|472:236|440:304,1,140,4|2,0:0|0:0,0:0:0:0:
388,360,200074,1,0,0:0:0:0:
324,308,200211,1,8,0:0:0:0:
240,288,200347,1,0,0:0:0:0:
156,296,200483,2,0,L|96:332,1,70,2|0,0:0|0:0,0:0:0:0:
156,296,200756,6,0,P|180:192|56:92,1,280,4|8,0:0|0:0,0:0:0:0:
4,156,201438,1,0,0:0:0:0:
32,236,201574,2,0,L|100:204,1,70,2|0,0:0|0:0,0:0:0:0:
171,165,201847,2,0,P|243:149|307:181,1,140,4|2,0:0|0:0,0:0:0:0:
364,232,202256,1,0,0:0:0:0:
392,312,202393,2,0,L|376:380,2,70,8|0|2,0:0|0:0|0:0,0:0:0:0:
364,232,202802,1,0,0:0:0:0:
412,164,202938,6,0,P|404:80|364:36,1,140,4|2,0:0|0:0,0:0:0:0:
292,8,203347,1,0,0:0:0:0:
236,72,203483,2,0,L|168:60,1,70,8|0,0:0|0:0,0:0:0:0:
64,120,203756,2,0,L|132:132,1,70,2|0,0:0|0:0,0:0:0:0:
204,176,204029,2,0,B|218:232|218:232|194:250|194:250|208:302,1,140,4|2,0:0|0:0,0:0:0:0:
232,384,204438,1,0,0:0:0:0:
296,332,204574,1,8,0:0:0:0:
376,312,204711,1,0,0:0:0:0:
456,340,204847,2,0,L|512:384,1,70,2|0,0:0|0:0,0:0:0:0:
376,312,205120,6,0,P|366:243|395:180,1,140,4|2,0:0|0:0,0:0:0:0:
472,140,205529,1,0,0:0:0:0:
476,224,205665,1,8,0:0:0:0:
476,224,205802,1,0,0:0:0:0:
396,181,205938,2,0,L|324:153,1,70,2|0,0:0|0:0,0:0:0:0:
252,124,206211,2,0,P|172:112|112:144,1,140,4|2,0:0|0:0,0:0:0:0:
48,180,206620,1,0,0:0:0:0:
92,252,206756,2,0,L|100:328,1,70,8|0,0:0|0:0,0:0:0:0:
48,180,207029,2,0,L|40:104,1,70,2|0,0:0|0:0,0:0:0:0:
80,36,207302,6,0,B|148:16|148:16|216:36,1,140,4|2,0:0|0:0,0:0:0:0:
256,108,207711,1,0,0:0:0:0:
324,60,207847,2,0,P|360:56|396:60,1,70,8|0,0:0|0:0,0:0:0:0:
464,160,208120,2,0,P|428:164|392:160,1,70,2|0,0:0|0:0,0:0:0:0:
320,200,208393,1,4,0:0:0:0:
320,200,209483,6,0,P|288:272|308:332,1,140,4|2,1:0|0:0,0:0:0:0:
384,356,209893,1,0,0:0:0:0:
452,304,210029,2,0,L|468:228,1,70,8|0,0:0|0:0,0:0:0:0:
466,148,210302,2,0,L|452:80,1,70,2|0,0:0|0:0,0:0:0:0:
384,28,210574,2,0,P|312:28|248:68,1,140,4|2,0:0|0:0,0:0:0:0:
212,136,210983,1,0,0:0:0:0:
248,212,211120,2,0,P|244:252|220:284,1,70,8|0,0:0|0:0,0:0:0:0:
156,316,211393,2,0,P|116:312|84:288,1,70,2|0,0:0|0:0,0:0:0:0:
28,240,211665,6,0,L|16:92,2,140,4|2|8,0:0|0:0|0:0,0:0:0:0:
92,296,212347,1,0,0:0:0:0:
168,324,212483,2,0,L|244:312,1,70,2|0,0:0|0:0,0:0:0:0:
320,300,212756,2,0,P|392:300|460:340,1,140,4|2,0:0|0:0,0:0:0:0:
508,268,213165,1,0,0:0:0:0:
508,268,213302,2,0,L|488:192,1,70,8|0,0:0|0:0,0:0:0:0:
490,115,213574,2,0,L|510:39,1,70,2|0,0:0|0:0,0:0:0:0:
428,16,213847,6,0,P|356:12|292:56,1,140,4|2,0:0|0:0,0:0:0:0:
256,116,214256,1,0,0:0:0:0:
304,184,214393,2,0,P|344:188|380:176,2,70,8|0|2,0:0|0:0|0:0,0:0:0:0:
256,116,214802,1,0,0:0:0:0:
176,92,214938,2,0,L|32:116,1,140,4|2,0:0|0:0,0:0:0:0:
8,192,215347,1,0,0:0:0:0:
37,268,215483,2,0,L|106:280,1,70,8|0,0:0|0:0,0:0:0:0:
188,296,215756,2,0,L|257:307,1,70,2|0,0:0|0:0,0:0:0:0:
340,324,216029,6,0,B|400:292|400:292|472:300,2,140,4|2|8,0:0|0:0|0:0,0:0:0:0:
257,308,216711,1,0,0:0:0:0:
292,232,216847,2,0,P|296:184|288:152,1,70,2|0,0:0|0:0,0:0:0:0:
252,92,217120,1,4,0:0:0:0:
252,92,217256,2,0,L|404:52,1,140,2|4,0:0|0:0,0:0:0:0:
468,36,217665,2,0,P|480:72|476:108,1,70,8|0,0:0|0:0,0:0:0:0:
436,176,217938,2,0,P|400:188|364:184,1,70,2|0,0:0|0:0,0:0:0:0:
292,152,218211,6,0,P|224:140|148:176,1,140,4|2,1:0|0:0,0:0:0:0:
96,220,218620,1,0,0:0:0:0:
92,304,218756,2,0,L|152:352,1,70,8|0,0:0|0:0,0:0:0:0:
96,220,219029,2,0,L|36:172,1,70,2|0,0:0|0:0,0:0:0:0:
92,304,219302,2,0,P|160:316|236:280,1,140,4|2,0:0|0:0,0:0:0:0:
288,236,219711,1,0,0:0:0:0:
292,152,219847,2,0,L|272:72,1,70,8|0,0:0|0:0,0:0:0:0:
332,24,220120,1,2,0:0:0:0:
332,24,220256,1,0,0:0:0:0:
332,24,220393,6,0,P|416:20|472:52,1,140,4|2,0:0|0:0,0:0:0:0:
508,116,220802,1,0,0:0:0:0:
444,172,220938,2,0,L|456:244,1,70,8|0,0:0|0:0,0:0:0:0:
484,320,221211,1,2,0:0:0:0:
484,320,221347,1,0,0:0:0:0:
484,320,221483,2,0,B|416:312|416:312|344:344,1,140,4|2,0:0|0:0,0:0:0:0:
272,376,221893,1,0,0:0:0:0:
188,372,222029,2,0,P|156:356|128:324,1,70,8|0,0:0|0:0,0:0:0:0:
132,246,222302,2,0,P|147:215|172:191,1,70,2|0,0:0|0:0,0:0:0:0:
252,168,222574,6,0,P|297:105|288:31,2,140,4|2|8,0:0|0:0|0:0,0:0:0:0:
173,192,223256,1,0,0:0:0:0:
96,156,223393,2,0,L|48:104,1,70,2|0,0:0|0:0,0:0:0:0:
173,192,223665,2,0,B|184:264|184:264|152:324,1,140,4|2,0:0|0:0,0:0:0:0:
76,356,224074,1,0,0:0:0:0:
16,296,224211,2,0,B|5:224|5:224|37:164,1,140,8|2,0:0|0:0,0:0:0:0:
112,128,224620,1,0,0:0:0:0:
112,128,224756,5,4,0:0:0:0:
256,192,224893,12,4,226939,1:0:0:0:
352,80,227211,6,0,L|416:64,1,59.5000011348725,2|0,0:0|0:0,0:0:0:0:
304,136,227483,2,0,P|296:200|316:256,1,119.000002269745,8|2,0:0|0:0,0:0:0:0:
360,312,227893,1,0,0:0:0:0:
436,324,228029,2,0,L|496:304,1,59.5000011348725,4|0,0:0|0:0,0:0:0:0:
504,228,228302,1,2,0:0:0:0:
504,228,228438,1,0,0:0:0:0:
440,188,228574,2,0,P|432:120|464:64,1,119.000002269745,8|2,0:0|0:0,0:0:0:0:
500,12,228983,1,0,0:0:0:0:
500,12,229120,6,0,L|248:52,1,238.00000453949,4|8,0:0|0:0,0:0:0:0:
188,64,229802,2,0,P|136:72|68:56,1,119.000002269745,0|0,0:0|0:0,0:0:0:0:
0,92,230211,2,0,L|24:212,1,119.000002269745,4|2,0:0|0:0,0:0:0:0:
44,284,230620,1,0,0:0:0:0:
76,356,230756,2,0,P|136:360|152:356,1,59.5000011348725,8|0,0:0|0:0,0:0:0:0:
189,305,231029,2,0,P|249:301|265:305,1,59.5000011348725,2|0,0:0|0:0,0:0:0:0:
316,340,231302,6,0,P|380:336|420:284,1,119.000002269745,4|2,0:0|0:0,0:0:0:0:
432,224,231711,1,0,0:0:0:0:
384,164,231847,2,0,L|387:104,1,59.5000011348725,8|0,0:0|0:0,0:0:0:0:
472,28,232120,2,0,L|468:100,1,59.5000011348725,2|0,0:0|0:0,0:0:0:0:
387,105,232393,2,0,P|323:97|267:129,1,119.000002269745,4|2,0:0|0:0,0:0:0:0:
228,184,232802,1,0,0:0:0:0:
236,260,232938,1,8,0:0:0:0:
132,376,233211,1,2,0:0:0:0:
52,244,233483,6,0,B|40:180|40:180|52:124,1,119.000002269745,4|2,0:0|0:0,0:0:0:0:
76,56,233893,1,0,0:0:0:0:
140,12,234029,2,0,L|204:24,1,59.5000011348725,8|0,0:0|0:0,0:0:0:0:
253,77,234302,2,0,L|317:89,1,59.5000011348725,2|0,0:0|0:0,0:0:0:0:
366,142,234574,2,0,L|492:165,2,119.000002269745,4|2|8,0:0|0:0|0:0,0:0:0:0:
288,156,235256,1,0,0:2:0:0:
224,196,235393,1,2,0:0:0:0:
184,260,235529,1,0,0:0:0:0:
184,260,235665,6,0,L|56:232,1,119.000002269745,4|2,1:0|0:0,0:0:0:0:
20,172,236074,1,0,0:0:0:0:
20,172,236211,2,0,P|16:128|24:100,1,59.5000011348725,8|0,0:0|0:0,0:0:0:0:
80,68,236483,2,0,P|84:24|76:-4,1,59.5000011348725,2|0,0:0|0:0,0:0:0:0:
92,140,236756,2,0,P|160:128|200:96,1,119.000002269745,4|2,0:0|0:0,0:0:0:0:
256,44,237165,1,0,0:0:0:0:
313,97,237302,2,0,P|361:132|420:140,1,119.000002269745,8|2,0:0|0:0,0:0:0:0:
492,108,237711,1,0,0:0:0:0:
492,184,237847,6,0,L|480:248,1,59.5000011348725,4|0,0:0|0:0,0:0:0:0:
426,297,238120,2,0,L|362:285,1,59.5000011348725,2|0,0:0|0:0,0:0:0:0:
289,286,238393,2,0,P|232:302|190:345,1,119.000002269745,8|2,0:0|0:0,0:0:0:0:
120,380,238802,1,0,0:0:0:0:
52,340,238938,2,0,L|48:272,1,59.5000011348725,4|0,0:0|0:0,0:0:0:0:
103,226,239211,2,0,L|99:158,1,59.5000011348725,2|0,0:0|0:0,0:0:0:0:
40,116,239483,1,8,0:0:0:0:
176,44,239756,1,2,0:0:0:0:
196,196,240029,6,0,P|264:196|320:176,1,119.000002269745,4|2,0:0|0:0,0:0:0:0:
384,148,240438,1,0,0:0:0:0:
444,100,240574,2,0,L|488:220,1,119.000002269745,8|2,0:0|0:0,0:0:0:0:
512,284,240983,1,0,0:0:0:0:
476,352,241120,2,0,P|412:368|356:360,1,119.000002269745,4|2,0:0|0:0,0:0:0:0:
304,304,241529,1,0,0:0:0:0:
304,304,241665,2,0,L|240:320,1,59.5000011348725,8|0,0:0|0:0,0:0:0:0:
191,263,241938,2,0,L|127:279,1,59.5000011348725,2|0,0:0|0:0,0:0:0:0:
60,296,242211,6,0,P|28:204|124:112,1,238.00000453949,4|8,0:0|0:0,0:0:0:0:
244,204,243029,1,2,0:0:0:0:
244,204,243165,1,0,0:0:0:0:
244,204,243302,2,0,P|329:130|301:20,1,238.00000453949,4|8,0:0|0:0,0:0:0:0:
160,84,244120,1,2,0:0:0:0:
244,204,244393,6,0,L|264:324,1,119.000002269745,4|2,1:0|0:0,0:0:0:0:
208,376,244802,1,0,0:0:0:0:
208,376,244938,2,0,P|144:356|88:364,1,119.000002269745,8|2,0:0|0:0,0:0:0:0:
24,328,245347,1,0,0:0:0:0:
4,252,245483,2,0,P|0:220|4:188,1,59.5000011348725,4|0,0:0|0:0,0:0:0:0:
92,152,245756,2,0,P|96:184|92:216,1,59.5000011348725,2|0,0:0|0:0,0:0:0:0:
24,92,246029,2,0,L|144:40,1,119.000002269745,8|2,0:0|0:0,0:0:0:0:
200,88,246438,1,0,0:0:0:0:
263,131,246574,6,0,P|322:138|376:115,1,119.000002269745,4|2,0:0|0:0,0:0:0:0:
428,60,246983,1,0,0:0:0:0:
360,24,247120,2,0,L|300:16,1,59.5000011348725,8|0,0:0|0:0,0:0:0:0:
376,115,247393,2,0,L|436:123,1,59.5000011348725,2|0,0:0|0:0,0:0:0:0:
336,200,247665,2,0,P|320:260|328:320,1,119.000002269745,4|2,0:0|0:0,0:0:0:0:
452,368,248074,1,0,0:0:0:0:
452,368,248211,2,0,P|468:308|460:248,1,119.000002269745,8|2,0:0|0:0,0:0:0:0:
416,188,248620,1,0,0:0:0:0:
336,200,248756,6,0,B|276:208|276:208|216:176,1,119.000002269745,4|2,0:0|0:0,0:0:0:0:
176,32,249302,1,8,0:0:0:0:
176,32,249438,2,0,P|116:36|72:72,1,119.000002269745,0|0,0:0|0:0,0:0:0:0:
40,144,249847,2,0,P|33:203|61:253,1,119.000002269745,4|2,0:0|0:0,0:0:0:0:
120,304,250256,1,0,0:0:0:0:
120,304,250393,2,0,L|248:288,1,119.000002269745,8|2,0:0|0:0,0:0:0:0:
316,280,250802,1,0,0:0:0:0:
392,272,250938,5,4,0:0:0:0:
392,272,251211,1,2,0:0:0:0:
392,272,251483,2,0,P|384:208|408:152,1,119.000002269745,8|2,0:0|0:0,0:0:0:0:
476,128,251893,1,0,0:0:0:0:
468,52,252029,2,0,L|404:16,1,59.5000011348725,4|0,0:0|0:0,0:0:0:0:
338,22,252302,2,0,L|274:58,1,59.5000011348725,2|0,0:0|0:0,0:0:0:0:
208,51,252574,2,0,L|144:15,1,59.5000011348725,8|0,0:0|0:0,0:0:0:0:
78,21,252847,2,0,L|14:57,1,59.5000011348725,2|0,0:0|0:0,0:0:0:0:
26,127,253120,6,0,P|16:192|48:248,1,119.000002269745,4|2,1:0|0:0,0:0:0:0:
116,232,253529,1,0,0:0:0:0:
160,296,253665,2,0,L|224:292,1,59.5000011348725,8|0,0:0|0:0,0:0:0:0:
288,260,253938,1,2,0:0:0:0:
288,260,254074,1,0,0:0:0:0:
288,260,254211,2,0,P|352:260|400:296,1,119.000002269745,4|2,0:0|0:0,0:0:0:0:
464,328,254620,1,0,0:0:0:0:
508,264,254756,2,0,L|512:204,1,59.5000011348725,8|0,0:0|0:0,0:0:0:0:
416,136,255029,2,0,L|412:196,1,59.5000011348725,2|0,0:0|0:0,0:0:0:0:
488,76,255302,6,0,P|432:44|368:56,1,119.000002269745,4|2,0:0|0:0,0:0:0:0:
312,88,255711,1,0,0:0:0:0:
272,156,255847,2,0,L|208:168,1,59.5000011348725,8|0,0:0|0:0,0:0:0:0:
188,240,256120,2,0,L|124:252,1,59.5000011348725,2|0,0:0|0:0,0:0:0:0:
100,324,256393,1,4,0:0:0:0:
100,324,256665,1,2,0:0:0:0:
100,324,256802,1,0,0:0:0:0:
100,324,256938,2,0,P|72:252|36:218,1,119.000002269745,8|2,0:0|0:0,0:0:0:0:
104,80,257483,5,4,0:0:0:0:
104,80,258574,5,4,0:0:0:0:
104,80,259665,6,0,P|156:64|208:72,1,90.9999958343508,6|0,0:0|0:0,0:0:0:0:
248,120,260074,2,0,L|344:140,1,90.9999958343508,2|0,0:0|0:0,0:0:0:0:
408,160,260483,1,2,0:0:0:0:
440,276,260756,2,0,L|396:300,1,45.4999979171754,2|2,0:0|0:0,0:0:0:0:
292,348,261165,1,0,0:0:0:0:
292,348,261302,2,0,P|244:320|196:320,1,90.9999958343508,0|2,0:0|0:0,0:0:0:0:
