osu file format v12

[General]
AudioFilename: Tristam - Shine.mp3
AudioLeadIn: 0
PreviewTime: 49513
Countdown: 2
SampleSet: Soft
StackLeniency: 0.7
Mode: 0
LetterboxInBreaks: 1

[Editor]
DistanceSpacing: 0.8
BeatDivisor: 4
GridSize: 4

[Metadata]
Title:Shine
TitleUnicode:Shine
Artist:Tristam
ArtistUnicode:Tristam
Creator:GamerX4life
Version:Insane
Source:
Tags:monstercat dubstep brostep drumstep
BeatmapID:173461
BeatmapSetID:57555

[Difficulty]
HPDrainRate:6
CircleSize:4
OverallDifficulty:7
ApproachRate:8
SliderMultiplier:1.8
SliderTickRate:2

[Events]
//Background and Video events
0,0,"Tristam1.jpg",0,0
//Break Periods
2,94970,104991
2,138856,148877
//Storyboard Layer 0 (Background)
//Storyboard Layer 1 (Fail)
//Storyboard Layer 2 (Pass)
//Storyboard Layer 3 (Foreground)
//Storyboard Sound Samples
//Background Colour Transformations
3,100,163,162,255

[TimingPoints]
23456,342.857142857143,4,2,0,35,1,0
45398,-100,4,1,0,35,0,0
50884,-83.3333333333333,4,1,0,45,0,1
72141,-83.3333333333333,4,1,0,45,0,0
93398,-100,4,1,0,35,0,0
105741,-100,4,2,0,35,0,0
149627,-100,4,1,0,35,0,0
155113,-100,4,1,0,35,0,0
161970,-83.3333333333333,4,1,0,45,0,1
183570,-100,4,1,0,45,0,0

[Colours]
Combo1 : 113,113,255
Combo2 : 89,255,89
Combo3 : 255,174,94

[HitObjects]
244,76,23456,5,2,0:0:0:0:
244,148,23627,1,0,0:0:0:0:
188,192,23798,2,0,P|108:168|32:220,1,180,8|0,0:0|0:0,0:0:0:0:
28,292,24313,1,0,0:0:0:0:
92,328,24484,2,0,B|131:370|210:367|244:302,1,180,8|0,0:0|0:0,0:0:0:0:
284,244,24998,5,0,0:0:0:0:
316,180,25170,2,0,B|342:109|422:97|464:134,1,180,8|0,0:0|0:0,0:0:0:0:
411,221,25684,2,0,B|459:298,1,90,0|8,0:0|0:0,0:0:0:0:
320,340,26198,5,2,0:0:0:0:
248,356,26370,1,0,0:0:0:0:
268,288,26541,2,0,P|246:229|191:181,2,135,8|0|0,0:0|0:0|0:0,0:0:0:0:
336,268,27227,1,8,0:0:0:0:
204,324,27570,5,0,0:0:0:0:
156,272,27741,2,0,B|118:210|118:210|56:220|32:156,1,180
104,140,28256,2,0,B|144:108|196:104|240:132|256:176,1,180,2|8,0:0|0:0,0:0:0:0:
364,268,28941,2,0,B|324:300|272:304|228:276|212:232,1,180,2|8,0:0|0:0,0:0:0:0:
268,188,29456,1,0,0:0:0:0:
292,120,29627,1,0,0:0:0:0:
228,88,29798,1,0,0:0:0:0:
184,144,29970,2,0,P|137:159|98:153,1,90,8|0,0:0|0:0,0:0:0:0:
80,224,30313,6,0,P|32:240|8:272,1,90
76,296,30656,1,8,0:0:0:0:
140,264,30827,2,0,P|216:320|320:304,2,180
80,224,31684,1,2,0:0:0:0:
240,76,32198,1,0,0:0:0:0:
232,220,32541,1,0,0:0:0:0:
436,288,33056,2,0,B|364:224|268:236,1,180,0|8,0:0|0:0,0:0:0:0:
200,252,33570,1,0,0:0:0:0:
132,224,33741,2,0,B|56:228|20:144|45:100,1,180,0|8,0:0|0:0,0:0:0:0:
467,101,34427,6,0,B|492:144|456:228|380:224,1,180,2|8,0:0|0:0,0:0:0:0:
320,184,34941,1,0,0:0:0:0:
320,184,35027,2,0,P|306:119|260:68,1,135
200,36,35456,1,8,0:0:0:0:
80,116,35798,6,0,B|31:145|35:195,1,90
48,300,36141,2,0,B|97:327|139:298,1,90,8|0,0:0|0:0,0:0:0:0:
223,235,36484,2,0,B|221:178|176:156,2,90,0|0|8,0:0|0:0|0:0,0:0:0:0:
204,304,36998,1,0,0:0:0:0:
272,284,37170,6,0,B|314:300|360:281,1,90,2|0,0:0|0:0,0:0:0:0:
396,220,37513,1,8,0:0:0:0:
416,152,37684,1,0,0:0:0:0:
416,152,37770,2,0,P|384:96|372:20,1,135
300,36,38198,2,0,P|228:76|132:91,1,180,8|0,0:0|0:0,0:0:0:0:
88,152,38713,1,0,0:0:0:0:
96,224,38884,1,8,0:0:0:0:
136,284,39056,2,0,B|204:344|204:344|248:320|288:352,1,180
287,351,39570,1,8,0:0:0:0:
480,136,39913,6,0,B|412:76|412:76|368:100|328:68,1,180,2|8,0:0|0:0,0:0:0:0:
260,48,40427,1,0,0:0:0:0:
232,68,40513,2,0,P|196:116|196:188,1,135
240,244,40941,1,8,0:0:0:0:
384,244,41284,2,0,B|236:348,1,180,0|8,0:0|0:0,0:0:0:0:
240,244,41798,2,0,B|388:140,1,180
456,160,42313,2,0,P|442:96|383:69,1,135,8|0,0:0|0:0,0:0:0:0:
348,68,42656,6,0,B|309:132|218:38|174:114,2,180,2|8|0,0:0|0:0|0:0,0:0:0:0:
256,192,43684,1,8,0:0:0:0:
256,192,44027,12,0,45056,0:0:0:0:
256,68,45398,5,2,0:0:0:0:
184,84,45570,1,0,0:0:0:0:
140,140,45741,2,0,P|117:235|180:272,1,180,0|8,0:0|0:0,0:0:0:0:
183,199,46256,1,0,0:0:0:0:
256,192,46427,2,0,P|308:200|336:224,1,90
300,288,46770,1,2,0:0:0:0:
371,288,46941,1,0,0:0:0:0:
409,226,47113,1,0,0:0:0:0:
374,162,47284,1,0,0:0:0:0:
320,116,47456,2,0,B|305:62|263:48,1,90,8|0,0:0|0:0,0:0:0:0:
300,288,47798,2,0,B|314:341|356:355,1,90
428,348,48141,5,2,0:0:0:0:
476,296,48313,1,0,0:0:0:0:
456,228,48484,2,0,P|484:196|484:148,2,90,0|0|8,0:0|0:0|0:0,0:0:0:0:
416,168,48998,1,0,0:0:0:0:
376,108,49170,2,0,P|348:140|348:188,1,90
320,252,49513,6,0,P|319:297|291:329,1,90,2|0,0:0|0:0,0:0:0:0:
192,132,49856,2,0,P|192:86|220:54,1,90
171,284,50198,2,0,P|125:283|93:255,1,90,8|0,0:0|0:0,0:0:0:0:
341,100,50541,2,0,P|386:100|418:128,1,90
264,76,50884,6,0,B|192:76|192:76|152:136|152:136|80:136,1,216.000005149841,6|0,0:0|0:0,0:0:0:0:
16,192,51398,1,0,0:0:0:0:
40,272,51570,2,0,B|72:320|72:320|120:332,1,108.000002574921,10|0,0:0|0:0,0:0:0:0:
204,348,51913,1,0,0:0:0:0:
288,344,52084,1,0,0:0:0:0:
368,312,52256,2,0,B|368:224|368:224|396:184|396:184|396:100,1,216.000005149841,2|0,0:0|0:0,0:0:0:0:
116,104,52941,2,0,B|116:184|116:184|144:224|144:224|144:312,1,216.000005149841,10|2,0:0|0:0,0:0:0:0:
228,340,53456,1,2,0:0:0:0:
312,328,53627,6,0,B|352:280|332:220|332:220|280:200|288:132,2,216.000005149841,0|0|8,0:0|0:0|0:0,0:0:0:0:
168,228,54656,1,0,0:0:0:0:
132,60,54998,2,0,B|96:100|96:100|32:116,2,108.000002574921
256,100,55513,1,0,0:0:0:0:
380,60,55684,2,0,B|416:100|416:100|480:116,3,108.000002574921,8|0|0|0,0:0|0:0|0:0|0:0,0:0:0:0:
428,192,56370,6,0,B|428:260|428:260|336:256|308:328,1,216.000005149841,6|0,0:0|0:0,0:0:0:0:
256,260,56884,1,0,0:0:0:0:
204,328,57056,2,0,B|176:256|84:260|84:260|84:192,1,216.000005149841,10|0,0:0|0:0,0:0:0:0:
204,68,57741,2,0,B|288:68|288:68|336:40|336:40|416:40,1,216.000005149841,2|0,0:0|0:0,0:0:0:0:
452,120,58256,1,0,0:0:0:0:
432,204,58427,2,0,B|408:252|408:252|360:280,1,108.000002574921,10|0,0:0|0:0,0:0:0:0:
152,336,58770,2,0,B|176:288|176:288|224:260,1,108.000002574921,2|0,0:0|0:0,0:0:0:0:
240,348,59113,5,2,0:0:0:0:
324,324,59284,1,0,0:0:0:0:
371,251,59456,1,0,0:0:0:0:
361,164,59627,1,0,0:0:0:0:
297,103,59798,2,0,P|242:84|215:45,1,107.999996704102,8|0,0:0|0:0,0:0:0:0:
361,164,60141,2,0,P|416:183|443:222,1,107.999996704102
424,308,60484,5,2,0:0:0:0:
354,361,60656,1,0,0:0:0:0:
273,326,60827,1,0,0:0:0:0:
261,238,60998,1,0,0:0:0:0:
333,185,61169,1,8,0:0:0:0:
414,220,61341,1,0,0:0:0:0:
414,220,61427,1,0,0:0:0:0:
414,220,61513,1,4,0:0:0:0:
342,272,61684,1,0,0:0:0:0:
342,272,61770,1,0,0:0:0:0:
342,272,61856,6,0,B|236:287|236:287|137:235,1,216.000005149841,14|0,0:0|0:0,0:0:0:0:
152,152,62370,1,0,0:0:0:0:
108,80,62541,2,0,B|156:46|156:46|212:40,1,108.000002574921,10|0,0:0|0:0,0:0:0:0:
292,48,62884,1,0,0:0:0:0:
360,104,63056,1,0,0:0:0:0:
372,188,63227,6,0,B|337:288|337:288|246:354,1,216.000005149841,2|0,0:0|0:0,0:0:0:0:
156,204,63913,2,0,B|190:103|190:103|281:37,1,216.000005149841,10|2,0:0|0:0,0:0:0:0:
364,56,64427,1,2,0:0:0:0:
416,128,64598,2,0,B|372:185|372:185|382:252|382:252|333:316,1,216.000005149841
256,272,65113,1,0,0:0:0:0:
175,313,65284,2,0,B|129:252|129:252|139:185|139:185|96:128,1,216.000005149841,8|0,0:0|0:0,0:0:0:0:
256,64,65970,5,0,0:0:0:0:
212,140,66141,1,0,0:0:0:0:
300,140,66313,1,0,0:0:0:0:
344,216,66484,1,0,0:0:0:0:
168,216,66656,1,8,0:0:0:0:
124,292,66827,1,0,0:0:0:0:
388,292,66998,1,0,0:0:0:0:
256,348,67170,1,0,0:0:0:0:
168,348,67341,6,0,B|76:292|76:292|40:176,2,216.000005149841,6|0|10,0:0|0:0|0:0,0:0:0:0:
256,200,68370,1,0,0:0:0:0:
344,348,68713,2,0,B|436:292|436:292|472:176,2,216.000005149841,2|0|10,0:0|0:0|0:0,0:0:0:0:
256,200,69741,2,0,B|256:92,1,108.000002574921,2|0,0:0|0:0,0:0:0:0:
192,32,70084,1,0,0:0:0:0:
160,112,70256,1,0,0:0:0:0:
352,112,70427,1,0,0:0:0:0:
320,32,70599,1,0,0:0:0:0:
332,224,70770,6,0,B|352:276|408:296,1,108.000002574921,8|0,0:0|0:0,0:0:0:0:
180,160,71113,2,0,B|160:108|104:88,1,108.000002574921
332,224,71456,2,0,B|382:246|436:221,1,108.000002574921
180,160,71798,2,0,B|129:137|75:162,1,108.000002574921
256,192,72141,1,4,0:0:0:0:
194,128,72827,6,0,P|256:284|318:128,1,431.999986816407,4|10,0:0|0:0,0:0:0:0:
176,32,73856,1,0,0:0:0:0:
256,72,74027,1,0,0:0:0:0:
336,32,74198,1,2,0:0:0:0:
416,184,74541,2,0,P|384:308|308:336,2,215.999993408203,0|8|0,0:0|0:0|0:0,0:0:0:0:
256,112,75570,5,2,0:0:0:0:
172,128,75741,1,0,0:0:0:0:
108,188,75913,1,0,0:0:0:0:
76,268,76084,1,0,0:0:0:0:
76,268,76170,1,0,0:0:0:0:
76,268,76256,2,0,B|88:336|152:352|224:348|252:300,1,216.000005149841,10|0,0:0|0:0,0:0:0:0:
252,220,76770,1,0,0:0:0:0:
308,156,76941,6,0,B|336:104|392:88|448:108,2,161.999995056153,2|0|2,0:0|0:0|0:0,0:0:0:0:
220,156,77627,1,8,0:0:0:0:
208,140,77799,1,0,0:0:0:0:
196,124,77970,1,0,0:0:0:0:
184,108,78141,1,0,0:0:0:0:
172,92,78313,6,0,B|85:110|85:110|30:174|76:224,1,216.000005149841
435,224,78998,2,0,B|481:174|426:110|426:110|340:92,1,216.000005149841,10|0,0:0|0:0,0:0:0:0:
256,244,79684,1,0,0:0:0:0:
212,169,79856,1,0,0:0:0:0:
300,169,80027,1,0,0:0:0:0:
256,96,80198,1,0,0:0:0:0:
188,44,80370,2,0,B|60:68|44:200,1,216.000005149841,10|0,0:0|0:0,0:0:0:0:
320,256,81056,6,0,B|363:133|256:53,1,216.000005149841
72,268,81741,2,0,B|156:366|279:314,1,216.000005149841,10|0,0:0|0:0,0:0:0:0:
320,256,82256,1,2,0:0:0:0:
388,200,82427,2,0,B|388:92|388:92|296:32,2,216.000005149841,0|2|8,0:0|0:0|0:0,0:0:0:0:
256,88,83456,1,2,0:0:0:0:
176,120,83627,1,0,0:0:0:0:
116,180,83798,6,0,B|64:220|68:280|100:336|172:328,1,216.000005149841,4|0,0:0|0:0,0:0:0:0:
344,328,84484,2,0,B|413:335|445:279|449:219|397:179,1,216.000005149841,10|0,0:0|0:0,0:0:0:0:
336,116,84998,1,0,0:0:0:0:
256,84,85170,1,2,0:0:0:0:
36,348,85513,1,2,0:0:0:0:
256,84,85856,1,8,0:0:0:0:
476,348,86198,1,2,0:0:0:0:
400,172,86541,6,0,B|328:252,1,107.999996704102,2|0,0:0|0:0,0:0:0:0:
256,204,86884,1,2,0:0:0:0:
184,252,87056,1,0,0:0:0:0:
184,252,87141,1,0,0:0:0:0:
184,252,87227,2,0,B|112:172,1,107.999996704102,10|0,0:0|0:0,0:0:0:0:
208,129,87570,2,0,B|236:101|276:101|304:129,2,107.999996704102,0|0|2,0:0|0:0|0:0,0:0:0:0:
124,32,88170,5,2,0:0:0:0:
32,124,88427,1,0,0:0:0:0:
24,208,88598,1,8,0:0:0:0:
44,220,88770,1,0,0:0:0:0:
64,232,88941,1,0,0:0:0:0:
84,244,89113,1,0,0:0:0:0:
104,256,89284,2,0,B|236:244|236:244|324:316|408:236,1,324.000007724762
404,152,89970,2,0,B|320:72|232:144|232:144|100:132,1,324.000007724762,10|0,0:0|0:0,0:0:0:0:
40,192,90656,6,0,B|56:288|172:208|192:328,1,216.000005149841
256,264,91170,1,0,0:0:0:0:
321,321,91341,2,0,B|340:208|456:288|472:192,1,216.000005149841,10|0,0:0|0:0,0:0:0:0:
432,116,91856,1,0,0:0:0:0:
352,84,92027,2,0,B|248:32,1,108.000002574921
83,212,92370,2,0,B|180:164,1,108.000002574921
204,248,92713,1,10,0:0:0:0:
288,268,92884,1,0,0:0:0:0:
376,256,93056,1,2,0:0:0:0:
440,200,93227,1,2,0:0:0:0:
256,192,93398,12,0,94770,0:0:0:0:
400,176,105741,6,0,B|384:132|340:104|288:108|248:136,2,180,2|0|8,0:0|0:0|0:0,0:0:0:0:
304,284,106770,1,0,0:0:0:0:
256,340,106941,1,0,0:0:0:0:
188,320,107113,6,0,P|68:192|192:88,1,360,0|8,0:0|0:0,0:0:0:0:
172,200,108141,1,0,0:0:0:0:
244,216,108313,1,8,0:0:0:0:
304,176,108484,2,0,B|308:72|416:56,2,180,2|0|8,0:0|0:0|0:0,0:0:0:0:
136,44,109684,5,0,0:0:0:0:
148,116,109856,2,0,B|228:304,1,180
293,281,110370,2,0,B|364:116,1,180,8|0,0:0|0:0,0:0:0:0:
376,44,110884,1,0,0:0:0:0:
448,32,111056,1,8,0:0:0:0:
484,92,111227,5,2,0:0:0:0:
380,192,111570,1,0,0:0:0:0:
328,60,111913,2,0,B|225:45|177:145,1,180,8|0,0:0|0:0,0:0:0:0:
144,200,112427,1,0,0:0:0:0:
182,260,112598,2,0,B|227:354|329:338,2,180,0|0|8,0:0|0:0|0:0,0:0:0:0:
40,284,113627,1,0,0:0:0:0:
96,240,113798,1,8,0:0:0:0:
116,172,113970,5,2,0:0:0:0:
396,172,114313,1,0,0:0:0:0:
256,132,114656,1,8,0:0:0:0:
272,348,115170,1,0,0:0:0:0:
212,308,115341,2,0,B|164:352|100:356|44:316,1,180
88,260,115856,2,0,B|44:212|40:148|80:92,1,180,8|0,0:0|0:0,0:0:0:0:
148,80,116370,1,0,0:0:0:0:
204,124,116541,1,8,0:0:0:0:
164,184,116713,6,0,P|244:184|272:100,2,180,2|0|8,0:0|0:0|0:0,0:0:0:0:
168,328,117741,1,0,0:0:0:0:
240,328,117913,1,0,0:0:0:0:
308,300,118084,2,0,B|404:272|452:188,1,180
308,220,118770,2,0,B|280:124|196:76,1,180,8|0,0:0|0:0,0:0:0:0:
148,32,119284,1,8,0:0:0:0:
132,104,119456,1,2,0:0:0:0:
92,240,119798,1,0,0:0:0:0:
200,336,120141,6,0,P|288:360|372:336,1,180,8|0,0:0|0:0,0:0:0:0:
332,276,120656,1,0,0:0:0:0:
372,216,120827,2,0,P|288:192|200:216,1,180,0|0,0:0|0:0,0:0:0:0:
140,172,121341,1,8,0:0:0:0:
256,84,121684,1,0,0:0:0:0:
324,104,121856,1,0,0:0:0:0:
372,156,122027,1,8,0:0:0:0:
400,224,122198,6,0,B|400:288|256:232|256:296,1,180,2|0,0:0|0:0,0:0:0:0:
124,240,122884,2,0,B|124:176|268:232|268:168,1,180,8|0,0:0|0:0,0:0:0:0:
256,96,123398,1,0,0:0:0:0:
192,60,123570,2,0,B|92:100|72:192,1,180
36,324,124256,2,0,B|92:248|196:252,1,180,8|0,0:0|0:0,0:0:0:0:
256,192,124770,1,8,0:0:0:0:
319,132,124941,6,0,B|420:136|476:60,2,180,2|0|8,0:0|0:0|0:0,0:0:0:0:
204,48,125970,1,0,0:0:0:0:
140,80,126141,1,0,0:0:0:0:
96,136,126313,2,0,B|56:184|69:264|119:293,1,180
310,203,126827,2,0,B|280:254|200:268|152:228,1,180,8|0,0:0|0:0,0:0:0:0:
176,160,127341,1,0,0:0:0:0:
220,104,127513,1,8,0:0:0:0:
292,88,127684,6,0,B|364:68|364:188|440:172,1,180,2|0,0:0|0:0,0:0:0:0:
296,204,128370,2,0,B|224:184|224:304|148:288,2,180,8|0|0,0:0|0:0|0:0,0:0:0:0:
356,244,129227,5,0,0:0:0:0:
256,140,129570,1,0,0:0:0:0:
156,244,129913,1,0,0:0:0:0:
256,348,130256,1,8,0:0:0:0:
256,348,130427,1,2,0:0:0:0:
400,328,130770,6,0,B|468:320|496:232|460:180,1,180,0|8,0:0|0:0,0:0:0:0:
256,192,131456,1,0,0:0:0:0:
112,56,131798,2,0,B|44:64|16:152|52:204,1,180
112,160,132313,2,0,B|145:219|237:210|266:164,1,180,8|0,0:0|0:0,0:0:0:0:
224,104,132827,1,0,0:0:0:0:
184,44,132998,1,8,0:0:0:0:
256,38,133170,6,0,B|344:15|456:73|476:178|438:265,1,360,2|8,0:0|0:0,0:0:0:0:
296,256,134198,1,0,0:0:0:0:
200,152,134541,2,0,B|120:216|144:312,1,180
368,312,135227,2,0,B|392:216|312:152,1,180,8|0,0:0|0:0,0:0:0:0:
256,108,135741,1,8,0:0:0:0:
256,36,135913,1,2,0:0:0:0:
376,116,136256,1,0,0:0:0:0:
460,232,136598,6,0,B|424:320|316:328,1,180,8|0,0:0|0:0,0:0:0:0:
256,296,137113,1,0,0:0:0:0:
192,327,137284,2,0,B|88:320|52:232,1,180,0|0,0:0|0:0,0:0:0:0:
120,208,137798,2,0,B|54:126|94:39,1,180,8|0,0:0|0:0,0:0:0:0:
164,36,138313,1,0,0:0:0:0:
232,60,138484,1,8,0:0:0:0:
272,120,138656,1,4,0:0:0:0:
480,72,149627,6,0,B|436:160|340:176,1,180,2|0,0:0|0:0,0:0:0:0:
252,288,150313,1,8,0:0:0:0:
108,308,150656,1,0,0:0:0:0:
92,164,150998,2,0,B|68:104|116:40|184:44,1,180
328,40,151684,2,0,B|396:36|444:100|420:160,1,180,8|0,0:0|0:0,0:0:0:0:
336,280,152370,2,0,B|256:348|172:280,2,180,2|0|8,0:0|0:0|0:0,0:0:0:0:
256,160,153398,1,0,0:0:0:0:
173,280,153741,5,0,0:0:0:0:
336,280,154084,1,0,0:0:0:0:
368,140,154427,1,8,0:0:0:0:
144,140,154770,1,0,0:0:0:0:
24,192,155113,5,2,0:0:0:0:
40,124,155284,1,0,0:0:0:0:
76,60,155456,1,0,0:0:0:0:
144,36,155627,1,0,0:0:0:0:
212,60,155799,1,8,0:0:0:0:
252,120,155970,1,0,0:0:0:0:
256,192,156142,1,0,0:0:0:0:
260,264,156313,1,0,0:0:0:0:
300,324,156484,5,0,0:0:0:0:
368,348,156656,1,0,0:0:0:0:
436,324,156827,1,0,0:0:0:0:
472,260,156999,1,0,0:0:0:0:
488,192,157170,1,8,0:0:0:0:
472,124,157342,1,0,0:0:0:0:
436,60,157513,1,0,0:0:0:0:
368,36,157684,1,0,0:0:0:0:
300,60,157856,6,0,B|252:68|220:104,1,90,2|0,0:0|0:0,0:0:0:0:
212,324,158199,2,0,B|260:316|292:280,1,90
124,148,158542,2,0,B|132:196|168:228,1,90,8|0,0:0|0:0,0:0:0:0:
388,236,158885,2,0,B|380:188|344:156,1,90
280,128,159227,5,0,0:0:0:0:
192,168,159399,1,0,0:0:0:0:
232,256,159571,1,0,0:0:0:0:
320,216,159742,1,0,0:0:0:0:
372,140,159913,5,8,0:0:0:0:
204,76,160084,1,0,0:0:0:0:
140,244,160256,1,0,0:0:0:0:
308,308,160427,1,0,0:0:0:0:
256,192,160598,12,0,161627,0:0:0:0:
360,268,161970,6,0,B|412:176|412:176|412:60,1,216.000005149841,6|0,0:0|0:0,0:0:0:0:
100,65,162656,2,0,B|100:176|100:176|152:268,1,216.000005149841,10|0,0:0|0:0,0:0:0:0:
256,292,163170,1,0,0:0:0:0:
348,232,163341,2,0,B|404:212|404:212|436:176,2,108.000002574921,2|0|0,0:0|0:0|0:0,0:0:0:0:
256,172,163856,1,0,0:0:0:0:
164,116,164027,2,0,B|108:96|108:96|76:60,1,108.000002574921,10|0,0:0|0:0,0:0:0:0:
128,224,164370,2,0,B|184:244|184:244|216:280,1,108.000002574921,2|2,0:0|0:0,0:0:0:0:
304,348,164713,6,0,B|336:328|336:328|348:224|464:236,1,216.000005149841
48,236,165398,2,0,B|164:224|176:328|176:328|208:348,1,216.000005149841,8|0,0:0|0:0,0:0:0:0:
249,251,165913,1,0,0:0:0:0:
356,212,166084,1,0,0:0:0:0:
265,127,166256,1,0,0:0:0:0:
156,172,166427,1,0,0:0:0:0:
249,251,166599,1,0,0:0:0:0:
356,212,166770,2,0,B|416:212|416:212|456:240,1,108.000002574921,8|0,0:0|0:0,0:0:0:0:
156,172,167113,2,0,B|96:172|96:172|56:144,1,108.000002574921
120,84,167456,6,0,B|200:84|200:84|252:120|252:120|328:120,1,216.000005149841,6|0,0:0|0:0,0:0:0:0:
404,156,167970,1,0,0:0:0:0:
420,240,168141,2,0,B|314:291|314:291|215:277,1,215.999993408203,10|0,0:0|0:0,0:0:0:0:
141,234,168656,1,0,0:0:0:0:
177,156,168827,2,0,B|64:119|64:119|3:40,1,216.000005149841,2|0,0:0|0:0,0:0:0:0:
256,48,169513,2,0,B|368:84|368:84|429:163,1,216.000005149841,10|0,0:0|0:0,0:0:0:0:
392,240,170027,1,0,0:0:0:0:
316,332,170198,5,0,0:0:0:0:
196,338,170369,1,0,0:0:0:0:
106,259,170541,1,0,0:0:0:0:
100,139,170712,1,0,0:0:0:0:
179,49,170884,1,8,0:0:0:0:
298,42,171055,1,0,0:0:0:0:
388,121,171226,1,0,0:0:0:0:
395,241,171398,1,0,0:0:0:0:
312,272,171570,6,0,B|286:322|286:322|245:352,1,108.000002574921
172,308,171913,1,0,0:0:0:0:
172,308,172084,1,0,0:0:0:0:
200,112,172256,2,0,B|225:61|225:61|266:31,1,108.000002574921,8|0,0:0|0:0,0:0:0:0:
340,76,172599,1,0,0:0:0:0:
340,76,172770,1,0,0:0:0:0:
408,132,172941,6,0,B|394:189|394:189|362:231,1,108.000002574921,6|0,0:0|0:0,0:0:0:0:
300,287,173284,1,0,0:0:0:0:
212,287,173456,1,0,0:0:0:0:
147,228,173627,2,0,B|117:189|117:189|104:132,1,108.000002574921,10|0,0:0|0:0,0:0:0:0:
156,60,173970,1,0,0:0:0:0:
236,32,174141,1,0,0:0:0:0:
320,52,174313,2,0,P|391:122|366:228,1,215.999993408203,2|0,0:0|0:0,0:0:0:0:
248,348,174998,2,0,P|304:360|352:344,1,107.999996704102,10|0,0:0|0:0,0:0:0:0:
432,312,175341,1,2,0:0:0:0:
496,252,175513,1,2,0:0:0:0:
452,176,175684,6,0,B|435:115|375:97|375:97|328:128|277:83,2,216.000005149841,0|0|8,0:0|0:0|0:0,0:0:0:0:
280,208,176713,1,0,0:0:0:0:
148,96,177056,2,0,B|92:84|92:84|56:44,2,108.000002574921
56,192,177570,1,0,0:0:0:0:
148,288,177741,2,0,B|92:300|92:300|58:337,3,108.000002574921,8|0|0|0,0:0|0:0|0:0|0:0,0:0:0:0:
148,288,178427,6,0,B|228:288|228:288|260:240|260:240|340:240,1,216.000005149841,6|0,0:0|0:0,0:0:0:0:
384,168,178941,1,0,0:0:0:0:
336,96,179113,2,0,B|257:96|257:96|225:48|225:48|145:48,1,216.000005149841,10|0,0:0|0:0,0:0:0:0:
92,212,179798,6,0,B|160:212|160:212|200:232,1,108.000002574921,2|0,0:0|0:0,0:0:0:0:
336,336,180141,1,0,0:0:0:0:
268,280,180313,1,0,0:0:0:0:
420,172,180484,2,0,B|352:172|352:172|312:152,1,108.000002574921,10|0,0:0|0:0,0:0:0:0:
176,48,180827,1,0,0:0:0:0:
244,104,180999,1,0,0:0:0:0:
212,184,181170,5,0,0:0:0:0:
289,290,181341,1,0,0:0:0:0:
420,275,181512,1,0,0:0:0:0:
473,155,181684,1,0,0:0:0:0:
395,49,181855,1,8,0:0:0:0:
265,63,182027,1,0,0:0:0:0:
212,184,182198,6,0,B|156:196|156:196|116:228,1,108.000002574921
300,200,182541,2,0,B|356:188|356:188|396:156,1,108.000002574921
116,227,182884,2,0,B|104:288|104:288|120:332,1,108.000002574921
395,156,183227,2,0,B|408:96|408:96|392:52,1,108.000002574921,8|0,0:0|0:0,0:0:0:0:
256,108,183570,1,8,0:0:0:0:
256,108,183656,1,0,0:0:0:0:
256,108,183741,1,8,0:0:0:0:
256,108,183827,1,8,0:0:0:0:
256,108,183913,1,4,0:0:0:0:
