osu file format v13

[General]
AudioFilename: Tristam - Once Again.mp3
AudioLeadIn: 0
PreviewTime: 89475
Countdown: 0
SampleSet: None
StackLeniency: 0.7
Mode: 0
LetterboxInBreaks: 0
WidescreenStoryboard: 1

[Editor]
Bookmarks: 39155,39246,39337,56610,56701,56792,91610,109064,143883,143973,144064,176701,178883,213792
DistanceSpacing: 1.2
BeatDivisor: 6
GridSize: 4
TimelineZoom: 1

[Metadata]
Title:Once Again
TitleUnicode:Once Again
Artist:Tristam
ArtistUnicode:Tristam
Creator:grumd
Version:Medium
Source:
Tags:evilelvis aka monstercat glitch hop 016 expedition
BeatmapID:431689
BeatmapSetID:179495

[Difficulty]
HPDrainRate:4
CircleSize:4
OverallDifficulty:4.7
ApproachRate:6
SliderMultiplier:1.8
SliderTickRate:1

[Events]
//Background and Video events
0,0,"tristam.jpg",0,0
Video,150,"tristam.avi"
//Break Periods
2,109311,125516
//Storyboard Layer 0 (Background)
//Storyboard Layer 1 (Fail)
//Storyboard Layer 2 (Pass)
//Storyboard Layer 3 (Foreground)
//Storyboard Sound Samples
//Background Colour Transformations
3,100,163,162,255

[TimingPoints]
34930,545.454545454546,4,2,0,30,1,0
34930,-166.666666666667,4,2,0,30,0,0
56748,-100,4,2,0,50,0,0
107475,-111.111111111111,4,2,0,40,0,0
108020,-125,4,2,0,30,0,0
108566,-142.857142857143,4,2,0,20,0,0
109111,-100,4,2,0,20,0,0
109211,-100,4,2,0,10,0,0
126475,-166.666666666667,4,2,0,20,0,0
135293,-166.666666666667,4,2,0,30,0,0
139111,-166.666666666667,4,2,0,40,0,0
141839,-166.666666666667,4,2,0,20,0,0
142930,-166.666666666667,4,2,0,40,0,0
143930,-100,4,2,0,40,0,0
144020,-100,4,2,0,50,0,0
176748,-100,4,2,0,30,0,0
177293,-100,4,2,0,20,0,0
177839,-100,4,2,0,40,0,0

[Colours]
Combo1 : 91,223,234
Combo2 : 18,214,135
Combo3 : 94,223,100
Combo4 : 80,241,197

[HitObjects]
404,312,39293,6,0,L|424:188,2,107.999996704102,4|0|2,0:0|0:0|0:0,0:0:0:0:
320,332,40748,1,2,0:0:0:0:
240,300,41111,1,2,0:0:0:0:
240,300,41293,2,0,P|168:316|112:276,1,143.999995605469,2|2,0:0|0:0,0:0:0:0:
94,194,42384,1,2,0:0:0:0:
94,194,42566,6,0,P|112:152|109:90,1,107.999996704102,2|2,0:0|0:0,0:0:0:0:
177,37,43475,2,0,L|222:45,1,35.9999989013672,0|2,0:0|0:0,0:0:0:0:
276,101,44020,1,2,0:0:0:0:
355,67,44384,1,2,0:0:0:0:
344,152,44748,6,0,P|298:184|239:178,2,107.999996704102,2|2|4,0:0|0:0|0:0,0:0:0:0:
413,261,46384,2,0,P|459:229|518:235,2,107.999996704102,0|2|0,1:0|0:0|1:0,0:0:0:0:
345,315,47839,2,0,L|297:308,1,35.9999989013672,2|4,0:0|0:0,0:0:0:0:
238,260,48384,6,0,P|210:284|175:294,1,71.9999978027344,0|0,0:0|0:0,0:0:0:0:
113,235,49111,2,0,P|116:186|81:131,1,107.999996704102,2|0,0:0|1:0,0:0:0:0:
144,71,50020,1,0,0:0:0:0:
144,71,50202,2,0,L|216:82,1,71.9999978027344,2|2,0:0|0:0,0:0:0:0:
299,59,50930,1,0,0:0:0:0:
379,91,51293,6,0,P|410:145|405:193,2,107.999996704102,2|0|4,0:0|1:0|0:0,0:0:0:0:
293,106,52748,1,0,0:0:0:0:
275,190,53111,1,0,0:0:0:0:
207,244,53475,6,0,L|83:260,2,107.999996704102,0|0|4,0:0|1:0|0:0,0:0:0:0:
325,297,55111,1,0,0:0:0:0:
405,264,55475,2,0,B|414:218|414:218|396:108,1,143.999995605469,2|4,0:0|3:0,0:0:0:0:
387,118,56748,6,0,P|339:155|271:155,1,120,4|0,1:0|0:0,0:0:0:0:
221,118,57293,2,0,L|205:48,2,60,4|2|2,1:2|0:1|0:1,0:0:0:0:
160,158,57839,2,0,B|130:211|130:211|120:271,1,120,4|0,3:0|0:0,0:0:0:0:
150,334,58384,2,0,P|201:364|260:348,1,120,4|2,1:2|0:1,0:0:0:0:
295,288,58930,6,0,L|304:220,2,60,4|2|2,3:0|0:1|0:1,0:0:0:0:
363,309,59475,2,0,L|380:379,2,60,4|2|2,1:2|0:1|0:1,0:0:0:0:
416,262,60020,2,0,B|441:202|441:202|437:171|437:171|445:148,1,120,4|2,3:0|0:1,0:0:0:0:
407,87,60566,2,0,B|415:57|415:57|413:22,2,60,4|2|2,1:2|0:0|0:0,0:0:0:0:
343,121,61111,6,0,P|291:121|222:172,1,120,4|0,1:0|0:0,0:0:0:0:
219,226,61657,2,0,P|175:196|177:112,1,120,4|2,1:2|0:1,0:0:0:0:
220,86,62202,2,0,L|353:110,1,120,4|0,3:0|0:0,0:0:0:0:
392,154,62748,2,0,L|462:169,1,60,4|2,1:2|0:1,0:0:0:0:
501,217,63111,1,2,0:1:0:0:
449,267,63293,6,0,P|436:300|434:331,2,60,4|2|4,3:0|0:1|3:0,0:0:0:0:
391,223,63839,2,0,P|381:192|294:162,1,120,4|0,1:2|0:1,0:0:0:0:
237,175,64384,2,0,P|170:179|115:126,1,120,4|2,1:2|0:1,0:0:0:0:
68,109,64930,2,0,L|1:122,2,60,4|2|4,1:2|0:1|3:0,0:0:0:0:
116,55,65475,6,0,P|180:83|246:79,1,120,4|0,1:0|0:0,0:0:0:0:
283,35,66020,2,0,L|246:170,1,120,4|2,1:2|0:1,0:0:0:0:
276,218,66566,1,4,3:0:0:0:
457,100,67111,2,0,L|446:29,2,60,4|2|2,1:2|0:1|0:1,0:0:0:0:
407,153,67657,6,0,B|401:201|401:201|441:282,1,120,4|2,3:0|0:1,0:0:0:0:
395,326,68202,2,0,P|357:346|275:328,1,120,4|2,1:2|0:1,0:0:0:0:
227,290,68748,2,0,L|240:220,2,60,4|2|2,3:0|0:1|0:1,0:0:0:0:
152,308,69293,1,4,1:2:0:0:
156,312,69475,1,4,1:0:0:0:
160,316,69657,1,0,1:0:0:0:
84,288,69839,6,0,P|63:230|74:149,1,120,4|0,1:0|0:0,0:0:0:0:
119,123,70384,2,0,P|153:122|191:108,1,60,4|2,1:2|0:1,0:0:0:0:
222,57,70748,1,2,0:1:0:0:
287,87,70930,2,0,L|260:222,1,120,4|0,3:0|0:0,0:0:0:0:
328,236,71475,2,0,L|341:171,2,60,4|2|2,1:2|0:1|0:1,0:0:0:0:
389,273,72020,6,0,P|451:238|456:190,1,120,4|4,3:0|0:3,0:0:0:0:
416,134,72566,2,0,B|394:78|394:78|404:13,1,120,4|2,1:2|0:1,0:0:0:0:
331,21,73111,2,0,L|308:153,1,120,4|4,1:2|3:0,0:0:0:0:
242,163,73657,2,0,P|215:140|203:115,1,60,4|4,1:2|3:0,0:0:0:0:
171,54,74020,1,2,1:0:0:0:
115,100,74202,6,0,P|133:152|85:217,1,120,4|0,1:0|0:0,0:0:0:0:
60,149,74748,2,0,L|72:295,1,120,4|2,1:2|0:1,0:0:0:0:
77,340,75293,2,0,P|110:329|135:302,1,60,4|0,3:0|0:0,0:0:0:0:
139,240,75657,1,0,0:0:0:0:
203,208,75839,2,0,L|270:221,2,60,4|2|2,1:2|0:1|0:1,0:0:0:0:
143,167,76384,6,0,P|123:97|163:48,1,120,4|2,3:0|0:1,0:0:0:0:
217,69,76930,2,0,P|244:83|287:88,1,60,4|2,1:2|0:1,0:0:0:0:
340,62,77293,1,2,0:1:0:0:
409,81,77475,2,0,L|428:146,2,60,4|2|2,3:0|0:1|0:1,0:0:0:0:
340,62,78020,2,0,P|296:119|321:190,1,120,4|2,1:2|0:1,0:0:0:0:
348,218,78566,6,0,B|278:224|278:224|220:259,1,120,4|0,1:0|0:0,0:0:0:0:
199,312,79111,2,0,P|127:316|76:272,1,120,4|2,1:2|0:1,0:0:0:0:
64,224,79657,1,4,3:0:0:0:
156,41,80202,2,0,L|86:30,2,60,4|2|2,1:2|0:1|0:1,0:0:0:0:
220,73,80748,6,0,L|285:61,2,60,4|2|4,1:3|0:1|1:3,0:0:0:0:
171,125,81293,2,0,P|216:164|278:166,1,120,4|2,1:2|0:1,0:0:0:0:
300,234,81839,2,0,L|183:265,1,120,4|2,1:3|0:1,0:0:0:0:
129,312,82384,1,4,1:2:0:0:
196,336,82566,2,0,L|267:317,1,60,4|4,3:0|3:0,0:0:0:0:
303,267,82930,6,0,P|297:205|347:143,1,120,4|0,1:0|0:0,0:0:0:0:
396,174,83475,2,0,L|410:246,2,60,4|2|2,1:2|0:1|0:1,0:0:0:0:
376,104,84020,2,0,P|324:131|246:126,1,120,4|0,3:0|0:0,0:0:0:0:
213,79,84566,1,4,1:2:0:0:
142,93,84748,2,0,L|118:164,1,60,2|2,0:1|0:1,0:0:0:0:
62,188,85111,5,4,3:0:0:0:
274,230,85657,2,0,P|297:168|262:114,1,120,4|2,1:2|0:1,0:0:0:0:
206,98,86202,2,0,L|129:117,2,60,4|2|2,3:0|0:1|0:1,0:0:0:0:
249,40,86748,2,0,L|313:52,1,60,4|2,1:2|0:1,0:0:0:0:
367,91,87111,1,2,0:1:0:0:
325,151,87293,6,0,B|304:213|304:213|321:280,1,120,4|0,3:0|0:0,0:0:0:0:
388,279,87839,2,0,L|404:213,2,60,4|2|2,1:2|0:1|0:1,0:0:0:0:
341,334,88384,2,0,P|270:365|204:345,1,120,4|0,3:0|0:0,0:0:0:0:
182,303,88930,2,0,P|189:270|203:247,1,60,4|2,1:2|0:1,0:0:0:0:
176,180,89293,1,2,0:1:0:0:
104,196,89475,6,0,P|71:244|91:309,1,120,4|4,3:0|3:0,0:0:0:0:
150,329,90020,2,0,P|177:307|207:298,1,60,4|4,1:2|3:0,0:0:0:0:
271,313,90384,1,2,0:1:0:0:
338,287,90566,2,0,L|399:304,2,60,4|4|2,3:0|3:0|0:1,0:0:0:0:
318,217,91111,2,0,B|320:174|289:148|289:148|332:182|392:168,1,180,4|4,1:2|1:0,0:0:0:0:
404,186,92202,6,0,L|426:328,1,120,4|0,1:2|0:0,0:0:0:0:
356,335,92748,2,0,P|310:303|234:318,1,120,4|0,3:0|0:0,0:0:0:0:
182,280,93293,2,0,P|188:243|203:216,1,60,4|2,1:2|0:1,0:0:0:0:
255,178,93657,1,2,0:1:0:0:
213,119,93839,6,0,L|144:107,2,60,4|2|2,3:0|0:1|0:1,0:0:0:0:
269,74,94384,2,0,L|337:61,2,60,4|2|2,1:2|0:1|0:1,0:0:0:0:
280,145,94930,2,0,L|421:161,1,120,4|2,3:0|0:1,0:0:0:0:
465,186,95475,2,0,B|474:232|474:232|457:306,1,120,4|2,1:2|0:1,0:0:0:0:
395,340,96020,6,0,P|346:300|291:312,1,120,4|0,3:0|0:0,0:0:0:0:
331,371,96566,2,0,P|303:381|265:375,1,60,4|2,1:2|0:1,0:0:0:0:
223,326,96930,1,2,0:1:0:0:
245,258,97111,2,0,P|248:201|204:146,1,120,4|0,1:2|0:0,0:0:0:0:
148,118,97657,2,0,P|119:141|87:150,1,60,4|2,3:0|0:1,0:0:0:0:
25,141,98020,1,2,0:1:0:0:
55,206,98202,6,0,B|65:274|65:274|38:333,1,120,4|4,1:2|3:0,0:0:0:0:
111,344,98748,2,0,L|142:278,1,60,4|4,1:2|3:0,0:0:0:0:
191,243,99111,1,2,1:1:0:0:
249,284,99293,2,0,P|282:281|315:266,1,60,4|4,3:0|3:0,0:0:0:0:
338,206,99657,1,2,1:0:0:0:
409,217,99839,2,0,P|446:263|442:338,1,120,4|2,1:2|1:0,0:0:0:0:
386,359,100384,6,0,B|335:348|335:348|244:359,1,120,4|0,1:0|0:0,0:0:0:0:
202,324,100930,2,0,B|172:325|172:325|145:313,2,60,4|2|2,1:2|0:1|0:1,0:0:0:0:
186,253,101475,2,0,P|131:285|60:269,1,120,4|0,3:0|0:0,0:0:0:0:
44,214,102020,2,0,P|52:180|70:153,1,60,4|2,1:2|0:1,0:0:0:0:
125,118,102384,1,2,0:1:0:0:
194,136,102566,6,0,L|206:210,2,60,4|2|2,3:0|0:1|0:1,0:0:0:0:
235,77,103111,2,0,L|248:5,2,60,4|2|2,1:2|0:1|0:1,0:0:0:0:
287,125,103657,2,0,P|333:170|406:164,1,120,4|2,3:0|0:1,0:0:0:0:
432,117,104202,1,4,1:2:0:0:
457,185,104384,2,0,L|445:256,1,60,2|2,0:1|0:1,0:0:0:0:
469,312,104748,5,4,1:0:0:0:
254,336,105293,2,0,P|224:319|190:316,1,60,4|2,1:2|0:1,0:0:0:0:
127,324,105657,1,2,0:1:0:0:
65,286,105839,2,0,P|52:233|100:174,1,120,4|0,3:0|0:0,0:0:0:0:
154,201,106384,2,0,P|183:214|218:214,1,60,4|2,1:2|0:1,0:0:0:0:
266,169,106748,1,2,0:1:0:0:
236,103,106930,6,0,L|248:35,2,60,4|0|4,3:0|0:0|3:0,0:0:0:0:
177,130,107475,2,0,L|190:194,2,53.9999983520508,4|4|4,1:2|3:0|3:0,0:0:0:0:
127,100,108020,2,0,L|138:37,2,48,4|0|4,1:2|0:0|3:0,0:0:0:0:
84,127,108566,2,0,L|95:184,2,41.9999987182618,4|0|4,1:2|0:0|3:0,0:0:0:0:
54,102,109111,1,4,1:0:0:0:
351,295,126566,6,0,L|328:174,1,107.999996704102,0|0,1:0|0:0,0:0:0:0:
264,161,127475,1,0,1:0:0:0:
239,187,127657,2,0,P|199:204|119:197,1,107.999996704102,2|0,1:0|1:0,0:0:0:0:
135,310,128748,6,0,L|227:327,1,71.9999978027344,0|0,1:0|0:0,0:0:0:0:
306,283,129657,2,0,P|315:227|364:183,1,107.999996704102,0|0,1:0|1:0,0:0:0:0:
379,171,130384,2,0,L|392:85,1,71.9999978027344,2|0,1:0|1:0,0:0:0:0:
392,63,130930,6,0,P|342:84|274:72,1,107.999996704102,6|0,1:0|0:0,0:0:0:0:
182,95,132020,2,0,L|166:221,1,107.999996704102,2|0,1:0|1:0,0:0:0:0:
211,259,132930,1,0,1:0:0:0:
220,293,133111,1,0,1:0:0:0:
285,325,133475,6,0,P|334:294|394:293,1,107.999996704102,0|0,0:0|1:0,0:0:0:0:
413,309,134202,2,0,P|401:265|403:230,1,71.9999978027344,2|0,1:0|1:0,0:0:0:0:
411,204,134748,2,0,P|411:160|397:125,1,71.9999978027344,2|0,1:0|1:0,0:0:0:0:
377,107,135293,6,0,P|306:147|266:147,1,107.999996704102,4|8,1:2|1:2,0:0:0:0:
200,76,136384,1,2,1:0:0:0:
121,150,136930,2,0,P|127:204|88:271,1,107.999996704102,8|6,1:2|1:0,0:0:0:0:
49,295,137839,6,0,L|176:313,1,107.999996704102,0|0,1:0|1:0,0:0:0:0:
191,314,138566,2,0,P|226:284|274:270,1,71.9999978027344,2|0,1:0|1:0,0:0:0:0:
284,283,139111,2,0,P|323:289|368:279,1,71.9999978027344,8|0,1:2|1:0,0:0:0:0:
384,263,139657,5,6,1:0:0:0:
421,161,140202,2,0,L|393:41,2,107.999996704102,8|12|12,1:2|1:2|1:2,0:0:0:0:
332,223,141839,6,0,P|276:218|222:176,1,107.999996704102,4|0,3:0|0:0,0:0:0:0:
191,131,142748,2,0,L|149:124,1,35.9999989013672,0|4,0:0|1:2,0:0:0:0:
125,145,143111,2,0,L|83:152,1,35.9999989013672,0|0,0:0|1:0,0:0:0:0:
71,182,143475,2,0,P|69:227|56:263,1,71.9999978027344,4|0,1:2|1:0,0:0:0:0:
74,287,144020,6,0,L|211:303,1,120,4|0,1:0|0:0,0:0:0:0:
255,264,144566,2,0,L|238:200,2,60,4|2|2,1:2|0:1|0:1,0:0:0:0:
319,295,145111,2,0,P|347:259|435:255,1,120,4|0,1:3|0:0,0:0:0:0:
467,299,145657,2,0,L|440:170,1,120,4|2,1:2|0:1,0:0:0:0:
390,132,146202,6,0,P|391:97|400:66,2,60,4|2|2,1:3|0:1|0:1,0:0:0:0:
373,202,146748,2,0,P|341:209|305:208,1,60,4|2,1:2|0:1,0:0:0:0:
253,170,147111,1,2,0:1:0:0:
251,97,147293,2,0,P|210:63|131:68,1,120,4|4,1:2|3:0,0:0:0:0:
95,113,147839,2,0,L|29:105,2,60,4|2|2,1:2|0:0|0:0,0:0:0:0:
141,168,148384,6,0,B|166:233|166:233|155:303,1,120,4|0,1:0|0:0,0:0:0:0:
86,290,148930,2,0,P|124:347|184:350,1,120,4|2,1:2|0:1,0:0:0:0:
226,308,149475,2,0,L|247:170,1,120,4|0,1:3|0:0,0:0:0:0:
309,158,150020,2,0,P|322:189|346:213,1,60,4|2,1:2|0:1,0:0:0:0:
405,239,150384,1,2,0:1:0:0:
463,197,150566,6,0,L|450:131,2,60,4|0|4,3:0|0:0|3:0,0:0:0:0:
470,268,151111,2,0,P|432:305|356:290,1,120,4|4,1:2|3:0,0:0:0:0:
313,252,151657,2,0,L|182:272,1,120,4|4,3:0|3:0,0:0:0:0:
131,235,152202,2,0,L|61:245,2,60,4|2|4,1:2|0:1|3:0,0:0:0:0:
172,175,152748,6,0,B|182:130|182:130|176:95|176:95|185:51,1,120,4|0,1:0|0:0,0:0:0:0:
247,23,153293,2,0,P|277:14|309:13,1,60,4|2,1:2|0:1,0:0:0:0:
373,37,153657,1,2,0:1:0:0:
428,83,153839,2,0,B|437:145|437:145|415:200,1,120,4|0,1:2|0:0,0:0:0:0:
454,259,154384,2,0,L|523:249,2,60,4|4|2,3:0|3:0|0:1,0:0:0:0:
395,301,154930,6,0,P|331:300|280:252,1,120,4|4,3:0|3:0,0:0:0:0:
271,196,155475,2,0,L|280:131,1,60,4|2,1:2|0:1,0:0:0:0:
259,66,155839,1,4,3:0:0:0:
194,96,156020,2,0,L|205:162,1,60,4|0,3:0|0:0,0:0:0:0:
158,211,156384,1,4,3:0:0:0:
92,180,156566,2,0,P|61:181|30:191,2,60,4|2|2,1:2|1:0|1:0,0:0:0:0:
158,211,157111,6,0,P|187:263|251:281,1,120,4|0,1:0|0:0,0:0:0:0:
304,244,157657,2,0,L|282:117,1,120,4|2,1:2|0:1,0:0:0:0:
349,95,158202,2,0,L|331:216,1,120,4|0,3:0|0:0,0:0:0:0:
383,263,158748,2,0,L|394:323,2,60,4|2|2,1:2|0:1|0:1,0:0:0:0:
434,213,159293,6,0,P|454:188|463:148,1,60,4|0,3:0|0:0,0:0:0:0:
468,89,159657,1,4,3:0:0:0:
409,46,159839,2,0,P|360:79|289:75,1,120,4|4,1:2|3:0,0:0:0:0:
229,90,160384,2,0,L|215:155,1,60,4|2,1:2|0:1,0:0:0:0:
251,211,160748,1,4,3:0:0:0:
315,178,160930,2,0,P|347:167|377:165,1,60,4|4,1:2|3:0,0:0:0:0:
436,198,161293,1,2,0:1:0:0:
487,147,161475,6,0,P|489:88|432:50,1,120,4|0,1:0|0:0,0:0:0:0:
379,82,162020,1,4,1:2:0:0:
309,63,162202,2,0,L|303:30,2,30,2|2|2,0:1|0:0|0:1,0:0:0:0:
267,122,162566,2,0,L|245:254,1,120,4|0,3:0|0:0,0:0:0:0:
192,286,163111,1,4,1:2:0:0:
124,261,163293,2,0,L|91:267,2,30,2|2|2,0:1|0:0|0:1,0:0:0:0:
152,194,163657,6,0,P|116:155|44:156,1,120,4|2,3:0|0:1,0:0:0:0:
8,209,164202,1,4,1:2:0:0:
32,66,164566,1,2,0:1:0:0:
96,97,164748,1,4,3:0:0:0:
165,78,164930,2,0,L|176:41,2,30,2|2|2,0:1|0:0|0:1,0:0:0:0:
208,135,165293,2,0,P|287:133|321:101,1,120,4|2,1:2|0:0,0:0:0:0:
341,40,165839,6,0,L|375:168,1,120,6|0,1:0|0:0,0:0:0:0:
438,183,166384,1,4,1:2:0:0:
505,157,166566,2,0,L|512:118,2,30,2|2|2,0:1|0:0|0:1,0:0:0:0:
494,228,166930,2,0,P|448:254|383:230,1,120,4|0,3:0|0:0,0:0:0:0:
367,165,167475,1,4,1:2:0:0:
317,217,167657,2,0,L|312:251,2,30,2|2|2,0:1|0:0|0:1,0:0:0:0:
262,169,168020,6,0,L|194:185,2,60,4|2|4,3:0|0:1|0:3,0:0:0:0:
311,116,168566,2,0,L|376:131,2,60,4|2|4,1:2|0:1|3:0,0:0:0:0:
251,75,169111,2,0,P|196:81|150:32,1,120,4|4,3:0|3:0,0:0:0:0:
80,48,169657,2,0,L|61:192,1,120,4|4,3:0|3:0,0:0:0:0:
99,229,170202,6,0,B|160:216|160:216|221:219,1,120,6|0,1:0|0:0,0:0:0:0:
276,261,170748,1,4,1:2:0:0:
343,235,170930,2,0,L|351:200,2,30,2|2|2,0:1|0:0|0:1,0:0:0:0:
333,306,171293,2,0,P|362:305|392:287,1,60,4|0,1:2|0:0,0:0:0:0:
418,224,171657,1,0,0:0:0:0:
399,154,171839,1,4,1:2:0:0:
333,126,172020,2,0,L|326:97,2,30,2|2|2,0:1|0:0|0:1,0:0:0:0:
283,178,172384,6,0,P|207:213|173:204,1,120,4|2,1:0|0:1,0:0:0:0:
113,167,172930,2,0,P|170:215|171:266,1,120,4|2,1:2|0:1,0:0:0:0:
127,311,173475,1,4,3:0:0:0:
186,350,173657,2,0,L|197:381,2,30,2|2|4,0:1|0:0|3:0,0:0:0:0:
234,296,174020,2,0,P|265:283|295:282,1,60,4|2,3:0|0:1,0:0:0:0:
358,307,174384,1,4,3:0:0:0:
412,259,174566,6,0,B|420:214|420:214|406:132,1,120,4|0,1:0|0:0,0:0:0:0:
340,114,175111,1,4,1:2:0:0:
303,175,175293,2,0,L|297:214,2,30,2|2|2,0:1|0:0|0:1,0:0:0:0:
340,114,175657,2,0,P|305:77|235:78,1,120,4|0,3:0|0:0,0:0:0:0:
204,139,176202,1,4,1:2:0:0:
140,172,176384,2,0,L|106:163,2,30,2|2|2,0:1|0:0|0:1,0:0:0:0:
200,212,176748,5,4,3:0:0:0:
452,331,177839,6,0,L|426:203,1,120,2|0,1:2|1:0,0:0:0:0:
376,163,178384,2,0,P|380:132|394:105,2,60,0|2|2,0:0|1:2|1:0,0:0:0:0:
319,208,178930,6,0,P|256:220|201:181,1,120,4|0,1:0|0:0,0:0:0:0:
185,125,179475,2,0,B|141:113|141:113|68:121,1,120,4|2,1:2|0:1,0:0:0:0:
31,183,180020,2,0,L|23:244,2,60,0|0|0,1:0|0:0|0:0,0:0:0:0:
103,185,180566,2,0,P|138:133|125:77,1,120,4|2,1:2|0:1,0:0:0:0:
173,24,181111,6,0,P|207:29|232:43,1,60,0|0,1:0|0:0,0:0:0:0:
268,101,181475,1,0,0:0:0:0:
224,158,181657,2,0,P|185:211|188:274,1,120,4|4,1:2|3:0,0:0:0:0:
243,304,182202,2,0,L|366:284,1,120,4|4,1:2|3:0,0:0:0:0:
411,232,182748,2,0,L|470:245,2,60,4|2|4,1:2|0:0|3:0,0:0:0:0:
364,176,183293,5,4,1:0:0:0:
368,172,183657,5,0,0:0:0:0:
336,107,183839,2,0,L|327:37,2,60,4|0|2,1:2|0:0|0:1,0:0:0:0:
282,157,184384,2,0,P|222:183|162:159,1,120,0|0,1:0|0:0,0:0:0:0:
131,107,184930,1,4,1:2:0:0:
63,233,185293,1,4,3:0:0:0:
109,287,185475,6,0,B|170:294|170:294|218:327,1,120,0|4,1:0|3:0,0:0:0:0:
288,343,186020,2,0,P|322:336|345:322,1,60,4|4,1:2|3:0,0:0:0:0:
374,257,186384,1,4,3:0:0:0:
350,188,186566,2,0,P|413:194|446:249,1,120,0|4,1:0|3:0,0:0:0:0:
429,307,187111,2,0,P|370:331|319:306,1,120,4|4,1:2|3:0,0:0:0:0:
296,240,187657,6,0,B|234:232|234:232|199:239|163:230,1,120,4|0,1:0|0:0,0:0:0:0:
133,174,188202,2,0,P|100:166|71:168,1,60,4|0,1:2|0:0,0:0:0:0:
9,199,188566,1,2,0:1:0:0:
67,241,188748,2,0,P|119:213|180:223,1,120,0|0,1:0|0:0,0:0:0:0:
226,274,189293,2,0,L|234:339,2,60,4|0|2,1:2|0:0|0:1,0:0:0:0:
289,238,189839,6,0,B|305:199|305:199|289:117,1,120,4|0,1:0|0:0,0:0:0:0:
224,93,190384,2,0,L|356:67,1,120,4|2,1:2|0:1,0:0:0:0:
412,84,190930,6,0,P|457:182|422:238,1,180,4|4,3:0|1:2,0:0:0:0:
351,234,191657,1,0,0:0:0:0:
290,195,191839,1,0,0:0:0:0:
232,242,192020,2,0,P|295:323|366:323,1,180,4|4,3:0|3:0,0:0:0:0:
448,204,192930,1,2,0:1:0:0:
393,157,193111,6,0,L|373:36,1,120,4|2,3:0|0:1,0:0:0:0:
302,55,193657,2,0,P|267:103|196:101,1,120,4|2,3:0|0:1,0:0:0:0:
163,53,194202,1,4,0:0:0:0:
63,157,194566,1,0,0:0:0:0:
134,148,194748,2,0,P|179:182|182:248,1,120,4|0,1:2|0:0,0:0:0:0:
123,280,195293,6,0,L|58:273,2,60,4|0|0,3:0|1:0|1:0,0:0:0:0:
178,327,195839,2,0,L|242:320,1,60,6|0,1:0|0:0,0:0:0:0:
287,268,196202,1,0,0:0:0:0:
338,318,196384,6,0,P|396:342|454:333,1,120,4|0,1:2|0:0,0:0:0:0:
490,273,196930,2,0,L|463:148,1,120,0|2,1:0|0:1,0:0:0:0:
396,133,197475,1,0,1:0:0:0:
255,164,197839,1,0,0:0:0:0:
190,131,198020,2,0,P|187:69|237:37,1,120,4|2,1:2|0:1,0:0:0:0:
299,59,198566,6,0,L|313:119,1,60,0|0,1:0|0:0,0:0:0:0:
373,157,198930,1,2,0:1:0:0:
342,221,199111,2,0,P|304:255|229:255,1,120,4|4,1:2|3:0,0:0:0:0:
192,201,199657,2,0,L|71:182,1,120,0|4,1:0|3:0,0:0:0:0:
48,250,200202,2,0,L|180:271,1,120,4|4,1:2|3:0,0:0:0:0:
220,316,200748,5,4,1:0:0:0:
224,320,201111,5,0,0:0:0:0:
294,305,201293,2,0,B|313:237|313:237|304:186,1,120,4|2,1:2|0:1,0:0:0:0:
254,136,201839,2,0,L|265:69,2,60,2|0|0,1:0|0:0|0:0,0:0:0:0:
186,161,202384,1,4,1:2:0:0:
71,249,202748,1,2,0:1:0:0:
125,296,202930,6,0,P|186:296|230:257,1,120,0|0,1:0|0:0,0:0:0:0:
241,188,203475,2,0,L|227:121,2,60,4|2|2,1:2|0:1|0:1,0:0:0:0:
297,232,204020,2,0,L|419:254,1,120,4|4,3:0|0:3,0:0:0:0:
464,200,204566,2,0,P|428:145|441:85,1,120,4|4,1:2|3:0,0:0:0:0:
495,53,205111,5,6,1:0:0:0:
355,89,205475,1,0,0:0:0:0:
291,54,205657,2,0,P|253:45|172:98,1,120,4|2,1:2|0:1,0:0:0:0:
214,144,206202,2,0,P|218:197|154:243,1,120,0|0,1:0|0:0,0:0:0:0:
105,264,206748,2,0,B|165:273|165:273|217:305,1,120,4|2,1:2|0:1,0:0:0:0:
284,284,207293,6,0,P|290:250|302:222,1,60,2|0,1:0|0:0,0:0:0:0:
366,197,207657,1,0,0:0:0:0:
418,147,207839,2,0,P|418:86|375:36,1,120,4|0,1:2|0:0,0:0:0:0:
314,62,208384,2,0,P|277:123|173:119,1,180,0|4,1:0|1:2,0:0:0:0:
112,89,209111,2,0,L|50:96,1,60,0|4,1:0|1:2,0:0:0:0:
19,160,209475,6,0,B|12:200|12:200|34:281,1,120,4|0,1:0|0:0,0:0:0:0:
97,308,210020,2,0,P|136:266|259:260,2,180,0|4|0,0:0|1:0|0:0,0:0:0:0:
34,100,211657,1,4,1:0:0:0:
256,192,211839,12,4,213839,0:0:0:0:
