osu file format v14

[General]
AudioFilename: Tristam - Once Again [Monstercat Album Exclusive].mp3
AudioLeadIn: 0
PreviewTime: -1
Countdown: 1
SampleSet: Soft
StackLeniency: 0.7
Mode: 0
LetterboxInBreaks: 1
WidescreenStoryboard: 0

[Editor]
DistanceSpacing: 2
BeatDivisor: 3
GridSize: 8
TimelineZoom: 1

[Metadata]
Title:Once Again
TitleUnicode:Once Again
Artist:Tristam
ArtistUnicode:Tristam
Creator:gadrin
Version:Gadrinsane
Source:
Tags:
BeatmapID:714373
BeatmapSetID:321100

[Difficulty]
HPDrainRate:6
CircleSize:4
OverallDifficulty:8
ApproachRate:8.5
SliderMultiplier:1.6
SliderTickRate:2

[Events]
//Background and Video events
0,0,"wallpaper___tristam__by_mackaged-d5r0llo.jpg",0,0
//Break Periods
2,109370,125950
//Storyboard Layer 0 (Background)
//Storyboard Layer 1 (Fail)
//Storyboard Layer 2 (Pass)
//Storyboard Layer 3 (Foreground)
//Storyboard Sound Samples

[TimingPoints]
80,545.454545454546,4,2,0,40,1,0
56807,-62.5,4,2,0,40,0,0
126625,-100,4,2,0,40,0,0
144080,-66.6666666666667,4,2,0,40,0,0
178989,-100,4,2,0,40,0,0

[HitObjects]
160,112,39352,5,0,0:0:0:0:
232,280,39716,2,0,L|296:328,1,53.3333333333333
456,312,40261,1,0,0:0:0:0:
424,208,40443,2,0,L|320:104,1,106.666666666667
288,64,40989,1,0,0:0:0:0:
72,232,41534,5,0,0:0:0:0:
176,88,41898,2,0,L|120:168,1,53.3333333333333
32,168,42261,1,0,0:0:0:0:
104,240,42443,1,0,0:0:0:0:
208,272,42625,1,0,0:0:0:0:
408,240,42989,6,0,L|392:160,1,53.3333333333333
256,96,43534,1,0,0:0:0:0:
168,120,43716,1,0,0:0:0:0:
336,336,44261,5,0,0:0:0:0:
384,256,44443,2,0,P|400:208|384:168,1,53.3333333333333
304,80,44807,1,0,0:0:0:0:
64,200,45352,1,0,0:0:0:0:
208,304,45716,2,0,L|272:328,1,53.3333333333333
432,112,46443,5,0,0:0:0:0:
256,64,46807,2,0,L|184:64,1,53.3333333333333
120,96,47170,1,0,0:0:0:0:
88,184,47352,1,0,0:0:0:0:
144,272,47534,2,0,P|224:336|280:336,1,160
432,128,48625,5,0,0:0:0:0:
232,56,48989,1,0,0:0:0:0:
144,120,49170,2,0,P|112:272|120:304,1,160
208,320,49898,1,0,0:0:0:0:
312,320,50080,1,0,0:0:0:0:
416,296,50261,1,0,0:0:0:0:
472,208,50443,1,0,0:0:0:0:
416,120,50625,1,0,0:0:0:0:
312,88,50807,1,0,0:0:0:0:
208,96,50989,1,0,0:0:0:0:
120,152,51170,1,0,0:0:0:0:
48,232,51352,1,0,0:0:0:0:
160,280,51534,6,0,L|200:224,1,53.3333333333333
280,240,51898,2,0,L|336:192,1,53.3333333333333
408,152,52261,2,0,L|456:104,1,53.3333333333333
360,48,52625,2,0,L|288:64,1,53.3333333333333
296,320,54443,1,0,0:0:0:0:
360,232,54625,1,0,0:0:0:0:
64,72,56807,5,0,0:0:0:0:
424,304,57352,2,0,L|336:224,1,85.3333333333333
288,72,57716,1,0,0:0:0:0:
152,168,57898,1,0,0:0:0:0:
264,208,58443,5,0,0:0:0:0:
96,216,58625,2,0,L|96:104,1,85.3333333333333
240,88,58989,1,0,0:0:0:0:
240,256,59170,1,0,0:0:0:0:
168,96,59352,1,0,0:0:0:0:
240,256,59534,2,0,L|128:256,1,85.3333333333333
64,80,59898,1,0,0:0:0:0:
224,144,60080,5,0,0:0:0:0:
384,88,60261,2,0,L|432:168,1,85.3333333333333
344,304,60625,1,0,0:0:0:0:
176,320,60807,2,0,L|96:240,1,85.3333333333333
224,192,61170,1,0,0:0:0:0:
80,64,61716,6,0,L|80:168,1,85.3333333333333
48,336,62080,1,0,0:0:0:0:
248,200,62261,1,0,0:0:0:0:
456,264,62807,5,0,0:0:0:0:
400,104,62989,2,0,L|304:128,1,85.3333333333333
128,120,63352,1,0,0:0:0:0:
208,272,63534,1,0,0:0:0:0:
72,168,63716,1,0,0:0:0:0:
240,216,63898,1,0,0:0:0:0:
72,256,64080,1,0,0:0:0:0:
200,144,64261,1,0,0:0:0:0:
128,296,64443,6,0,L|232:352,1,85.3333333333333
368,320,64807,1,0,0:0:0:0:
456,168,64989,2,0,L|408:96,1,85.3333333333333
240,64,65352,1,0,0:0:0:0:
120,184,65534,2,0,P|96:304|224:328,1,256
376,304,66261,5,0,0:0:0:0:
328,136,66443,1,0,0:0:0:0:
168,72,66625,1,0,0:0:0:0:
408,72,67170,6,0,L|408:160,1,85.3333333333333
216,208,67534,1,0,0:0:0:0:
336,80,67716,2,0,L|256:40,1,85.3333333333333
112,168,68080,1,0,0:0:0:0:
256,256,68261,1,0,0:0:0:0:
416,200,68443,1,0,0:0:0:0:
272,104,68625,5,0,0:0:0:0:
144,256,68807,1,0,0:0:0:0:
296,176,68989,2,0,L|224:88,1,85.3333333333333
112,56,69352,1,0,0:0:0:0:
272,128,69534,1,0,0:0:0:0:
320,288,69716,2,0,L|200:304,1,85.3333333333333
96,80,70443,6,0,L|208:80,1,85.3333333333333
176,280,70807,2,0,L|88:280,1,85.3333333333333
384,128,71534,5,0,0:0:0:0:
408,296,71716,1,0,0:0:0:0:
384,128,71898,1,0,0:0:0:0:
304,280,72080,1,0,0:0:0:0:
384,128,72261,1,0,0:0:0:0:
248,184,72443,1,0,0:0:0:0:
392,96,72625,2,0,L|312:64,1,85.3333333333333
128,56,72989,1,0,0:0:0:0:
72,216,73170,5,0,0:0:0:0:
128,56,73352,2,0,L|128:176,1,85.3333333333333
192,320,73716,1,0,0:0:0:0:
208,152,73898,2,0,L|288:232,1,85.3333333333333
352,64,74261,1,0,0:0:0:0:
352,320,74807,5,0,0:0:0:0:
184,296,74989,2,0,L|104:256,1,85.3333333333333
160,96,75352,1,0,0:0:0:0:
400,80,75898,5,0,0:0:0:0:
232,64,76080,1,0,0:0:0:0:
288,224,76261,1,0,0:0:0:0:
120,208,76443,1,0,0:0:0:0:
288,160,76625,1,0,0:0:0:0:
160,48,76807,1,0,0:0:0:0:
72,192,76989,1,0,0:0:0:0:
168,328,77170,1,0,0:0:0:0:
336,312,77352,1,0,0:0:0:0:
224,184,77534,5,0,0:0:0:0:
368,88,77716,2,0,L|304:192,1,85.3333333333333
160,120,78080,1,0,0:0:0:0:
120,296,78261,2,0,L|208:248,1,85.3333333333333
264,96,78625,1,0,0:0:0:0:
416,304,79170,5,0,0:0:0:0:
296,184,79352,1,0,0:0:0:0:
136,240,79534,1,0,0:0:0:0:
272,336,79716,1,0,0:0:0:0:
256,64,80261,5,0,0:0:0:0:
88,64,80443,2,0,L|216:64,1,85.3333333333333
256,64,80807,1,0,0:0:0:0:
424,64,80989,2,0,L|320:64,1,85.3333333333333
256,216,81352,1,0,0:0:0:0:
384,328,81534,2,0,L|304:248,1,85.3333333333333
152,248,81898,5,0,0:0:0:0:
72,96,82080,1,0,0:0:0:0:
240,88,82261,1,0,0:0:0:0:
264,256,82443,2,0,L|376:272,1,85.3333333333333
432,88,82807,1,0,0:0:0:0:
360,240,82989,1,0,0:0:0:0:
416,56,83534,6,0,L|368:128,1,85.3333333333333
184,56,83898,2,0,L|264:160,1,85.3333333333333
168,296,84625,6,0,L|112:232,1,85.3333333333333
48,56,84989,1,0,0:0:0:0:
200,128,85170,2,0,L|296:80,1,85.3333333333333
440,128,85534,1,0,0:0:0:0:
320,248,85716,2,0,L|176:336,1,85.3333333333333
88,240,86080,1,0,0:0:0:0:
160,88,86261,6,0,L|320:72,1,85.3333333333333
384,184,86625,1,0,0:0:0:0:
256,296,86807,1,0,0:0:0:0:
288,128,86989,1,0,0:0:0:0:
192,240,87170,1,0,0:0:0:0:
80,88,87352,1,0,0:0:0:0:
416,96,87898,5,0,0:0:0:0:
392,264,88080,1,0,0:0:0:0:
336,104,88261,1,0,0:0:0:0:
184,184,88443,1,0,0:0:0:0:
56,80,88989,5,0,0:0:0:0:
64,248,89170,1,0,0:0:0:0:
144,96,89352,1,0,0:0:0:0:
168,264,89534,1,0,0:0:0:0:
40,152,89716,1,0,0:0:0:0:
168,160,89898,2,0,L|64:160,1,85.3333333333333
264,96,90261,1,0,0:0:0:0:
152,224,90443,1,0,0:0:0:0:
80,208,90625,5,0,0:0:0:0:
152,72,90807,2,0,L|152:200,1,85.3333333333333
152,208,91170,2,0,L|152:104,1,85.3333333333333
120,296,91534,1,0,0:0:0:0:
216,152,91716,2,0,P|368:152|456:216,1,256
368,336,92807,6,0,P|216:332|112:296,1,256
64,136,93534,1,0,0:0:0:0:
208,48,93716,1,0,0:0:0:0:
320,176,93898,2,0,L|216:256,1,85.3333333333333
118,299,94261,1,0,0:0:0:0:
176,112,94443,5,0,0:0:0:0:
312,208,94625,1,0,0:0:0:0:
144,184,94807,2,0,L|88:296,1,85.3333333333333
264,320,95170,1,0,0:0:0:0:
136,104,95352,2,0,L|188:184,1,85.3333333333333
104,288,95716,1,0,0:0:0:0:
256,304,95898,2,0,L|392:312,1,85.3333333333333
404,108,96625,5,0,0:0:0:0:
240,64,96807,1,0,0:0:0:0:
360,184,96989,1,0,0:0:0:0:
192,224,97170,1,0,0:0:0:0:
80,112,97716,5,0,0:0:0:0:
248,80,97898,1,0,0:0:0:0:
256,248,98080,2,0,L|152:248,1,85.3333333333333
168,64,98443,1,0,0:0:0:0:
336,64,98625,1,0,0:0:0:0:
344,232,98807,2,0,L|248:232,1,85.3333333333333
256,64,99170,1,0,0:0:0:0:
424,64,99352,5,0,0:0:0:0:
424,232,99534,2,0,L|312:232,1,85.3333333333333
176,296,99898,1,0,0:0:0:0:
88,152,100080,1,0,0:0:0:0:
240,232,100261,1,0,0:0:0:0:
208,64,100443,2,0,P|344:72|448:152,1,256
248,136,101170,5,0,0:0:0:0:
360,240,101352,1,0,0:0:0:0:
224,336,101534,2,0,P|128:232|96:112,1,256
256,56,102261,5,0,0:0:0:0:
376,176,102443,1,0,0:0:0:0:
240,272,102625,1,0,0:0:0:0:
312,120,102807,1,0,0:0:0:0:
144,104,102989,1,0,0:0:0:0:
280,208,103170,2,0,L|344:272,1,85.3333333333333
184,336,103534,1,0,0:0:0:0:
120,168,103716,6,0,L|216:88,1,85.3333333333333
344,48,104080,1,0,0:0:0:0:
376,216,104261,1,0,0:0:0:0:
216,288,104443,2,0,L|96:288,1,85.3333333333333
88,120,104807,1,0,0:0:0:0:
264,128,105352,5,0,0:0:0:0:
288,296,105534,1,0,0:0:0:0:
144,208,105716,1,0,0:0:0:0:
312,200,105898,1,0,0:0:0:0:
96,88,106443,6,0,L|96:184,1,85.3333333333333
184,320,106807,1,0,0:0:0:0:
176,152,106989,2,0,L|176:64,1,85.3333333333333
344,40,107352,1,0,0:0:0:0:
440,184,107534,1,0,0:0:0:0:
280,120,107716,1,0,0:0:0:0:
320,264,107898,2,0,L|232:304,1,85.3333333333333
88,184,108261,5,0,0:0:0:0:
40,344,108443,1,0,0:0:0:0:
208,344,108625,1,0,0:0:0:0:
152,184,108807,1,0,0:0:0:0:
296,208,108989,2,0,L|248:112,1,85.3333333333333
256,192,126625,5,0,0:0:0:0:
424,88,126989,2,0,L|344:56,1,53.3333333333333
56,48,127716,1,0,0:0:0:0:
248,304,128261,5,0,0:0:0:0:
448,232,128625,2,0,L|448:136,1,53.3333333333333
240,120,129170,2,0,L|168:96,1,53.3333333333333
40,200,129716,1,0,0:0:0:0:
88,296,129898,1,0,0:0:0:0:
184,344,130080,1,0,0:0:0:0:
288,328,130261,1,0,0:0:0:0:
360,248,130443,1,0,0:0:0:0:
200,112,130807,2,0,L|200:184,1,53.3333333333333
472,40,131534,5,0,0:0:0:0:
384,344,132080,1,0,0:0:0:0:
64,312,132625,1,0,0:0:0:0:
64,96,132989,1,0,0:0:0:0:
168,80,133170,1,0,0:0:0:0:
264,128,133352,2,0,L|344:144,1,53.3333333333333
408,80,133716,1,0,0:0:0:0:
360,272,134080,2,0,L|288:320,1,53.3333333333333
104,296,134625,5,0,0:0:0:0:
72,192,134807,2,0,L|88:80,1,106.666666666667
216,72,135352,1,0,0:0:0:0:
416,320,135898,2,0,P|456:176|440:144,1,160
280,56,136807,5,0,0:0:0:0:
184,104,136989,1,0,0:0:0:0:
120,312,137352,1,0,0:0:0:0:
224,280,137534,1,0,0:0:0:0:
448,48,138080,5,0,0:0:0:0:
272,312,138625,1,0,0:0:0:0:
56,80,139170,5,0,0:0:0:0:
152,120,139352,1,0,0:0:0:0:
248,80,139534,1,0,0:0:0:0:
208,176,139716,5,0,0:0:0:0:
104,192,139898,1,0,0:0:0:0:
120,88,140080,1,0,0:0:0:0:
216,40,140261,5,0,0:0:0:0:
176,136,140443,1,0,0:0:0:0:
264,192,140625,1,0,0:0:0:0:
160,208,140807,5,0,0:0:0:0:
64,152,140989,1,0,0:0:0:0:
96,256,141170,1,0,0:0:0:0:
120,152,141352,5,0,0:0:0:0:
224,128,141534,1,0,0:0:0:0:
208,232,141716,1,0,0:0:0:0:
296,296,141898,2,0,P|424:248|240:72,1,480
256,192,144080,5,0,0:0:0:0:
152,120,144625,6,0,L|144:224,1,80.0000030517579
64,336,144989,1,0,0:0:0:0:
224,320,145170,1,0,0:0:0:0:
416,80,145716,5,0,0:0:0:0:
256,72,145898,1,0,0:0:0:0:
336,208,146080,1,0,0:0:0:0:
480,152,146261,2,0,L|352:144,1,80.0000030517579
240,192,146625,1,0,0:0:0:0:
392,147,146807,2,0,L|296:144,1,80.0000030517579
176,224,147170,1,0,0:0:0:0:
336,256,147352,5,0,0:0:0:0:
432,128,147534,1,0,0:0:0:0:
280,168,147716,2,0,L|176:112,1,80.0000030517579
96,240,148080,1,0,0:0:0:0:
240,312,148261,1,0,0:0:0:0:
176,168,148443,2,0,P|312:152|416:192,1,240.000009155274
288,80,149170,5,0,0:0:0:0:
288,200,149352,2,0,L|328:336,1,80.0000030517579
48,80,150080,5,0,0:0:0:0:
208,80,150261,1,0,0:0:0:0:
208,240,150443,1,0,0:0:0:0:
48,240,150625,1,0,0:0:0:0:
128,64,150807,1,0,0:0:0:0:
256,160,150989,1,0,0:0:0:0:
136,264,151170,1,0,0:0:0:0:
40,112,151352,2,0,L|160:144,1,80.0000030517579
272,80,151716,5,0,0:0:0:0:
304,240,151898,1,0,0:0:0:0:
392,112,152080,2,0,L|432:192,1,80.0000030517579
368,328,152443,1,0,0:0:0:0:
216,272,152625,1,0,0:0:0:0:
368,216,152807,2,0,P|256:168|128:208,1,240.000009155274
72,336,153534,5,0,0:0:0:0:
48,176,153716,1,0,0:0:0:0:
176,272,153898,1,0,0:0:0:0:
400,168,154443,6,0,L|400:264,1,80.0000030517579
256,328,154807,1,0,0:0:0:0:
296,176,154989,1,0,0:0:0:0:
416,280,155170,1,0,0:0:0:0:
264,224,155352,2,0,L|248:128,1,80.0000030517579
160,280,155716,1,0,0:0:0:0:
376,264,155898,2,0,L|288:184,1,80.0000030517579
240,104,156261,6,0,L|336:64,1,80.0000030517579
472,64,156625,1,0,0:0:0:0:
472,224,156807,1,0,0:0:0:0:
352,328,156989,1,0,0:0:0:0:
192,312,157170,6,0,B|216:224|208:208|176:168|248:80,1,240.000009155274
408,64,157898,5,0,0:0:0:0:
248,64,158080,1,0,0:0:0:0:
360,176,158261,1,0,0:0:0:0:
160,320,158807,5,0,0:0:0:0:
56,200,158989,1,0,0:0:0:0:
216,240,159170,1,0,0:0:0:0:
352,160,159352,2,0,L|264:208,1,80.0000030517579
144,112,159716,1,0,0:0:0:0:
304,72,159898,1,0,0:0:0:0:
216,208,160080,1,0,0:0:0:0:
344,304,160261,2,0,L|248:344,1,80.0000030517579
400,120,160625,5,0,0:0:0:0:
280,232,160807,1,0,0:0:0:0:
128,280,160989,1,0,0:0:0:0:
72,128,161170,2,0,L|152:56,1,80.0000030517579
240,144,161534,2,0,P|192:216|280:320,1,240.000009155274
432,288,162261,5,0,0:0:0:0:
432,128,162443,1,0,0:0:0:0:
296,216,162625,1,0,0:0:0:0:
64,128,163170,6,0,L|64:256,1,80.0000030517579
168,328,163534,1,0,0:0:0:0:
216,176,163716,2,0,L|312:192,1,80.0000030517579
160,104,164080,1,0,0:0:0:0:
264,224,164261,2,0,L|320:304,1,80.0000030517579
272,136,164625,1,0,0:0:0:0:
320,288,164807,5,0,0:0:0:0:
160,296,164989,2,0,L|144:200,1,80.0000030517579
104,64,165352,1,0,0:0:0:0:
48,216,165534,1,0,0:0:0:0:
192,144,165716,1,0,0:0:0:0:
296,272,165898,1,0,0:0:0:0:
288,312,166443,5,0,0:0:0:0:
144,240,166625,1,0,0:0:0:0:
296,184,166807,1,0,0:0:0:0:
176,288,166989,1,0,0:0:0:0:
240,56,167534,5,0,0:0:0:0:
208,216,167716,1,0,0:0:0:0:
88,112,167898,1,0,0:0:0:0:
208,40,168080,1,0,0:0:0:0:
120,168,168261,1,0,0:0:0:0:
280,192,168443,1,0,0:0:0:0:
168,80,168625,1,0,0:0:0:0:
328,96,168807,1,0,0:0:0:0:
224,216,168989,2,0,L|256:312,1,80.0000030517579
408,328,169352,5,0,0:0:0:0:
432,168,169534,2,0,L|360:96,1,80.0000030517579
224,56,169898,1,0,0:0:0:0:
208,216,170080,1,0,0:0:0:0:
56,168,170261,2,0,P|240:216|296:192,1,240.000009155274
408,304,170989,5,0,0:0:0:0:
376,144,171170,1,0,0:0:0:0:
272,264,171352,2,0,P|72:208|48:136,1,240.000009155274
224,184,172080,5,0,0:0:0:0:
88,104,172261,1,0,0:0:0:0:
248,88,172443,2,0,L|328:80,1,80.0000030517579
400,224,172807,1,0,0:0:0:0:
256,136,172989,1,0,0:0:0:0:
296,288,173170,1,0,0:0:0:0:
208,192,173352,2,0,L|272:112,1,80.0000030517579
432,56,173716,5,0,0:0:0:0:
384,208,173898,1,0,0:0:0:0:
256,112,174080,1,0,0:0:0:0:
256,272,174261,2,0,L|256:184,1,80.0000030517579
112,112,174625,1,0,0:0:0:0:
72,64,175170,5,0,0:0:0:0:
80,248,175352,2,0,L|80:336,1,80.0000030517579
88,160,175716,1,0,0:0:0:0:
432,240,176261,5,0,0:0:0:0:
272,248,176443,1,0,0:0:0:0:
384,136,176625,1,0,0:0:0:0:
224,104,176807,2,0,P|208:224|288:312,1,240.000009155274
440,328,177534,1,0,0:0:0:0:
336,200,177716,1,0,0:0:0:0:
480,136,177898,2,0,P|432:64|312:32,1,160.000006103516
56,320,178989,5,0,0:0:0:0:
376,320,179534,1,0,0:0:0:0:
448,120,179898,2,0,L|400:40,1,53.3333333333333
104,72,180625,5,0,0:0:0:0:
88,288,180989,1,0,0:0:0:0:
192,288,181170,1,0,0:0:0:0:
360,152,181534,2,0,L|384:224,1,53.3333333333333
104,320,182261,5,0,0:0:0:0:
96,104,182625,2,0,L|168:80,1,53.3333333333333
360,64,183170,1,0,0:0:0:0:
352,176,183352,2,0,P|272:288|224:312,1,160
104,88,184443,5,0,0:0:0:0:
408,192,184989,2,0,P|376:144|312:136,1,106.666666666667
224,152,185534,1,0,0:0:0:0:
360,312,185898,2,0,L|304:344,1,53.3333333333333
112,272,186443,2,0,L|80:208,1,53.3333333333333
232,72,186989,2,0,L|312:88,1,53.3333333333333
464,200,187534,6,0,L|424:256,1,53.3333333333333
344,304,187898,1,0,0:0:0:0:
240,320,188080,1,0,0:0:0:0:
136,304,188261,1,0,0:0:0:0:
248,136,188625,5,0,0:0:0:0:
360,88,188807,2,0,P|440:128|432:176,1,106.666666666667
336,168,189352,1,0,0:0:0:0:
128,216,189716,1,0,0:0:0:0:
232,248,189898,1,0,0:0:0:0:
72,128,190261,2,0,L|104:48,1,53.3333333333333
280,144,190807,2,0,L|336:208,1,53.3333333333333
120,272,191352,5,0,0:0:0:0:
224,272,191534,2,0,P|240:192|208:176,1,106.666666666667
336,160,192080,1,0,0:0:0:0:
256,88,192261,1,0,0:0:0:0:
152,64,192443,1,0,0:0:0:0:
56,112,192625,1,0,0:0:0:0:
344,256,193170,5,0,0:0:0:0:
48,312,193716,1,0,0:0:0:0:
264,80,194261,1,0,0:0:0:0:
456,336,194807,1,0,0:0:0:0:
392,160,195352,2,0,P|384:88|344:56,1,106.666666666667
256,48,195898,1,0,0:0:0:0:
80,312,196443,5,0,0:0:0:0:
400,280,196989,6,0,P|448:152|440:128,1,160
248,56,197898,1,0,0:0:0:0:
152,96,198080,1,0,0:0:0:0:
376,328,198625,5,0,0:0:0:0:
328,120,198989,2,0,L|256:128,1,53.3333333333333
72,184,199534,1,0,0:0:0:0:
104,288,199716,1,0,0:0:0:0:
304,264,200080,6,0,L|384:224,1,53.3333333333333
440,176,200443,1,0,0:0:0:0:
424,72,200625,1,0,0:0:0:0:
320,64,200807,2,0,P|200:64|160:88,1,160
88,312,201898,5,0,0:0:0:0:
304,312,202261,1,0,0:0:0:0:
408,280,202443,2,0,P|464:208|464:184,1,106.666666666667
400,112,202989,1,0,0:0:0:0:
232,64,203352,2,0,P|128:96|112:144,1,160
96,240,204080,1,0,0:0:0:0:
304,280,204443,6,0,L|384:272,1,53.3333333333333
464,88,204989,1,0,0:0:0:0:
360,80,205170,2,0,P|224:64|184:72,1,160
48,216,206080,1,0,0:0:0:0:
120,296,206261,1,0,0:0:0:0:
328,240,206625,1,0,0:0:0:0:
256,160,206807,1,0,0:0:0:0:
440,136,207352,5,0,0:0:0:0:
296,272,207716,2,0,L|224:208,1,53.3333333333333
72,32,208443,6,0,P|48:96|48:144,1,106.666666666667
64,240,208989,1,0,0:0:0:0:
152,296,209170,1,0,0:0:0:0:
256,312,209352,1,0,0:0:0:0:
360,272,209534,1,0,0:0:0:0:
440,64,210625,5,0,0:0:0:0:
72,64,211716,1,0,0:0:0:0:
256,328,212807,5,0,0:0:0:0:
256,224,213170,5,0,0:0:0:0:
256,192,213352,2,0,B|264:96|232:80|272:32,1,160
