osu file format v9

[General]
AudioFilename: Mawaru Penguindrum ED 2 - Grey Wedbesday- Triple H.mp3
AudioLeadIn: 3000
PreviewTime: -1
Countdown: 0
SampleSet: Normal
StackLeniency: 0.7
Mode: 0
LetterboxInBreaks: 1

[Editor]
Bookmarks: 2819,6542,10045,15301,17053,20556,23950,27564,30958,34571,38075,41469,44972,48476,51980,55483,58987,62491
DistanceSpacing: 0.8
BeatDivisor: 4
GridSize: 8

[Metadata]
Title:Gray Wednesday (TV Size)
Artist:Triple-H
Creator:DarkEmerl
Version:Normal
Source:Mawaru Penguin Drum
Tags:himari hibari hikari princess of crystal anime opening summer 2011 spinning penguindrum

[Difficulty]
HPDrainRate:6
CircleSize:5
OverallDifficulty:6
ApproachRate:7
SliderMultiplier:1.5
SliderTickRate:1

[Events]
//Background and Video events
0,0,"640px-Edhimari2.jpg"
//Break Periods
//Storyboard Layer 0 (Background)
//Storyboard Layer 1 (Fail)
//Storyboard Layer 2 (Pass)
//Storyboard Layer 3 (Foreground)
//Storyboard Sound Samples
//Background Colour Transformations
3,100,163,162,255

[TimingPoints]
8294,441.176470588235,4,1,0,100,1,0

[Colours]
Combo1 : 255,0,128
Combo2 : 255,128,0
Combo3 : 0,0,255

[HitObjects]
64,64,3038,1,0
136,64,3476,1,0
208,64,3914,1,0
64,144,4242,2,0,B|240:144,3,150
280,144,5994,1,0
352,144,6432,1,0
424,144,6870,5,0
424,216,7308,1,0
344,216,7746,2,0,B|192:216,5,150
128,216,10389,5,0
128,280,10830,1,0
208,280,11271,2,0,B|408:280,3,187.5
395,280,13367,1,0
72,160,14691,5,0
128,216,14801,1,0
200,112,15242,5,0
240,160,15463,1,0
280,208,15683,1,0
256,192,16235,12,0,17111
64,64,17999,5,0
176,144,18771,1,0
224,192,19213,1,0
272,240,19654,1,0
72,192,20095,1,0
104,256,20536,1,0
144,320,20977,1,0
272,280,21419,5,0
336,280,21860,1,0
400,280,22301,1,0
272,120,22742,1,0
400,120,23183,1,0
96,104,24066,6,0,B|272:112,2,150
96,176,25389,1,0
136,256,25830,1,0
224,272,26271,1,0
272,192,26713,1,0
256,112,27154,5,0
176,88,27595,1,0
112,144,28036,1,0
160,216,28477,2,0,B|288:272,3,112.5
344,280,29801,1,0
440,280,30242,1,0
344,192,30683,1,0
440,192,31124,1,0
64,96,31566,6,0,B|192:216,2,150
168,96,32889,1,0
240,96,33330,1,0
312,96,33771,1,0
384,96,34213,1,0
384,168,34654,1,0
256,192,35205,12,0,37176
40,224,38183,5,0
96,272,38624,1,0
160,312,39066,1,0
232,320,39507,1,0
208,40,39948,5,0
272,48,40389,1,0
336,88,40830,1,0
384,136,41271,1,0
88,120,41713,6,0,B|208:216,2,150
192,112,43036,1,0
272,112,43477,1,0
352,112,43919,1,0
432,112,44360,1,0
72,192,45242,5,0
120,240,45683,1,0
184,264,46124,1,0
248,272,46566,1,0
96,112,47117,5,0
152,200,47338,1,0
208,232,47448,1,0
320,232,47669,1,0
312,128,48110,1,0
272,80,48330,1,0
144,56,48771,1,0
64,128,49764,5,0
96,184,49985,1,0
152,240,50205,1,0
224,248,50426,1,0
296,248,50646,1,0
352,192,50867,1,0
368,128,51088,5,0
168,120,51308,1,0
240,120,51639,1,0
304,120,51860,1,0
80,208,52411,5,0
152,256,52742,1,0
216,264,53183,1,0
280,264,53624,1,0
336,208,54176,1,0
336,144,54617,1,0
272,144,55058,1,0
208,144,55499,1,0
136,248,55941,6,0,B|256:296,3,112.5
152,176,57264,1,0
184,104,57595,2,0,B|304:144,2,112.5
96,104,58477,1,0
32,104,58919,1,0
