osu file format v9

[General]
AudioFilename: Mawaru Penguindrum ED 2 - Grey Wedbesday- Triple H.mp3
AudioLeadIn: 3000
PreviewTime: -1
Countdown: 0
SampleSet: Normal
StackLeniency: 0.7
Mode: 0
LetterboxInBreaks: 1

[Editor]
Bookmarks: 2819,6542,10045,15301,17053,20556,23950,27564,30958,34571,38075,41469,44972,48476,51980,55483,58987,62491
DistanceSpacing: 0.8
BeatDivisor: 6
GridSize: 8

[Metadata]
Title:Gray Wednesday (TV Size)
Artist:Triple-H
Creator:DarkEmerl
Version:Easy
Source:Mawaru Penguin Drum
Tags:himari hibari hikari princess of crystal anime opening summer 2011 spinning penguindrum

[Difficulty]
HPDrainRate:3
CircleSize:4
OverallDifficulty:4
ApproachRate:4
SliderMultiplier:1.5
SliderTickRate:1

[Events]
//Background and Video events
0,0,"640px-Edhimari2.jpg"
//Break Periods
2,16600,22746
//Storyboard Layer 0 (Background)
//Storyboard Layer 1 (Fail)
//Storyboard Layer 2 (Pass)
//Storyboard Layer 3 (Foreground)
//Storyboard Sound Samples
//Background Colour Transformations
3,100,163,162,255

[TimingPoints]
8294,441.176470588235,4,1,0,100,1,0

[Colours]
Combo1 : 255,0,128
Combo2 : 255,128,0
Combo3 : 0,0,255

[HitObjects]
56,112,2929,2,0,B|368:48,2,300
256,192,5556,1,8
144,328,6432,2,0,B|456:280,2,300
72,272,9066,1,8
72,184,9507,1,0
72,96,9948,1,8
336,56,10830,5,0
384,120,11382,1,8
432,192,11823,2,0,B|200:272,2,240
400,128,13532,1,8
232,104,14305,5,0
152,112,14856,1,8
176,176,15297,2,0,B|24:216,2,150
176,176,16400,1,8
104,104,24066,6,0,B|432:104,2,330
104,104,26713,1,8
424,288,27540,6,0,B|104:296,2,300
424,288,29856,1,8
168,136,30959,6,0,B|0:152,2,150
256,120,32282,1,8
352,112,32724,2,0,B|488:96,2,120
256,192,34488,12,0,36897
64,88,38073,5,0
176,88,38514,1,8
288,88,38955,1,0
392,88,39396,1,0
64,208,39727,5,0
176,216,40169,1,0
288,216,40610,1,0
392,216,41051,1,0
64,104,41492,5,0
184,104,41933,1,0
288,104,42319,1,0
392,104,42760,1,0
256,192,43643,12,0,44738
88,104,45187,6,0,B|368:88,2,270
88,104,47503,1,0
96,248,48496,2,0,B|408:200,2,300
96,248,50867,1,0
288,80,51970,6,0,B|464:40,2,180
208,112,53294,1,0
312,208,53735,6,0,B|480:184,2,150
232,224,55058,1,0
256,192,57319,12,0,58961
80,96,59415,5,0
184,96,59856,1,0
296,96,60297,1,0
80,216,60738,5,0
192,224,61180,1,0
304,224,61621,1,0
400,224,62062,1,0
256,192,64378,12,0,66020
