osu file format v9

[General]
AudioFilename: Triple Bounce - Magic Melody (Nightcore Mix).mp3
AudioLeadIn: 1500
PreviewTime: 26490
Countdown: 0
SampleSet: Soft
StackLeniency: 0.7
Mode: 0
LetterboxInBreaks: 0

[Editor]
DistanceSpacing: 0.9
BeatDivisor: 4
GridSize: 4

[Metadata]
Title:Magic Melody (Nightcore Mix)
Artist:Triple Bounce
Creator:Tony
Version:Normal
Source:Nightcore III
Tags:wcx19911123 BounceBabe

[Difficulty]
HPDrainRate:3
CircleSize:4
OverallDifficulty:3
ApproachRate:4
SliderMultiplier:1.2
SliderTickRate:2

[Events]
//Background and Video events
0,0,"bg.jpg"
//Break Periods
2,24588,25992
2,80124,87373
2,112275,113679
//Storyboard Layer 0 (Background)
//Storyboard Layer 1 (Fail)
//Storyboard Layer 2 (Pass)
//Storyboard Layer 3 (Foreground)
//Storyboard Sound Samples
//Background Colour Transformations
3,100,163,162,255

[TimingPoints]
1006,365.363536719035,4,2,0,70,1,0
65309,-100,4,2,0,60,0,0
66771,-100,4,2,0,70,0,1
79924,-100,4,2,0,70,0,0
148612,-100,4,2,0,50,0,0
151535,-100,4,2,0,5,0,0

[Colours]
Combo1 : 255,150,0
Combo2 : 5,5,240
Combo3 : 240,5,5

[HitObjects]
356,84,1006,2,0,B|416:56|472:84,2,120,4|0|2
416,160,2102,1,0
472,240,2467,2,0,B|412:268|356:240,2,120,2|0|2
416,160,3563,1,0
320,160,3928,2,0,B|224:160,1,90,2|0
120,304,5390,6,0,B|96:176,1,120,2|0
156,112,6121,2,0,B|180:240,1,120,2|2
268,196,6851,5,4
300,104,7217,1,0
356,180,7582,2,0,B|416:72,1,120,2|0
452,164,8313,1,2
404,248,8678,1,0
460,328,9043,2,0,B|400:356|344:328,1,120,2|0
252,300,9774,2,0,B|164:300,1,90,2|0
356,56,11236,6,0,B|292:44|292:44|240:56,1,120,2|0
304,128,11966,2,0,B|240:140|240:140|188:128,1,120,2|2
108,180,12697,6,0,B|208:260|336:216,1,240,4|2
476,344,14159,2,0,B|376:264|247:307,1,240,0|2
104,304,15437,1,0
104,304,15620,1,2
212,208,16168,1,0
212,208,16351,1,2
324,120,16899,1,0
324,120,17081,1,2
136,152,17812,2,0,B|44:76,1,120,2|2
140,56,18543,6,0,B|189:39|256:72|256:72|289:138|272:188,1,240,4|2
84,220,20004,2,0,B|67:269|100:336|100:336|166:369|216:352,1,240,0|2
324,256,21283,1,0
324,256,21466,1,2
440,172,22014,1,0
440,172,22197,1,2
360,52,22745,1,0
360,52,22927,1,2
208,172,23658,6,0,B|144:172,4,60,2|0|0|0|6
148,120,27312,6,0,B|183:83|256:48|328:83|364:120,2,240,2|0|2
84,192,29138,2,0,B|208:192,2,120,0|2|0
148,264,30235,2,0,B|183:300|256:336|328:300|364:264,2,240,2|0|2
52,268,32061,1,0
48,172,32427,2,0,B|24:112|52:56,1,120,2|0
119,119,33157,6,0,B|197:48|261:107|339:35,1,240,2|0
348,132,34254,1,0
424,188,34619,2,0,B|346:259|282:200|204:272,2,240,2|0|2
348,132,36446,1,0
348,132,36811,2,0,B|232:172,1,120,2|0
131,203,37542,2,0,B|131:261|73:261|15:261|15:203|15:145|73:145,1,240,2|0
72,36,38638,1,0
256,192,39003,8,4,41926
256,192,42657,5,8
80,72,43388,2,0,B|36:124|52:208,1,120
52,292,44118,2,0,B|104:336|188:320,1,120,8|0
264,280,44849,5,2
356,224,45214,1,0
264,168,45580,1,8
348,100,45945,1,0
264,168,46311,2,0,B|144:168,1,120
64,96,47041,2,0,B|184:96,1,120,8|0
280,44,47772,5,4
280,44,48137,1,0
376,92,48503,1,8
376,92,48868,1,0
396,200,49233,2,0,B|404:320,1,120
308,268,49964,2,0,B|176:268,1,120,8|0
136,176,50695,5,4
100,76,51060,1,0
208,96,51426,1,8
136,176,51791,1,0
116,284,52156,2,0,B|232:312,1,120
336,284,52887,2,0,B|452:312,1,120,8|0
256,192,53618,8,4,55079
116,264,55810,5,8
256,100,56541,2,0,B|172:16,2,120,0|0|8
360,68,57637,1,0
308,164,58002,6,0,B|392:248,2,120,2|0|8
224,232,59098,1,0
224,232,59464,2,0,B|308:316,2,120,0|0|8
148,156,60560,1,0
228,84,60925,6,0,B|296:76|332:32,1,120,4|0
340,140,61656,2,0,B|408:148|444:192,1,120,8|0
348,240,62387,2,0,B|280:248|244:292,1,120
200,192,63117,2,0,B|76:192,1,120,8|0
104,88,63848,5,2
208,64,64213,2,0,B|280:48,2,60,0|0|8
288,136,64944,2,0,B|360:120,2,60,0|0|4
316,240,65675,1,4
232,308,66040,1,4
148,240,66406,1,4
180,136,66771,5,2
376,44,67502,1,0
400,148,67867,1,0
464,236,68232,1,8
268,328,68963,2,0,B|208:336|152:308,1,120
44,316,69694,6,0,B|36:184|156:120,1,240,8|0
256,76,70790,1,0
356,120,71155,2,0,B|476:184|468:316,1,240,8|0
380,252,72251,1,0
380,252,72617,6,0,B|148:316,1,240,8|0
60,252,73713,1,0
60,252,74078,2,0,B|290:184,1,240,8|0
392,152,75174,1,0
316,76,75540,6,0,B|432:40,2,120,8|0|0
212,112,76636,2,0,B|96:148,2,120,0|8|0
120,52,77732,1,0
120,52,78097,1,0
256,192,78463,12,4,79924
256,192,88693,6,0,B|256:68,1,120,2|0
164,128,89423,2,0,B|68:32,1,120,2|0
32,140,90154,2,0,B|65:255,1,120,2|0
124,344,90885,2,0,B|157:228,1,120,2|0
244,284,91616,2,0,B|344:264,1,90,2|0
344,64,93077,6,0,B|288:88,1,60,2|0
236,76,93442,2,0,B|176:100,1,60
128,80,93808,2,0,B|43:127|70:236,1,180,2|0
116,268,94539,5,4
200,200,94904,2,0,B|312:140,2,120,0|8|0
268,284,96000,2,0,B|156:344,2,120,0|0|8
368,240,97096,1,0
456,176,97461,5,2
256,96,98192,1,8
56,176,98923,2,0,B|56:288,1,90
156,176,99654,1,2
324,40,100384,6,0,B|224:120|96:76,1,240,4|2
224,252,101846,2,0,B|324:172|453:215,1,240,0|2
336,328,103125,1,0
336,328,103307,1,2
176,332,103855,1,0
176,332,104038,1,2
64,216,104586,1,0
64,216,104769,1,2
280,188,105499,2,0,B|372:112,1,120,2|2
272,68,106230,6,0,B|223:51|156:84|156:84|123:150|140:200,1,240,4|2
344,276,107692,2,0,B|293:293|227:260|227:260|194:193|211:144,1,240,0|2
156,296,108970,1,0
156,296,109153,1,2
32,192,109701,1,0
32,192,109884,1,2
120,56,110432,1,0
120,56,110615,1,2
288,192,111345,6,0,B|352:192,4,60,2|0|0|0|6
140,80,114999,6,0,B|256:148|368:80,1,240,2|0
372,296,116460,2,0,B|256:364|144:296,1,240,2|0
344,192,117922,2,0,B|272:184|272:184|176:200|176:200|104:192,2,240,2|0|2
452,192,119749,1,0
412,92,120114,1,2
308,72,120479,1,0
200,72,120845,6,0,B|96:92|96:92|32:144|72:212,1,240,4|0
256,320,122306,2,0,B|360:300|360:300|424:248|384:180,1,240,2|0
180,248,123768,2,0,B|352:80,2,240,2|0|2
80,292,125594,1,0
44,192,125960,1,2
80,92,126325,1,0
176,144,126691,6,0,B|292:64,1,120,4|8
296,180,127421,2,0,B|412:100,1,120,0|8
400,220,128152,2,0,B|284:300,1,120,0|8
193,288,128883,2,0,B|77:208,1,120,0|8
56,120,129613,5,2
56,120,129979,1,8
128,40,130344,1,0
128,40,130710,1,8
228,84,131075,2,0,B|348:84,1,120,0|8
276,164,131806,2,0,B|396:164,1,120,0|8
376,272,132536,5,4
376,272,132902,1,8
268,288,133267,1,0
268,288,133632,1,8
176,232,133998,2,0,B|184:352,1,120,0|8
80,320,134729,2,0,B|72:200,1,120,0|8
48,96,135459,5,2
148,56,135825,1,8
252,88,136190,1,0
356,56,136555,1,8
392,160,136921,2,0,B|276:188,1,120,0|8
196,264,137651,2,0,B|312:292,1,120,0|8
256,192,138382,8,4,139844
356,60,140574,5,0
380,164,140940,1,0
464,232,141305,1,8
268,328,142036,2,0,B|208:336|152:308,1,120
44,316,142767,6,0,B|36:184|156:120,1,240,8|0
256,76,143863,1,0
356,120,144228,2,0,B|476:184|468:316,1,240,8|0
380,252,145324,1,0
380,252,145689,6,0,B|148:316,1,240,8|0
60,252,146786,1,0
60,252,147151,2,0,B|290:184,1,240,8|0
392,152,148247,1,0
316,76,148612,6,0,B|432:40,2,120,2|0|0
216,112,149708,1,0
256,192,150074,12,0,151535
