osu file format v9

[General]
AudioFilename: Triple Bounce - Magic Melody (Nightcore Mix).mp3
AudioLeadIn: 1500
PreviewTime: 26490
Countdown: 0
SampleSet: Soft
StackLeniency: 0.7
Mode: 0
LetterboxInBreaks: 0

[Editor]
DistanceSpacing: 0.9
BeatDivisor: 4
GridSize: 4

[Metadata]
Title:Magic Melody (Nightcore Mix)
Artist:Triple Bounce
Creator:Tony
Version:Easy
Source:Nightcore III
Tags:wcx19911123 BounceBabe

[Difficulty]
HPDrainRate:2
CircleSize:3
OverallDifficulty:2
ApproachRate:3
SliderMultiplier:1.1
SliderTickRate:2

[Events]
//Background and Video events
0,0,"bg.jpg"
//Break Periods
2,24588,25872
2,80124,87253
2,112276,113559
//Storyboard Layer 0 (Background)
//Storyboard Layer 1 (Fail)
//Storyboard Layer 2 (Pass)
//Storyboard Layer 3 (Foreground)
//Storyboard Sound Samples
//Background Colour Transformations
3,100,163,162,255

[TimingPoints]
1006,365.363536719035,4,2,0,70,1,0
66771,-100,4,2,0,70,0,1
79924,-100,4,2,0,70,0,0
148612,-100,4,2,0,50,0,0

[Colours]
Combo1 : 255,150,0
Combo2 : 5,5,240
Combo3 : 240,5,5

[HitObjects]
336,120,1006,2,0,B|260:68|180:120,2,165,6|0|0
264,188,2467,2,0,B|340:240|420:188,2,165,2|0|0
196,260,3928,2,0,B|136:168,1,110,2|0
396,56,5390,5,2
460,132,5755,1,0
464,232,6121,2,0,B|388:316,1,110,2|2
292,332,6851,6,0,B|212:296|232:272|160:236,2,165,6|0|0
324,236,8313,2,0,B|251:199|271:175|191:139,2,165,2|0|0
328,136,9774,2,0,B|384:40,1,110,2|2
80,80,11236,5,2
48,172,11601,1,0
144,144,11966,2,0,B|240:212,1,110,2|2
324,168,12697,6,0,B|350:211|328:286|257:321|210:302,2,220,4|0|2
316,68,14524,1,0
412,84,14889,1,0
444,284,15620,5,2
244,288,16351,1,0
104,148,17081,1,2
288,72,17812,2,0,B|348:72|396:104,1,110,2|2
372,200,18543,6,0,B|419:219|490:184|512:109|486:66,2,220,6|0|2
272,200,20370,1,0
184,156,20735,1,0
92,332,21466,5,2
52,140,22197,1,0
240,80,22927,2,0,B|352:64,1,110,2|0
348,164,23658,2,0,B|460:148,2,110,2|2|4
204,300,27312,6,0,B|92:240|88:124,1,220,2|0
272,48,28773,2,0,B|384:108|388:224,1,220,2|0
208,140,30235,2,0,B|336:320,2,220,2|0|2
392,68,32427,5,2
472,124,32792,1,0
396,188,33157,2,0,B|464:236|460:312|384:352|324:288,2,220,2|0|2
244,60,35350,5,2
148,48,35715,1,0
88,128,36080,2,0,B|48:152|24:216|24:216|48:280|88:304,1,220,2|0
136,216,37176,1,0
184,304,37542,2,0,B|223:280|247:216|247:216|223:152|183:128,1,220,2|0
256,192,39003,12,4,41926
256,192,42657,5,8
136,40,43388,2,0,B|20:40,2,110,0|0|8
236,40,44484,1,0
336,40,44849,6,0,B|376:64|400:128|400:128|376:192|336:216,2,220,4|8|0
292,128,46676,2,0,B|180:128,2,110,0|8|0
240,212,47772,6,0,B|172:312,1,110,4|0
80,300,48503,2,0,B|148:200,2,110,8|0|0
48,208,49599,1,0
100,124,49964,1,8
152,40,50330,1,0
212,120,50695,6,0,B|216:69|278:22|356:35|382:78,2,220,4|8|0
308,136,52522,2,0,B|352:248,2,110,0|8|0
256,192,53618,12,4,55079
256,192,55810,5,8
60,172,56541,2,0,B|104:72,2,110,0|0|8
146,224,57637,1,0
146,324,58002,6,0,B|366:324,1,220,4|8
416,132,59464,2,0,B|304:132,1,110
208,132,60194,2,0,B|96:132,1,110,8|0
32,208,60925,6,0,B|32:254|76:307|76:307|143:318|184:296,1,220,4|8
380,312,62387,2,0,B|379:265|335:212|335:212|268:201|228:223,1,220,0|8
32,168,63848,6,0,B|119:107|119:107|232:81,2,220,4|8|4
116,224,65675,2,0,B|132:276|132:276|176:320,2,110,4|4|4
216,232,66771,5,2
348,84,67502,2,0,B|456:60,2,110,0|0|8
404,276,68963,1,0
312,312,69328,1,0
216,280,69694,6,0,B|216:233|260:180|260:180|327:169|368:192,2,220,4|8|0
160,92,71886,2,0,B|276:44,1,110,2|0
360,60,72617,6,0,B|480:112|468:232,2,220,4|8|0
232,212,74809,1,2
136,180,75174,1,0
76,100,75540,6,0,B|140:84|140:84|216:56|216:56|288:44,3,220,4|8|0|8
388,44,78097,1,0
256,192,78463,12,4,79924
344,232,88693,6,0,B|344:116,1,110,2|0
256,168,89423,2,0,B|256:52,1,110,2|0
157,58,90154,2,0,B|157:174,1,110,2|0
208,252,90885,1,2
208,252,91250,1,0
280,320,91616,2,0,B|392:320,1,110,2|2
152,76,93077,5,2
352,80,93808,1,0
256,252,94539,2,0,B|256:136,2,110,2|0|2
156,252,95635,1,0
56,252,96000,1,2
80,156,96365,1,0
104,60,96731,2,0,B|220:60,1,110,2|0
312,60,97461,5,2
384,128,97827,2,0,B|432:160|504:148,1,110,0|2
432,232,98558,2,0,B|384:264|312:252,1,110,0|2
132,280,99654,1,2
152,84,100384,6,0,B|203:118|255:84|255:84|306:49|358:84,2,220,4|0|2
56,116,102211,1,0
136,176,102577,1,0
292,296,103307,6,0,B|240:330|188:296|188:296|137:261|85:296,1,220,2|0
244,176,104769,2,0,B|295:210|347:176|347:176|398:141|450:176,1,220,2|2
468,80,105865,1,2
368,80,106230,6,0,B|346:33|272:10|203:49|193:98,1,220,4|0
104,144,107326,1,2
24,200,107692,2,0,B|45:246|119:269|188:230|198:181,1,220
80,340,109153,6,0,B|300:316,1,220,2|0
428,168,110615,2,0,B|320:184,1,110,2|0
220,196,111345,2,0,B|112:212,1,110,2|2
148,120,112076,1,4
352,80,114999,5,4
160,80,115730,1,0
256,256,116460,1,2
256,64,117191,5,0
352,240,117922,1,2
160,240,118653,1,0
352,240,119383,2,0,B|484:240,2,110,2|0|2
408,156,120479,1,2
328,100,120845,6,0,B|288:77|221:88|221:88|177:141|177:188,2,220,4|0|2
260,284,123037,1,0
160,284,123402,1,0
68,252,123768,2,0,B|12:136|104:52,1,220,2|0
256,180,125229,2,0,B|372:124|456:216,1,220,2|0
356,44,126691,6,0,B|244:44,1,110,4|8
164,100,127421,2,0,B|52:100,1,110,0|8
104,184,128152,1,0
104,284,128517,1,8
188,236,128883,2,0,B|300:236,1,110,0|8
332,144,129613,6,0,B|372:168|396:232|396:232|372:296|332:320,2,220,4|8|0
256,80,131440,2,0,B|144:80,2,110,8|0|8
196,160,132536,6,0,B|128:260,1,110,4|8
212,312,133267,2,0,B|280:212,2,110,0|8|0
312,320,134363,1,8
380,248,134729,1,0
380,148,135094,1,8
476,128,135459,6,0,B|472:77|410:30|332:43|306:86,2,220,4|8|0
380,148,137286,2,0,B|424:260,2,110,8|0|8
256,192,138382,12,4,139844
256,192,140574,6,0,B|256:72,2,110,0|8|0
72,268,142036,1,0
160,316,142401,1,8
260,328,142767,6,0,B|392:324|424:208,2,220,4|8|0
160,316,144593,1,8
72,268,144959,2,0,B|88:156,1,110,0|8
124,68,145689,6,0,B|256:72|288:188,2,220,4|8|0
320,44,147882,1,0
400,104,148247,1,8
444,192,148612,2,0,B|412:307|280:311,2,220,2|0|2
