osu file format v9

[General]
AudioFilename: Triple Bounce - Magic Melody (Nightcore Mix).mp3
AudioLeadIn: 1500
PreviewTime: 26490
Countdown: 0
SampleSet: Soft
StackLeniency: 0.7
Mode: 0
LetterboxInBreaks: 0

[Editor]
DistanceSpacing: 1.2
BeatDivisor: 4
GridSize: 4

[Metadata]
Title:Magic Melody (Nightcore Mix)
Artist:Triple Bounce
Creator:Tony
Version:Insane
Source:Nightcore III
Tags:wcx19911123 BounceBabe

[Difficulty]
HPDrainRate:7
CircleSize:4
OverallDifficulty:8
ApproachRate:8
SliderMultiplier:2
SliderTickRate:2

[Events]
//Background and Video events
0,0,"bg.jpg"
//Break Periods
2,24589,25828
2,80124,82095
2,112276,113518
//Storyboard Layer 0 (Background)
//Storyboard Layer 1 (Fail)
//Storyboard Layer 2 (Pass)
//Storyboard Layer 3 (Foreground)
//Storyboard Sound Samples
//Background Colour Transformations
3,100,163,162,255

[TimingPoints]
1006,365.363536719035,4,2,0,70,1,0
13976,-125,4,2,0,70,0,0
14889,-100,4,2,0,70,0,0
19802,-125,4,2,0,70,0,0
20735,-100,4,2,0,70,0,0
26581,-133.333333333333,4,2,0,70,0,0
38273,-100,4,2,0,70,0,0
66771,-100,4,2,0,70,0,1
78463,-100,4,2,0,40,0,1
78828,-100,4,2,0,50,0,1
79193,-100,4,2,0,60,0,1
79559,-100,4,2,0,65,0,1
79924,-100,4,2,0,70,0,0
101663,-125,4,2,0,70,0,0
102577,-100,4,2,0,70,0,0
107509,-125,4,2,0,70,0,0
108422,-100,4,2,0,70,0,0
148612,-100,4,2,0,50,0,0
150805,-100,4,2,0,20,0,0
151535,-100,4,2,0,5,0,0

[Colours]
Combo1 : 255,150,0
Combo2 : 5,5,240
Combo3 : 240,5,5

[HitObjects]
108,192,1006,2,0,B|208:192,1,100,6|0
224,72,1371,2,0,B|324:72,1,100
344,188,1736,1,2
284,292,1919,1,0
404,292,2102,1,0
344,188,2284,1,0
284,292,2467,1,2
44,292,2832,5,0
284,292,3198,1,2
168,80,3563,1,0
408,72,3928,1,2
408,72,4020,1,0
288,76,4202,1,0
208,272,5390,6,0,B|256:292|304:272,1,100,2|0
304,152,5755,2,0,B|256:132|208:152,1,100
104,216,6121,1,2
104,336,6303,1,0
104,336,6395,1,0
104,336,6486,1,2
68,104,6851,6,0,B|140:36,1,100,4|0
176,152,7217,2,0,B|248:84,1,100
320,180,7582,2,0,B|248:248,2,100,2|0|0
408,96,8130,1,0
444,212,8313,5,2
276,40,8678,1,0
444,212,9043,1,2
408,96,9226,1,0
408,96,9318,1,0
408,96,9409,1,2
180,164,9774,2,0,B|280:276,1,150,2|0
92,272,11236,6,0,B|104:320|168:324,1,100
343,324,11601,2,0,B|408:320|420:272,1,100
256,192,11966,1,2
256,192,12149,1,0
256,192,12240,1,0
256,192,12332,1,2
52,160,12697,6,2,B|27:317|71:378|154:364|140:281|140:281|215:320|223:267,1,400,6|2
464,160,13793,1,2
464,160,13976,2,2,B|488:317|444:378|361:364|375:281|375:281|300:320|292:267,1,400
68,88,15437,5,0
116,52,15529,1,0
176,56,15620,1,2
436,300,16168,1,0
388,336,16259,1,0
328,336,16351,1,2
436,64,16899,5,0
384,96,16990,1,0
332,128,17081,1,2
32,328,17630,1,0
124,254,17812,1,2
228,192,17995,1,2
124,254,18178,1,2
293,271,18543,6,2,B|301:324|376:285|376:285|362:369|446:383|491:321|465:162,1,400,6|2
221,271,19639,1,2
220,271,19822,2,2,B|210:324|135:285|135:285|149:369|65:383|20:321|46:162,1,400
432,68,21283,6,0,B|396:104,2,50,0|0|2
72,68,22014,2,0,B|108:104,2,50,0|0|2
256,328,22745,5,0
256,308,22836,1,0
256,288,22927,1,2
256,268,23019,1,0
256,248,23110,1,0
256,228,23201,1,0
256,208,23293,1,2
256,188,23384,1,0
256,168,23475,2,0,B|213:125,3,50,0|0|2|0
256,168,23841,2,0,B|294:129,5,50,2|0|2|0|2|0
256,84,24389,5,4
56,192,26581,6,0,B|48:116,1,75,2|0
124,120,26946,2,0,B|116:44,1,75
188,64,27312,2,0,B|235:39|259:64|283:87|331:64,1,150,2|0
184,272,28042,1,2
256,296,28225,1,0
328,272,28408,1,0
296,204,28590,1,0
256,140,28773,1,2
256,140,29138,1,0
404,160,29504,6,0,B|460:216,1,75,2|0
404,160,29869,1,0
256,140,30235,2,0,B|208:163|184:140|160:116|112:140,1,150,2|0
52,188,30783,1,0
116,228,30965,2,0,B|165:203|189:227|213:250|260:226,1,150,2|0
256,300,31513,1,0
180,304,31696,1,2
328,296,32061,1,2
376,236,32244,6,0,B|440:196,1,75,0|2
488,140,32609,2,0,B|424:100,1,75
348,96,32975,1,0
348,96,33157,2,0,B|330:61|287:43|243:61|226:96,1,150,2|0
284,144,33706,1,0
284,220,33888,1,2
216,184,34071,1,0
140,184,34254,1,0
140,184,34436,1,0
64,184,34619,2,0,B|52:100|132:60,1,150,2|0
140,312,35350,6,0,B|212:292,1,75,2|0
372,312,35715,2,0,B|299:291,1,75
316,220,36080,2,0,B|298:185|255:167|211:185|194:220,1,150,2|0
168,148,36628,1,0
196,76,36811,2,0,B|213:110|256:128|300:110|317:76,1,150,2|0
256,36,37359,1,0
256,36,37542,1,2
384,116,37907,1,0
256,192,38273,1,2
128,116,38638,1,0
256,192,39003,12,4,41926
256,104,42292,5,8
132,308,42657,1,0
372,308,43022,1,8
384,68,43388,1,2
316,168,43570,1,0
256,272,43753,1,8
196,168,43936,1,0
128,68,44118,1,2
256,272,44484,1,8
384,68,44849,6,0,B|319:100|287:68|255:36|191:68,1,200,2|8
84,124,45397,1,0
196,168,45580,2,0,B|260:135|292:167|324:199|388:167,1,200,2|8
472,256,46128,1,0
360,296,46311,1,2
256,236,46493,1,0
256,356,46676,1,8
152,296,46859,1,0
40,256,47041,1,2
256,148,47407,1,8
468,36,47772,6,0,B|468:136,1,100,4|0
368,204,48137,1,8
160,88,48503,1,0
256,308,48868,1,8
36,204,49233,2,0,B|124:156,1,100
232,100,49599,2,0,B|320:52,1,100,8|0
412,128,49964,1,0
256,308,50330,1,8
460,240,50695,6,0,B|439:281|376:302|313:281|292:240,1,200,2|8
256,124,51243,1,0
219,239,51426,2,0,B|197:281|134:302|70:281|50:240,1,200,2|8
136,156,51974,1,0
168,40,52156,1,2
256,124,52339,1,0
344,40,52522,1,0
376,156,52704,1,0
316,260,52887,1,2
196,260,53070,1,0
256,364,53252,1,0
316,260,53435,1,0
256,192,53618,12,4,55079
256,300,55445,5,8
132,96,55810,1,0
372,96,56175,1,8
168,220,56541,2,0,B|236:136,1,100,2|0
312,232,56906,2,0,B|374:309,1,100,8|0
420,200,57271,2,0,B|480:172|504:92|440:28,1,200,2|8
256,141,58002,6,0,B|198:141|170:113|170:84|141:56|84:56,1,200,2|8
120,172,58550,1,0
8,212,58733,2,0,B|42:257|82:263|105:246|146:251|180:297,1,200,2|8
288,244,59281,1,0
288,244,59464,2,0,B|372:192,1,100,2|0
468,120,59829,2,0,B|384:68,1,100,8|0
268,104,60194,1,2
268,344,60560,1,8
60,220,60925,5,4
268,104,61290,1,8
136,304,61656,1,0
340,180,62021,1,8
120,88,62387,2,0,B|172:176,1,100,2|0
268,104,62752,1,8
384,68,62935,1,0
340,180,63117,2,0,B|380:196|420:260|380:324|340:340,1,200,2|8
36,264,63848,6,0,B|84:276|84:276|156:340|156:340|212:348,1,200,2|8
256,236,64396,1,0
302,347,64579,2,0,B|356:340|356:340|428:276|428:276|476:264,1,200,2|8
476,264,65127,1,0
464,144,65309,1,4
384,56,65492,1,0
280,116,65675,1,4
172,60,65858,1,0
120,168,66040,5,4
40,256,66223,2,0,B|40:356,2,100,0|4|0
120,168,66771,2,0,B|156:208|156:208|188:276|276:276,1,200,2|8
468,124,67502,1,0
408,228,67684,1,0
468,124,67867,1,8
352,88,68050,1,0
236,60,68232,2,0,B|36:60,1,200,2|8
164,264,68963,5,2
256,344,69146,1,0
348,264,69328,1,8
160,116,69694,2,0,B|225:148|257:116|289:84|353:116,1,200,2|8
464,156,70242,1,0
348,192,70425,2,0,B|284:159|252:191|220:223|156:191,1,200,2|8
64,112,70973,1,0
64,112,71155,2,0,B|64:216,1,100,2|0
164,280,71521,2,0,B|243:342,1,100,8|0
360,324,71886,5,2
384,208,72069,2,0,B|436:180|440:132,2,100,0|8|0
336,100,72617,2,0,B|320:60|256:20|192:60|176:100,1,200,2|8
128,208,73165,1,0
128,208,73347,2,0,B|76:180|72:132,2,100,2|0|8
128,208,73896,1,0
176,316,74078,2,0,B|192:356|256:396|320:356|336:316,1,200,2|8
256,144,74809,6,0,B|256:244,2,100,2|0|8
256,144,75357,1,0
348,104,75540,2,0,B|329:67|344:27|388:12|432:27|446:67|428:104,1,200,2|8
336,184,76088,1,0
428,260,76270,2,0,B|448:296|433:336|387:352|342:336|328:296|347:260,1,200,2|8
436,184,76818,1,0
348,104,77001,2,0,B|144:104,2,200,2|0|2
256,324,78097,1,0
56,192,78463,6,0,B|28:192,7,25
56,192,78828,2,0,B|84:192,7,25
56,192,79193,6,0,B|56:220,7,25
56,192,79559,2,0,B|56:164,7,25
56,192,79924,5,4
256,72,82847,5,4
256,312,83212,1,8
92,136,83578,1,2
196,196,83760,1,0
316,196,83943,1,8
420,136,84126,1,0
420,136,84308,1,2
92,136,84674,5,8
256,312,85039,1,2
420,136,85404,1,8
188,72,85770,1,2
188,72,85861,1,0
304,100,86044,1,0
452,268,87231,6,0,B|352:296,1,100
260,224,87597,2,0,B|160:252,1,100
72,328,87962,1,2
52,208,88145,1,0
44,148,88236,1,0
36,88,88327,1,2
276,76,88693,5,2
360,164,88875,1,2
444,76,89058,1,2
360,164,89241,1,2
360,164,89423,2,0,B|432:232,1,100,2|0
312,240,89789,2,0,B|384:308,1,100,2|0
276,360,90154,2,0,B|228:340|228:340|156:272|156:272|108:260,1,200,2|0
260,76,90885,5,2
148,120,91068,1,0
92,140,91159,1,0
36,160,91250,1,2
256,244,91616,2,0,B|116:300,1,150,2|0
256,244,93077,5,0
256,244,93260,1,0
256,124,93442,1,0
256,124,93625,1,0
156,188,93808,1,2
156,308,93991,2,0,B|96:308,2,50,0|0|2
256,244,94356,1,0
256,124,94539,5,2
376,124,94721,1,2
376,244,94904,1,2
256,244,95087,1,2
256,124,95269,5,2
136,124,95452,1,0
136,244,95635,1,2
256,244,95817,1,0
376,244,96000,5,2
256,36,96365,1,0
136,244,96731,1,2
256,36,97096,1,0
256,276,97461,5,2
188,176,97644,1,2
108,84,97827,1,2
188,176,98010,1,2
256,276,98192,5,2
324,176,98375,1,0
256,276,98558,1,2
324,176,98740,1,0
256,276,98923,2,0,B|256:128,1,150,2|0
464,344,99654,1,2
134,61,100384,6,2,B|61:82|31:173|76:264|176:282|254:228|255:152,1,400,6|2
376,62,101480,1,2
376,62,101663,2,2,B|449:83|479:174|434:265|334:283|256:229|255:153,1,400
84,336,103125,6,0,B|36:336,2,50,0|0|2
428,336,103855,2,0,B|476:336,2,50,0|0|2
256,80,104586,2,0,B|256:32,2,50,0|0|2
252,312,105317,1,0
168,228,105499,1,2
256,144,105682,1,0
340,228,105865,1,2
108,176,106230,6,2,B|52:125|61:30|142:-32|239:-7|288:75|256:143,1,400,6|2
184,324,107326,1,2
252,256,107509,2,2,B|274:328|364:359|455:313|474:214|419:135|344:135,1,400
52,344,108970,5,0
52,344,109062,1,0
52,344,109153,1,2
456,44,109701,1,0
456,44,109792,1,0
456,44,109884,1,2
124,184,110432,5,0
144,200,110523,1,0
168,208,110615,1,2
192,200,110706,1,0
212,184,110797,1,0
232,168,110889,1,0
256,160,110980,1,2
280,168,111071,1,0
300,184,111163,1,0
320,200,111254,1,0
344,208,111345,1,2
368,200,111437,1,0
388,184,111528,2,0,B|436:184,5,50,2|0|2|0|2|0
438,184,112076,5,4
64,60,114268,6,0,B|160:80,1,100,2|0
64,148,114634,2,0,B|160:168,1,100,0|0
256,240,114999,1,4
428,72,115364,1,0
328,288,115730,1,2
496,116,116095,1,0
328,288,116460,2,0,B|378:274|414:222|403:160|361:128,1,200,2|0
184,288,117191,2,0,B|133:274|97:222|108:160|150:128,1,200,2|0
328,288,117922,6,0,B|352:241|409:217|468:241|491:288,1,200,2|0
488,168,118470,1,0
492,48,118653,2,0,B|468:93|410:117|350:93|328:48,1,200,2|0
316,168,119201,1,0
196,168,119383,2,0,B|148:168,2,50,2|0|0
256,272,119749,2,0,B|256:320,2,50,2|0|0
256,152,120114,5,2
256,128,120205,1,0
256,104,120297,1,0
256,80,120388,1,0
256,56,120479,2,0,B|256:4,4,50,2|0|0|0|4
256,296,121210,5,0
256,296,121393,1,0
348,220,121575,1,2
440,144,121758,1,0
440,144,121941,1,0
348,220,122124,1,0
348,220,122306,2,0,B|260:172|232:64,1,200,2|0
28,192,123037,5,2
72,304,123220,1,0
116,192,123402,1,0
160,80,123585,1,0
204,192,123768,2,0,B|324:156|276:36,1,200,2|0
396,56,124316,1,0
472,148,124498,2,0,B|352:184|400:304,1,200,2|0
284,272,125046,1,0
176,320,125229,6,0,B|76:320,1,100,2|0
176,252,125594,2,0,B|76:252,1,100
176,184,125960,2,0,B|76:184,1,100,2|0
176,116,126325,2,0,B|76:116,1,100
176,48,126691,6,0,B|240:48|240:48|308:48|308:128|256:128,1,200,4|8
136,336,127421,2,0,B|72:336|72:336|4:336|4:256|56:256,1,200,2|8
256,128,128152,1,2
372,96,128335,1,0
256,128,128517,1,8
140,96,128700,1,0
256,128,128883,2,0,B|256:172|256:172|256:248|352:248|352:192,1,200,2|8
140,96,129613,6,0,B|108:161|140:193|172:225|140:289,1,200,4|8
260,304,130162,1,0
236,192,130344,2,0,B|172:159|140:191|108:223|44:191,1,200,2|8
44,312,130892,1,0
164,332,131075,2,0,B|260:304,1,100,2|0
372,256,131440,2,0,B|468:284,1,100,8|0
468,164,131806,1,2
256,56,132171,1,8
44,164,132536,6,0,B|124:224|124:224|176:212|216:184,1,200,4|8
468,164,133267,2,0,B|388:224|388:224|336:212|296:184,1,200,2|8
104,320,133998,1,2
224,320,134181,1,0
256,204,134363,1,8
292,320,134546,1,0
416,320,134729,1,2
256,140,135094,1,8
496,196,135459,6,0,B|474:149|415:125|358:149|334:196,1,200,6|8
256,288,136007,1,0
184,192,136190,2,0,B|162:239|103:263|46:239|22:192,1,200,2|8
108,108,136738,1,0
108,108,136921,2,0,B|208:108,1,100,2|0
292,192,137286,2,0,B|292:92,1,100,2|0
376,176,137651,2,0,B|476:176,1,100,2|0
388,256,138017,2,0,B|388:356,1,100,2|0
256,192,138382,12,4,139844
256,324,140209,5,8
160,104,140574,1,2
256,176,140757,1,0
352,104,140940,1,8
256,324,141305,1,2
256,324,141670,1,8
398,170,142036,6,0,B|469:241,1,100,2|0
360,288,142401,1,8
324,52,142767,2,0,B|259:82|227:52|195:19|131:52,1,200,2|8
28,108,143315,1,0
144,144,143497,2,0,B|206:110|238:141|271:173|336:141,1,200,2|8
284,252,144045,1,0
164,256,144228,1,2
404,240,144593,1,8
368,356,144776,6,0,B|451:303,1,100,0|2
452,180,145141,2,0,B|368:127,1,100,0|8
272,56,145507,1,0
256,176,145689,2,0,B|209:200|185:257|209:316|256:338,1,200,2|8
136,332,146238,1,0
40,260,146420,1,2
136,188,146603,1,0
40,116,146786,1,8
136,188,146968,1,0
184,76,147151,2,0,B|217:36|280:28|329:66|340:117,1,200,2|8
472,320,147882,6,0,B|384:272,1,100,2|0
496,228,148247,1,8
384,180,148430,1,0
464,88,148612,2,0,B|443:47|380:26|317:47|296:88,1,200,2|0
256,204,149160,1,0
340,292,149343,2,0,B|318:334|255:355|191:334|171:293,1,200,2|0
92,204,149891,1,0
92,204,150074,1,2
256,192,150257,12,0,151535
