osu file format v9

[General]
AudioFilename: Seitokai Yakuindomo op.mp3
AudioLeadIn: 1000
PreviewTime: 45116
Countdown: 0
SampleSet: Normal
StackLeniency: 0.7
Mode: 0
LetterboxInBreaks: 0

[Editor]
DistanceSpacing: 1
BeatDivisor: 2
GridSize: 8

[Metadata]
Title:Yamato Nadeshiko Education (TV Size)
Artist:Triple Booking
Creator:Weezy
Version:Easy
Source:Seitokai Yakuindomo
Tags:Saten-san opening Hikasa Youko Satou Satomi Yahagi Sayori

[Difficulty]
HPDrainRate:2
CircleSize:3
OverallDifficulty:2
ApproachRate:2
SliderMultiplier:0.7
SliderTickRate:1

[Events]
//Background and Video events
0,0,"BG.png"
Video,961,"out2.avi"
//Break Periods
2,19506,20538
//Storyboard Layer 0 (Background)
//Storyboard Layer 1 (Fail)
//Storyboard Layer 2 (Pass)
//Storyboard Layer 3 (Foreground)
//Storyboard Sound Samples
//Background Colour Transformations
3,100,163,162,255

[TimingPoints]
1168,348.837209302326,4,1,0,50,1,0
45819,-100,4,1,0,50,0,1
56284,-100,4,1,0,50,0,0
56981,-100,4,1,0,50,0,1
70935,-100,4,1,0,50,0,0

[Colours]
Combo1 : 236,23,23
Combo2 : 248,145,52
Combo3 : 254,243,107

[HitObjects]
128,192,1168,1,2
264,192,1865,1,0
408,192,2563,2,0,B|392:112|280:96,1,140,2|4
168,104,3958,5,2
24,104,4656,1,0
96,224,5354,1,2
232,224,6051,1,4
256,192,6749,12,0,9016
256,192,10935,5,0
400,192,11633,1,2
400,56,12330,2,0,B|232:56,1,140,0|2
120,56,13726,5,0
120,200,14423,1,2
264,200,15121,2,0,B|328:224|336:312,1,140,0|0
128,304,16865,6,0,B|40:304,1,70,2|2
56,160,17912,1,0
192,160,18609,2,0,B|192:80|272:48,1,140,2|0
256,192,22098,5,0
400,192,22795,1,2
400,336,23493,2,0,B|256:336,1,140
112,336,24888,5,0
112,192,25586,1,2
256,192,26284,2,0,B|328:152|328:80,1,140,0|0
112,72,28028,6,0,B|16:72,1,70,2|2
40,208,29074,1,0
184,208,29772,2,0,B|184:352,1,140,0|4
48,192,32563,5,0
192,192,33261,1,0
328,192,33958,2,2,B|416:192|416:280,1,140
280,264,35354,1,0
152,264,36051,6,0,B|-8:264,1,140,0|0
16,120,37447,2,0,B|184:120,1,140,0|4
296,120,38842,6,0,B|440:120|440:256,1,210,2|2
360,320,40412,2,2,B|280:352|280:240|192:256,1,175
256,192,41633,12,0,44423
80,168,45121,5,2
200,96,45819,1,4
336,96,46516,2,0,B|336:256,1,140,0|4
192,240,47912,5,0
56,240,48609,1,8
56,96,49307,1,8
200,96,50005,1,12
480,96,51400,6,0,B|480:248,1,140,0|8
336,232,52795,2,0,B|168:232,1,140,0|8
256,192,53842,12,0,55586
256,192,56284,6,0,B|424:192,1,140,2|2
400,48,57679,2,0,B|360:48|256:48,1,140,0|4
120,48,59074,5,0
120,192,59772,2,0,B|272:192,1,140,0|0
400,192,61168,1,4
400,328,61865,1,2
256,192,62563,12,0,64656
240,200,66051,5,8
384,200,66749,1,0
384,56,67447,1,8
248,56,68144,2,0,B|160:56|160:144,1,140,0|8
160,280,69540,2,0,B|256:280,2,70,0|0|4
16,280,70935,6,0,B|16:184|128:184,1,140,0|4
216,112,72330,1,0
304,216,73028,1,2
168,248,73726,5,4
