osu file format v12

[General]
AudioFilename: Triple Booking - Opening HanasakuSaikyou Legend Days (Tv Size).mp3
AudioLeadIn: 0
PreviewTime: 41490
Countdown: 0
SampleSet: Soft
StackLeniency: 0.5
Mode: 0
LetterboxInBreaks: 0
CountdownOffset: 3
WidescreenStoryboard: 0

[Editor]
DistanceSpacing: 0.8
BeatDivisor: 4
GridSize: 4
TimelineZoom: 1

[Metadata]
Title:HanasakuSaikyou Legend Days (Tv Size)
TitleUnicode:Hanasaku☆Saikyou Legend Days (Tv Size)
Artist:Triple Booking
ArtistUnicode:Triple Booking
Creator:kjounouchi
Version:Seitokai
Source:Seitokai Yakuindomo Season 2
Tags:
BeatmapID:361034
BeatmapSetID:145562

[Difficulty]
HPDrainRate:7
CircleSize:4
OverallDifficulty:7
ApproachRate:9
SliderMultiplier:1.3
SliderTickRate:2

[Events]
//Background and Video events
0,0,"Seitokai.Yakuindomo.full_.235490.jpg",0,0
//Break Periods
//Storyboard Layer 0 (Background)
//Storyboard Layer 1 (Fail)
//Storyboard Layer 2 (Pass)
//Storyboard Layer 3 (Foreground)
//Storyboard Sound Samples
//Background Colour Transformations
3,100,163,162,255

[TimingPoints]
146,389.61038961039,4,2,0,100,1,0
146,-50,4,2,0,5,0,0
535,-50,4,1,0,80,0,0
6379,-50,4,2,1,5,0,0
7938,-50,4,2,0,60,0,0
8718,-100,4,2,0,30,0,0
9448,389.61038961039,4,2,0,100,1,0
9448,-66.6666666666667,4,2,0,80,0,0
11006,-66.6666666666667,4,2,0,50,0,0
12564,-66.6666666666667,4,2,0,80,0,0
14123,-66.6666666666667,4,2,0,50,0,0
15681,-66.6666666666667,4,2,0,80,0,0
18798,-50,4,2,0,85,0,0
22110,-50,4,1,0,90,0,0
22499,-50,4,2,0,70,0,0
22889,-50,4,1,0,90,0,0
23279,-50,4,2,0,90,0,0
25032,-100,4,3,0,30,0,0
26590,-100,4,3,0,80,0,0
26980,-100,4,3,0,30,0,0
29073,389.61038961039,4,2,0,100,1,0
29073,-100,4,2,0,50,0,0
30436,389.61038961039,4,2,0,30,1,0
31605,-100,4,2,0,90,0,0
31995,-100,4,2,0,50,0,0
33163,-100,4,2,0,90,0,0
33552,-100,4,2,0,50,0,0
34526,-66.6666666666667,4,2,0,100,0,0
37448,-66.6666666666667,4,1,0,85,0,0
40516,389.61038961039,4,2,0,100,1,0
40516,-50,4,2,0,5,0,0
41490,389.61038961039,4,2,0,100,1,0
41490,-50,4,2,0,100,0,1
50843,-50,4,2,0,100,0,1
53960,-50,4,2,0,80,0,1
55226,-50,4,2,0,5,0,1
55470,389.61038961039,4,2,0,100,1,0
55470,-50,4,2,0,80,0,1
62677,-50,4,2,0,5,0,1
63262,-50,4,2,0,80,0,0
66963,-50,4,2,0,50,0,0
69106,-50,4,2,1,80,0,0
70275,-50,4,2,0,50,0,0
71638,-50,4,2,0,20,0,0
73392,-50,4,2,0,50,0,0
75145,-100,4,2,0,20,0,0
76508,-100,4,2,0,100,0,0
78262,-50,4,2,0,20,0,0
79625,-50,4,2,0,20,0,0
83716,-50,4,2,0,100,0,0

[HitObjects]
256,168,146,6,0,L|256:240,1,65,8|0,0:0|0:0,0:0:0:0:
256,40,536,1,8,0:0:0:0:
256,344,926,1,8,0:0:0:0:
392,88,1315,5,8,0:0:0:0:
120,296,1705,1,8,0:0:0:0:
392,296,2094,5,8,0:0:0:0:
120,88,2484,1,8,0:0:0:0:
256,128,2874,5,8,0:0:0:0:
256,192,3068,1,2,0:0:0:0:
256,256,3263,1,8,0:0:0:0:
256,192,3653,5,8,0:0:0:0:
344,96,4042,1,8,0:0:0:0:
440,192,4432,5,8,0:0:0:0:
352,296,4822,1,0,0:0:0:0:
256,192,5210,5,8,0:0:0:0:
168,96,5600,1,8,0:0:0:0:
72,192,5990,5,8,0:0:0:0:
144,296,6379,2,0,L|216:296,1,65,8|0,0:0|0:0,0:0:0:0:
328,128,6574,2,0,L|248:128,1,65
160,160,6769,2,0,L|160:240,1,65,8|0,0:0|0:0,0:0:0:0:
216,304,6964,2,0,L|288:328,1,65
320,344,7159,5,8,0:0:0:0:
352,336,7257,1,0,0:0:0:0:
384,320,7354,1,0,0:0:0:0:
408,296,7452,1,0,0:0:0:0:
432,272,7549,1,0,0:0:0:0:
448,240,7646,1,0,0:0:0:0:
448,208,7744,1,0,0:0:0:0:
128,192,7938,6,0,P|168:144|256:136,1,130,2|0,0:0|0:0,0:0:0:0:
237,287,8328,2,0,L|280:232,2,65,0|8|0,0:0|0:0|0:0,0:0:0:0:
416,96,8718,2,2,L|416:240,1,130
104,56,9448,5,8,0:0:0:0:
256,96,9642,1,0,0:0:0:0:
256,96,9740,1,8,0:0:0:0:
256,96,9837,1,0,0:0:0:0:
72,152,10032,2,0,P|56:208|80:240,1,97.50000371933
200,320,10422,1,0,0:0:0:0:
200,64,10616,1,8,0:0:0:0:
136,280,10811,1,0,0:0:0:0:
376,104,11006,6,0,L|440:216|440:216,1,97.50000371933,8|0,0:0|0:0,0:0:0:0:
136,280,11396,2,0,L|72:168|72:168,1,97.50000371933,8|0,0:0|0:0,0:0:0:0:
304,32,11785,2,0,L|200:96,1,97.50000371933,8|0,0:0|0:0,0:0:0:0:
208,352,12175,2,8,L|312:280,1,97.50000371933,8|0,0:0|0:0,0:0:0:0:
408,328,12564,5,0,0:0:0:0:
256,288,12759,1,0,0:0:0:0:
256,288,12857,1,8,0:0:0:0:
256,288,12954,1,0,0:0:0:0:
440,232,13149,2,0,P|456:176|440:136,1,97.50000371933
312,64,13538,1,0,0:0:0:0:
312,320,13732,1,8,0:0:0:0:
376,104,13927,1,0,0:0:0:0:
136,280,14123,6,0,L|72:168|72:168,1,97.50000371933,8|0,0:0|0:0,0:0:0:0:
376,104,14512,2,0,L|432:208|432:208,1,97.50000371933,8|0,0:0|0:0,0:0:0:0:
208,352,14902,2,0,L|312:288,1,97.50000371933,8|0,0:0|0:0,0:0:0:0:
304,32,15291,2,0,L|208:88,1,97.50000371933,8|8,0:0|0:0,0:0:0:0:
336,128,15681,6,0,L|448:216,1,97.50000371933,8|0,0:0|0:0,0:0:0:0:
440,304,16071,2,0,L|352:240,1,97.50000371933,8|8,0:0|0:0,0:0:0:0:
400,80,16460,1,0,0:0:0:0:
400,304,16655,1,0,0:0:0:0:
400,144,16850,2,0,L|400:280,1,97.50000371933,8|8,0:0|0:0,0:0:0:0:
256,304,17240,5,0,0:0:0:0:
256,88,17435,1,0,0:0:0:0:
152,192,17629,1,0,0:0:0:0:
360,192,17824,1,0,0:0:0:0:
256,88,18019,1,8,0:0:0:0:
256,192,18214,1,0,0:0:0:0:
256,304,18409,1,8,0:0:0:0:
112,312,18798,5,0,0:0:0:0:
112,96,18993,2,0,L|112:232,1,130,8|8,0:0|0:0,0:0:0:0:
112,312,19383,1,0,0:0:0:0:
64,160,19577,2,0,P|120:128|176:152,1,130,8|8,0:0|0:0,0:0:0:0:
136,216,19967,2,0,P|192:248|248:224,1,130,8|0,0:0|0:0,0:0:0:0:
272,72,20357,5,0,0:0:0:0:
320,312,20551,1,0,0:0:0:0:
424,120,20746,1,0,0:0:0:0:
472,256,20941,1,8,0:0:0:0:
320,312,21136,2,0,P|272:248|280:192,1,130,8|0,0:0|0:0,0:0:0:0:
272,72,21525,1,0,0:0:0:0:
275,201,21720,2,0,P|276:265|320:312,1,130,8|8,0:0|0:0,0:0:0:0:
464,168,22110,6,0,P|440:96|392:80,1,130,2|8,0:0|0:0,0:0:0:0:
464,168,22499,1,8,0:0:0:0:
304,64,22694,1,8,0:0:0:0:
464,168,22889,2,0,P|440:96|384:80,1,130,2|8,0:0|0:0,0:0:0:0:
464,168,23278,1,0,0:0:0:0:
256,296,23473,5,8,0:0:0:0:
256,88,23668,1,8,0:0:0:0:
182,265,23863,1,0,0:0:0:0:
329,118,24058,1,0,0:0:0:0:
152,192,24253,1,8,0:0:0:0:
360,192,24448,1,8,0:0:0:0:
182,118,24642,1,0,0:0:0:0:
329,265,24837,1,0,0:0:0:0:
104,144,25032,6,0,L|256:144,2,130,8|10|8,0:0|0:0|0:0,0:0:0:0:
96,264,26006,2,0,L|128:344,1,65,8|8,0:0|0:0,0:0:0:0:
224,80,26396,1,8,0:0:0:0:
112,88,26590,2,0,P|160:144|128:184,1,130,4|8,0:0|0:0,0:0:0:0:
112,88,27175,1,4,0:0:0:0:
432,80,27564,5,0,0:0:0:0:
432,184,27759,2,0,L|432:272,2,65
432,184,28538,2,0,P|368:200|312:184,1,97.5,2|2,0:0|0:0,0:0:0:0:
240,56,29073,1,0,0:0:0:0:
408,120,29268,1,0,0:0:0:0:
240,192,29463,1,0,0:0:0:0:
400,296,29658,6,8,L|328:296,1,65
224,224,30047,2,0,L|312:224,1,65,0|0,0:0|0:0,0:0:0:0:
88,272,30437,5,8,0:0:0:0:
424,272,30630,1,8,0:0:0:0:
176,192,30826,1,0,0:0:0:0:
344,192,31021,1,0,0:0:0:0:
256,80,31216,1,4,0:0:0:0:
256,192,31604,5,4,0:0:0:0:
352,96,31995,2,0,L|472:96,2,97.5
352,96,32773,1,8,0:0:0:0:
256,192,33164,5,4,0:0:0:0:
192,240,33552,2,0,L|112:320,1,97.5
56,96,34138,2,0,P|96:128|104:160,1,65,8|8,0:0|0:0,0:0:0:0:
256,296,34526,5,8,0:0:0:0:
256,296,34721,1,8,0:0:0:0:
400,256,34917,2,0,P|432:208|432:144,1,97.50000371933
296,80,35307,1,8,0:0:0:0:
296,80,35500,1,8,0:0:0:0:
328,272,35695,2,0,P|256:304|200:280,1,97.50000371933,0|8,0:0|0:0,0:0:0:0:
104,192,36086,6,0,L|216:192,1,97.50000371933,0|8,0:0|0:0,0:0:0:0:
408,192,36474,2,0,L|296:192,1,97.50000371933,0|8,0:0|0:0,0:0:0:0:
256,144,36865,2,0,L|256:264,2,97.50000371933,0|8|0,0:0|0:0|0:0,0:0:0:0:
256,48,37448,6,2,L|256:96,2,48.750001859665,2|8|2,0:0|0:0|0:0,0:0:0:0:
120,288,37838,2,0,L|168:216,1,48.750001859665
256,48,38228,6,0,L|256:128,2,48.750001859665,2|8|0,0:0|0:0|0:0,0:0:0:0:
408,288,38617,2,0,L|360:224,1,48.750001859665
96,64,39007,6,0,L|136:112,2,48.750001859665,2|8|2,0:0|0:0|0:0,0:0:0:0:
256,336,39397,2,0,L|256:256,1,48.750001859665
392,96,39786,6,0,L|352:136,2,48.750001859665,2|8|2,0:0|0:0|0:0,0:0:0:0:
256,336,40176,2,0,L|256:256,1,48.750001859665
104,64,40517,6,0,L|104:136,2,65,0|8|0,0:0|0:0|0:0,0:0:0:0:
256,240,40905,1,0,0:0:0:0:
104,64,41100,2,0,L|104:136,1,65,0|8,0:0|0:0,0:0:0:0:
40,208,41490,5,0,0:0:0:0:
64,248,41587,1,0,0:0:0:0:
96,272,41684,1,0,0:0:0:0:
136,280,41782,1,0,0:0:0:0:
176,272,41879,1,0,0:0:0:0:
208,248,41977,1,0,0:0:0:0:
224,208,42074,1,0,0:0:0:0:
288,96,42269,1,8,0:0:0:0:
384,48,42463,2,0,P|408:120|392:184,1,130,8|8,0:0|0:0,0:0:0:0:
464,296,42853,5,0,0:0:0:0:
336,208,43048,1,8,0:0:0:0:
464,296,43242,1,0,0:0:0:0:
360,328,43437,2,0,L|224:328,1,130,8|0,0:0|0:0,0:0:0:0:
152,264,43827,2,0,L|288:264,1,130,8|0,0:0|0:0,0:0:0:0:
360,200,44217,2,0,L|224:200,1,130,8|0,0:0|0:0,0:0:0:0:
416,312,44606,6,0,L|416:176,2,130,0|8|0,0:0|0:0|0:0,0:0:0:0:
344,328,45190,2,0,L|296:256,1,65
256,176,45385,2,0,L|224:240,1,65,0|8,0:0|0:0,0:0:0:0:
200,344,45580,2,0,L|152:272,1,65,8|8,0:0|0:0,0:0:0:0:
128,192,45775,2,0,L|96:256,2,65
248,272,46164,5,0,0:0:0:0:
128,336,46360,2,0,P|76:304|44:236,2,130,8|0|8,0:0|0:0|0:0,0:0:0:0:
128,336,46944,1,8,0:0:0:0:
128,336,47139,2,8,P|64:288|96:120,1,260
128,336,47723,5,0,0:0:0:0:
248,272,47918,1,8,0:0:0:0:
128,208,48113,1,0,0:0:0:0:
256,144,48308,2,0,L|128:104,1,130,8|0,0:0|0:0,0:0:0:0:
128,336,48697,1,0,0:0:0:0:
256,144,48892,2,0,L|128:104,1,130,8|0,0:0|0:0,0:0:0:0:
128,336,49282,6,0,L|264:336,1,130,8|0,0:0|0:0,0:0:0:0:
384,272,49671,2,0,L|240:272,1,130,8|0,0:0|0:0,0:0:0:0:
128,208,50061,2,0,L|272:208,1,130,8|0,0:0|0:0,0:0:0:0:
384,136,50451,2,0,L|240:136,1,130,8|0,0:0|0:0,0:0:0:0:
168,104,50840,5,0,0:0:0:0:
344,200,51035,1,0,0:0:0:0:
168,200,51230,1,0,0:0:0:0:
344,104,51425,1,8,0:0:0:0:
256,232,51619,1,8,0:0:0:0:
256,72,51814,1,8,0:0:0:0:
256,152,52009,1,0,0:0:0:0:
104,152,52204,1,8,0:0:0:0:
408,152,52399,1,0,0:0:0:0:
368,280,52593,6,0,L|264:192,2,130,8|8|8,0:0|0:0|0:0,0:0:0:0:
288,344,53178,1,0,0:0:0:0:
224,224,53373,1,8,0:0:0:0:
128,328,53567,1,0,0:0:0:0:
88,216,53762,1,8,0:0:0:0:
64,96,53957,6,0,L|192:48,2,130,0|8|0,0:0|0:0|0:0,0:0:0:0:
64,296,54541,2,0,P|128:240|112:176,1,130,8|0,0:0|0:0,0:0:0:0:
264,176,54931,1,8,0:0:0:0:
224,296,55126,2,0,P|160:240|176:176,1,130,8|8,0:0|0:0,0:0:0:0:
176,32,55470,6,0,P|200:112|184:160,1,130,0|0,0:0|0:0,0:0:0:0:
128,232,55859,2,0,P|104:152|120:104,1,130,8|8,0:0|0:0,0:0:0:0:
184,152,56249,2,0,P|208:232|192:280,1,130,8|8,0:0|0:0,0:0:0:0:
136,352,56639,2,0,P|112:272|128:224,1,130,8|8,0:0|0:0,0:0:0:0:
160,56,57028,5,0,0:0:0:0:
200,40,57125,1,8,0:0:0:0:
248,48,57223,2,0,P|264:112|240:168,1,130
80,128,57612,1,0,0:0:0:0:
72,176,57710,1,0,0:0:0:0:
96,216,57807,1,0,0:0:0:0:
128,256,57905,1,0,0:0:0:0:
160,280,58002,6,0,L|200:224,1,65,8|8,0:0|0:0,0:0:0:0:
160,56,58197,2,8,L|224:128,1,65
416,104,58392,2,8,L|352:104,1,65,8|8,0:0|0:0,0:0:0:0:
272,192,58586,2,0,L|352:192,1,65
408,304,58781,5,2,0:0:0:0:
280,336,58976,2,0,P|232:264|248:184,2,130,8|8|8,0:0|0:0|0:0,0:0:0:0:
408,336,59560,2,0,P|456:264|440:184,1,130
455,223,59950,1,0,0:0:0:0:
296,216,60145,5,0,0:0:0:0:
448,88,60340,1,8,0:0:0:0:
384,208,60534,1,0,0:0:0:0:
344,72,60729,2,0,P|336:136|280:176,1,130,8|8,0:0|0:0,0:0:0:0:
208,40,61119,1,0,0:0:0:0:
176,160,61314,2,0,P|184:224|240:264,1,130,8|8,0:0|0:0,0:0:0:0:
80,296,61703,5,0,0:0:0:0:
192,144,61898,1,0,0:0:0:0:
80,296,62093,2,0,P|48:240|96:176,1,130,8|0,0:0|0:0,0:0:0:0:
192,144,62482,1,0,0:0:0:0:
72,144,62677,2,8,P|112:304|184:312,1,260
376,320,63262,5,8,0:0:0:0:
248,256,63457,1,8,0:0:0:0:
112,192,63651,1,8,0:0:0:0:
248,112,63846,5,0,0:0:0:0:
248,256,64041,1,0,0:0:0:0:
368,200,64236,2,0,L|224:264,2,130,8|8|8,0:0|0:0|0:0,0:0:0:0:
448,280,64820,5,0,0:0:0:0:
424,320,64918,1,8,0:0:0:0:
384,328,65015,1,0,0:0:0:0:
320,216,65210,1,0,0:0:0:0:
448,280,65405,2,0,L|448:144,2,130,8|0|0,0:0|0:0|0:0,0:0:0:0:
448,152,65989,1,8,0:0:0:0:
448,280,66184,2,0,L|448:128,1,130
448,80,66573,1,8,0:0:0:0:
448,344,66768,1,8,0:0:0:0:
384,104,66963,6,0,L|240:104,1,130,8|8,0:0|0:0,0:0:0:0:
104,176,67353,2,0,L|240:176,1,130
384,248,67742,2,0,L|224:248,2,130,8|0|8,0:0|0:0|0:0,0:0:0:0:
384,248,68327,1,0,0:0:0:0:
384,248,68521,1,0,0:0:0:0:
256,192,69106,5,8,0:0:0:0:
400,80,69301,1,8,0:0:0:0:
256,192,69495,1,0,0:0:0:0:
112,80,69690,1,0,0:0:0:0:
256,192,69885,1,8,0:0:0:0:
256,336,70080,1,8,0:0:0:0:
216,152,70275,5,0,0:0:0:0:
208,104,70372,1,0,0:0:0:0:
240,64,70470,1,0,0:0:0:0:
280,40,70567,1,0,0:0:0:0:
328,48,70664,1,0,0:0:0:0:
368,72,70762,1,0,0:0:0:0:
392,112,70859,6,0,L|450:82,1,65,8|8,0:0|0:0,0:0:0:0:
376,184,71054,2,0,L|296:224,1,65,8|8,0:0|0:0,0:0:0:0:
120,272,71249,2,0,L|61:301,1,65,8|8,0:0|0:0,0:0:0:0:
136,200,71444,2,0,L|216:160,1,65,8|8,0:0|0:0,0:0:0:0:
256,192,71638,1,4,0:0:0:0:
184,240,72223,5,8,0:0:0:0:
328,144,72418,1,8,0:0:0:0:
184,144,72612,1,0,0:0:0:0:
328,240,72807,1,0,0:0:0:0:
256,88,73002,1,8,0:0:0:0:
256,296,73197,1,8,0:0:0:0:
344,248,73392,5,0,0:0:0:0:
376,232,73489,1,0,0:0:0:0:
408,208,73586,1,0,0:0:0:0:
432,176,73684,1,0,0:0:0:0:
432,136,73781,1,0,0:0:0:0:
416,96,73879,1,0,0:0:0:0:
400,72,73976,6,8,L|344:136,1,65
400,312,74171,2,8,L|344:248,1,65
224,192,74366,2,8,L|288:192,2,65
256,96,75145,5,8,0:0:0:0:
256,288,75340,1,0,0:0:0:0:
256,128,75534,2,0,L|256:280,2,130,8|0|0,0:0|0:0|0:0,0:0:0:0:
256,192,76508,12,4,77871,0:0:0:0:
80,128,78262,6,0,L|160:128,1,65,0|0,0:0|0:0,0:0:0:0:
264,200,78457,2,0,L|176:200,1,65,0|0,0:0|0:0,0:0:0:0:
80,288,78651,2,0,L|176:288,2,65,0|0|0,0:0|0:0|0:0,0:0:0:0:
208,104,79041,5,8,0:0:0:0:
168,136,79138,1,8,0:0:0:0:
152,176,79236,1,8,0:0:0:0:
152,216,79333,1,8,0:0:0:0:
184,248,79431,1,8,0:0:0:0:
448,288,79625,6,0,L|384:224,1,65,0|8,0:0|0:0,0:0:0:0:
448,96,79820,2,0,L|384:160,1,65,0|8,0:0|0:0,0:0:0:0:
264,184,80015,2,0,B|280:176|280:176|296:184|296:184|320:176|320:176|336:184|336:184|352:176|352:176|368:184|368:184|384:176,1,130
96,136,80405,1,0,0:0:0:0:
96,136,80502,1,8,0:0:0:0:
96,136,80599,2,0,B|88:152|88:152|104:168|104:168|88:176|88:176|104:192|104:192|88:200|88:200|104:208|104:208|96:224,1,130
56,296,80989,5,8,0:0:0:0:
72,272,81086,1,8,0:0:0:0:
104,264,81184,2,8,L|147:314,1,65,0|8,0:0|0:0,0:0:0:0:
320,328,81379,2,8,L|277:278,1,65,0|8,0:0|0:0,0:0:0:0:
192,56,81573,2,8,L|234:105,1,65,0|8,0:0|0:0,0:0:0:0:
408,120,81768,2,8,L|365:70,1,65,0|8,0:0|0:0,0:0:0:0:
184,144,81963,5,0,0:0:0:0:
160,184,82060,1,0,0:0:0:0:
176,232,82158,1,0,0:0:0:0:
208,272,82255,1,0,0:0:0:0:
256,272,82353,1,0,0:0:0:0:
332,188,82547,5,8,0:0:0:0:
360,212,82645,1,8,0:0:0:0:
364,252,82742,1,8,0:0:0:0:
344,296,82840,1,8,0:0:0:0:
308,320,82937,1,8,0:0:0:0:
264,328,83034,1,8,0:0:0:0:
224,336,83132,6,0,L|152:336,1,65
80,272,83327,2,0,L|160:272,1,65,0|8,0:0|0:0,0:0:0:0:
224,200,83521,2,8,L|136:200,1,65
80,132,83716,2,0,L|156:132,2,65,0|4|0,0:0|0:0|0:0,0:0:0:0:
