osu file format v14

[General]
AudioFilename: 111.mp3
AudioLeadIn: 0
PreviewTime: 31811
Countdown: 0
SampleSet: Normal
StackLeniency: 0.7
Mode: 0
LetterboxInBreaks: 0
WidescreenStoryboard: 0

[Editor]
DistanceSpacing: 1.3
BeatDivisor: 4
GridSize: 8
TimelineZoom: 2.3

[Metadata]
Title:Wasurerareta Field
TitleUnicode:忘れられたField
Artist:Trinity Note
ArtistUnicode:Trinity Note
Creator:Spring Roll
Version:Hard
Source:
Tags:
BeatmapID:690999
BeatmapSetID:308975

[Difficulty]
HPDrainRate:5
CircleSize:4
OverallDifficulty:5
ApproachRate:7
SliderMultiplier:1.2
SliderTickRate:1

[Events]
//Background and Video events
0,0,"bg.jpg",0,0
//Break Periods
//Storyboard Layer 0 (Background)
//Storyboard Layer 1 (Fail)
//Storyboard Layer 2 (Pass)
//Storyboard Layer 3 (Foreground)
//Storyboard Sound Samples

[TimingPoints]
1221,300,4,2,1,30,1,0
2121,-100,4,2,1,40,0,0
3021,-100,4,2,1,50,0,0
3921,-100,4,2,1,60,0,0
4821,300,7,1,1,90,1,0
4896,-100,7,1,1,60,0,0
6921,-100,7,1,1,90,0,0
6996,-100,7,1,1,60,0,0
9021,-100,7,1,1,90,0,0
9096,-100,7,1,1,60,0,0
11121,300,4,1,1,60,1,0
13521,300,7,1,1,90,1,0
13596,-100,7,1,1,60,0,0
15621,-100,7,1,1,90,0,0
15696,-100,7,1,1,60,0,0
17721,-100,7,1,1,90,0,0
17796,-100,7,1,1,60,0,0
19821,300,4,1,1,60,1,0
22221,-100,4,2,1,40,0,0
31821,-100,4,1,1,70,0,1
51021,300,7,1,1,90,1,0
51171,-100,7,1,1,60,0,0
53121,-100,7,1,1,90,0,0
53196,-100,7,1,1,60,0,0
55221,-100,7,1,1,90,0,0
55296,-100,7,1,1,60,0,0
57321,300,4,1,1,60,1,0
59721,300,7,1,1,90,1,0
59796,-100,7,1,1,60,0,0
61821,-100,7,1,1,90,0,0
61896,-100,7,1,1,60,0,0
63921,-100,7,1,1,90,0,0
63996,-100,7,1,1,60,0,0
66021,300,4,1,1,60,1,0
68421,-100,4,2,1,40,0,0
75621,-100,4,2,1,30,0,0
76221,-100,4,2,1,20,0,0

[Colours]
Combo1 : 128,128,192
Combo2 : 255,128,255
Combo3 : 255,128,64
Combo4 : 128,255,0

[HitObjects]
169,129,1221,6,0,P|144:188|166:258,1,120
267,331,1821,1,0,0:0:0:0:
396,268,2121,6,0,P|427:197|410:141,1,120
318,53,2721,1,0,0:0:0:0:
261,185,3021,6,0,P|183:213|130:199,1,120
19,142,3621,1,0,0:0:0:0:
121,40,3921,6,0,P|183:26|244:53,1,120
326,155,4521,1,0,0:0:0:0:
458,212,4821,6,0,P|443:273|388:317,1,120,2|8,0:3|0:0,0:0:0:0:
282,210,5421,2,0,L|271:291,2,60,0|0|8,0:0|0:0|0:0,0:0:0:0:
360,210,5871,2,0,B|368:139|368:139|355:73,1,120
283,67,6321,2,0,L|211:86,1,60,8|0,0:0|0:0,0:0:0:0:
149,64,6621,2,0,L|77:83,1,60,0|8,0:0|0:0,0:0:0:0:
51,146,6921,6,0,P|43:231|76:272,1,120,2|8,0:3|0:0,0:0:0:0:
203,318,7521,1,0,0:0:0:0:
203,318,7671,2,0,L|210:244,1,60,0|8,0:0|0:0,0:0:0:0:
193,181,7971,2,0,L|331:163,1,120
369,112,8421,2,0,P|390:155|391:181,1,60,8|0,0:0|0:0,0:0:0:0:
350,233,8721,2,0,P|356:275|374:308,1,60,8|0,0:0|0:0,0:0:0:0:
430,330,9021,6,0,L|289:324,1,120,2|8,0:3|0:0,0:0:0:0:
161,275,9621,1,0,0:0:0:0:
161,275,9771,2,0,L|136:345,1,60,0|8,0:0|0:0,0:0:0:0:
65,349,10071,2,0,P|16:312|18:243,1,120
25,180,10521,2,0,L|96:164,1,60,8|0,0:0|0:0,0:0:0:0:
161,173,10821,2,0,L|232:157,1,60,0|8,0:0|0:0,0:0:0:0:
274,104,11121,6,0,L|266:239,1,120,4|8,0:0|0:0,0:0:0:0:
317,283,11571,1,0,0:0:0:0:
392,304,11721,2,0,P|439:273|417:202,1,120,0|8,0:0|0:0,0:0:0:0:
406,141,12171,1,0,0:0:0:0:
418,63,12321,6,0,B|324:40|324:40|284:52,1,120,0|8,0:0|0:0,0:0:0:0:
255,110,12771,1,0,0:0:0:0:
200,166,12921,2,0,B|176:178|176:178|71:143,1,120,0|8,0:0|0:0,0:0:0:0:
36,207,13371,1,0,0:0:0:0:
26,284,13521,6,0,B|78:281|111:317|111:317|110:268,1,120,2|8,0:3|0:0,0:0:0:0:
266,302,14121,2,0,L|196:300,2,60,0|0|8,0:0|0:0|0:0,0:0:0:0:
339,328,14571,2,0,P|399:287|399:223,1,120
360,180,15021,1,8,0:0:0:0:
317,114,15171,1,0,0:0:0:0:
350,43,15321,2,0,L|438:37,1,60,0|8,0:0|0:0,0:0:0:0:
464,94,15621,6,0,B|483:200|483:200|463:184,1,120,2|8,0:3|0:0,0:0:0:0:
317,180,16221,1,0,0:0:0:0:
317,180,16371,2,0,L|308:247,1,60,0|8,0:0|0:0,0:0:0:0:
233,218,16671,2,0,L|217:75,1,120
153,57,17121,2,0,L|88:53,1,60,8|0,0:0|0:0,0:0:0:0:
68,127,17421,2,0,L|147:132,1,60,8|0,0:0|0:0,0:0:0:0:
132,208,17721,6,0,P|107:271|131:335,1,120,2|8,0:3|0:0,0:0:0:0:
275,331,18321,1,0,0:0:0:0:
275,331,18471,2,0,L|258:273,1,60,0|8,0:0|0:0,0:0:0:0:
334,253,18771,2,0,P|383:270|461:247,1,120
474,182,19221,1,8,0:0:0:0:
429,118,19371,1,0,0:0:0:0:
356,146,19521,2,0,L|280:144,1,60,0|8,0:0|0:0,0:0:0:0:
222,169,19821,6,0,L|74:161,1,120,4|8,0:0|0:0,0:0:0:0:
33,201,20271,2,0,L|106:76,1,120
149,42,20721,1,8,0:0:0:0:
217,79,20871,1,0,0:0:0:0:
292,58,21021,6,0,L|368:53,1,60
429,58,21321,1,8,0:0:0:0:
401,130,21471,2,0,P|395:213|414:273,2,120
429,58,22221,5,2,0:0:0:0:
151,200,22821,2,0,L|147:274,1,60,8|0,1:0|0:0,0:0:0:0:
194,323,23121,2,0,P|253:272|233:165,1,180
243,177,23721,1,0,0:0:0:0:
178,319,24021,6,0,B|336:345|336:345|314:324,1,180,2|0,0:0|0:0,0:0:0:0:
321,331,24621,1,8,1:0:0:0:
430,220,24921,2,0,P|364:238|313:207,1,120
320,215,25371,1,0,0:0:0:0:
226,89,25671,1,0,0:0:0:0:
226,89,25821,6,0,L|217:284,1,180,2|0,0:0|0:0,0:0:0:0:
217,268,26421,1,8,1:0:0:0:
371,242,26721,2,0,P|341:168|315:270,1,240
345,317,27471,1,0,0:0:0:0:
422,307,27621,6,0,P|455:229|417:127,1,180,2|0,0:0|0:0,0:0:0:0:
379,80,28221,2,0,L|399:20,1,60,8|0,1:0|0:0,0:0:0:0:
463,65,28521,2,0,L|206:80,1,240
256,192,29421,12,0,31521,0:0:0:0:
165,122,31821,6,0,L|139:187,1,60,4|0,0:0|0:0,0:0:0:0:
209,217,32121,2,0,L|185:284,1,60,8|0,0:0|0:0,0:0:0:0:
120,311,32421,2,0,P|68:288|35:220,1,120,0|8,0:0|0:0,0:0:0:0:
56,159,32871,1,0,0:0:0:0:
76,83,33021,2,0,L|218:71,1,120,0|8,0:0|0:0,0:0:0:0:
344,119,33621,2,0,L|486:107,1,120,0|8,0:0|0:0,0:0:0:0:
388,246,34221,6,0,L|386:311,1,60,4|0,0:0|0:0,0:0:0:0:
313,275,34521,2,0,L|314:215,1,60,8|0,0:0|0:0,0:0:0:0:
237,230,34821,2,0,P|200:240|101:231,1,120,0|8,0:0|0:0,0:0:0:0:
73,173,35271,1,0,0:0:0:0:
116,107,35421,2,0,P|126:49|123:25,1,60
203,40,35721,2,0,P|201:102|177:162,2,120,8|0|8,0:0|0:0|0:0,0:0:0:0:
348,98,36621,6,0,L|428:101,1,60,4|0,0:0|0:0,0:0:0:0:
400,178,36921,2,0,L|460:213,1,60,8|0,0:0|0:0,0:0:0:0:
420,280,37221,1,0,0:0:0:0:
352,319,37371,1,0,0:0:0:0:
297,262,37521,2,0,L|307:191,1,60,8|0,0:0|0:0,0:0:0:0:
256,141,37821,2,0,P|221:138|184:122,1,60
140,76,38121,2,0,L|26:142,2,120,8|0|8,0:0|0:0|0:0,0:0:0:0:
114,229,39021,5,4,0:0:0:0:
140,302,39171,1,0,0:0:0:0:
216,317,39321,2,0,P|271:313|288:302,1,60,8|0,0:0|0:0,0:0:0:0:
315,244,39621,1,0,0:0:0:0:
390,223,39771,1,0,0:0:0:0:
463,250,39921,2,0,P|477:288|472:319,1,60,8|0,0:0|0:0,0:0:0:0:
404,338,40221,2,0,P|386:292|395:210,1,120,0|8,0:0|0:0,0:0:0:0:
434,73,40821,2,0,P|367:95|314:79,1,120,0|8,0:0|0:0,0:0:0:0:
166,57,41421,6,0,L|186:121,1,60,4|0,0:3|0:0,0:0:0:0:
120,159,41721,2,0,L|140:223,1,60,8|0,0:0|0:0,0:0:0:0:
80,269,42021,2,0,L|100:333,1,60
175,320,42321,1,8,0:0:0:0:
231,265,42471,1,0,0:0:0:0:
297,305,42621,2,0,L|442:278,1,120,0|8,0:0|0:0,0:0:0:0:
460,133,43221,2,0,L|342:154,1,120,0|8,0:0|0:0,0:0:0:0:
208,73,43821,6,0,L|227:143,1,60,4|0,0:0|0:0,0:0:0:0:
154,167,44121,2,0,L|199:225,1,60,8|0,0:0|0:0,0:0:0:0:
268,217,44421,2,0,P|257:258|170:289,1,120,0|8,0:0|0:0,0:0:0:0:
116,270,44871,1,0,0:0:0:0:
38,266,45021,2,0,L|41:129,1,120,0|8,0:0|0:0,0:0:0:0:
159,44,45621,2,0,P|212:68|286:59,1,120,0|8,0:0|0:0,0:0:0:0:
428,73,46221,6,0,L|455:138,1,60,4|0,0:0|0:0,0:0:0:0:
422,201,46521,2,0,L|402:275,1,60,8|0,0:0|0:0,0:0:0:0:
415,336,46821,1,0,0:0:0:0:
337,344,46971,1,0,0:0:0:0:
263,318,47121,2,0,L|201:328,1,60
126,314,47421,1,0,0:0:0:0:
196,174,47721,1,8,0:0:0:0:
60,97,48021,1,0,0:0:0:0:
212,63,48321,1,8,0:0:0:0:
327,167,48621,6,0,L|312:244,1,60,4|0,0:0|0:0,0:0:0:0:
386,259,48921,2,0,L|397:200,1,60,8|0,0:0|0:0,0:0:0:0:
454,146,49221,1,0,0:0:0:0:
459,68,49371,1,0,0:0:0:0:
388,35,49521,2,0,P|359:40|316:26,1,60,8|0,0:0|0:0,0:0:0:0:
256,62,49821,2,0,P|181:121|186:144,1,120,0|8,0:0|0:0,0:0:0:0:
169,286,50421,2,0,P|244:227|239:204,1,120,0|8,0:0|0:0,0:0:0:0:
87,202,51021,6,0,P|59:147|67:70,1,120,2|8,0:3|0:0,0:0:0:0:
216,91,51621,2,0,L|196:165,2,60,0|0|8,0:0|0:0|0:0,0:0:0:0:
294,83,52071,2,0,B|391:67|391:67|429:87,1,120
454,141,52521,2,0,P|460:178|456:213,1,60,8|0,0:0|0:0,0:0:0:0:
399,252,52821,2,0,P|393:289|397:324,1,60,0|8,0:0|0:0,0:0:0:0:
328,352,53121,6,0,P|252:335|214:293,1,120,2|8,0:3|0:0,0:0:0:0:
209,151,53721,2,0,L|151:172,2,60,0|0|8,0:0|0:0|0:0,0:0:0:0:
281,123,54171,2,0,P|321:165|395:154,1,120
355,89,54621,2,0,L|354:23,1,60,8|0,0:0|0:0,0:0:0:0:
426,57,54921,1,8,0:0:0:0:
502,44,55071,1,0,0:0:0:0:
480,119,55221,6,0,B|468:202|468:202|483:255,1,120,2|8,0:3|0:0,0:0:0:0:
325,273,55821,2,0,L|334:335,2,60,0|0|8,0:0|0:0|0:0,0:0:0:0:
318,194,56271,2,0,P|239:196|188:217,1,120
175,284,56721,2,0,P|139:291|108:284,1,60,8|0,0:0|0:0,0:0:0:0:
80,217,57021,2,0,P|68:187|71:150,1,60,0|8,0:0|0:0,0:0:0:0:
126,107,57321,6,0,P|172:80|207:126,1,120,4|8,0:0|0:0,0:0:0:0:
202,202,57771,1,0,0:0:0:0:
166,271,57921,2,0,L|106:309,2,60,0|0|8,0:0|0:0|0:0,0:0:0:0:
243,280,58371,1,0,0:0:0:0:
316,305,58521,6,0,P|419:277|421:262,1,120,0|8,0:0|0:0,0:0:0:0:
441,211,58971,1,0,0:0:0:0:
410,139,59121,2,0,L|341:136,1,60
288,185,59421,2,0,L|219:182,1,60,8|0,0:0|0:0,0:0:0:0:
185,248,59721,6,0,P|125:269|66:242,1,120,2|8,0:3|0:0,0:0:0:0:
54,95,60321,1,0,0:0:0:0:
54,95,60471,2,0,L|128:71,1,60,0|8,0:0|0:0,0:0:0:0:
184,49,60771,2,0,L|221:185,1,120
141,192,61221,2,0,L|119:264,1,60,8|0,0:0|0:0,0:0:0:0:
199,267,61521,2,0,L|217:346,1,60,0|8,0:0|0:0,0:0:0:0:
290,327,61821,6,0,P|364:313|424:337,1,120,2|8,0:3|0:0,0:0:0:0:
303,207,62421,1,0,0:0:0:0:
303,207,62571,2,0,L|312:137,1,60,0|8,0:0|0:0,0:0:0:0:
358,85,62871,2,0,P|410:106|480:82,1,120
416,147,63321,2,0,P|412:191|417:215,1,60,8|0,0:0|0:0,0:0:0:0:
473,258,63621,2,0,P|479:297|473:326,1,60,8|0,0:0|0:0,0:0:0:0:
400,338,63921,6,0,L|273:331,1,120,2|8,0:3|0:0,0:0:0:0:
176,215,64521,2,0,L|181:282,2,60,0|0|8,0:0|0:0|0:0,0:0:0:0:
107,175,64971,2,0,P|79:112|92:40,1,120
160,62,65421,2,0,L|233:46,1,60,8|0,0:0|0:0,0:0:0:0:
279,97,65721,2,0,L|340:113,1,60,0|8,0:0|0:0,0:0:0:0:
412,91,66021,6,0,P|454:137|461:209,1,120,4|8,0:0|0:0,0:0:0:0:
387,212,66471,2,0,P|356:260|280:271,1,120
244,217,66921,2,0,P|205:211|169:219,1,60,8|0,0:0|0:0,0:0:0:0:
116,252,67221,6,0,P|114:307|168:350,1,120,0|8,0:0|0:0,0:0:0:0:
237,340,67671,2,0,P|299:320|355:350,1,120
425,342,68121,1,8,0:0:0:0:
466,276,68271,1,0,0:0:0:0:
437,203,68421,5,4,0:0:0:0:
148,85,69021,2,0,L|136:147,1,60,8|0,1:0|0:0,0:0:0:0:
69,183,69321,2,0,P|173:179|247:149,1,180
242,151,69921,1,0,0:0:0:0:
171,290,70221,6,0,P|271:266|363:291,1,180,2|0,0:0|0:0,0:0:0:0:
344,282,70821,1,8,1:0:0:0:
464,182,71121,2,0,P|437:113|443:49,1,120
438,68,71571,1,0,0:0:0:0:
299,138,71871,1,0,0:0:0:0:
299,138,72021,6,0,P|205:113|195:230,1,240,2|8,0:0|1:0,0:0:0:0:
324,305,72921,2,0,P|279:300|119:312,1,180
69,328,73521,2,0,L|45:265,1,60
102,216,73821,6,0,P|152:132|59:158,1,240,2|8,0:0|1:0,0:0:0:0:
61,305,74721,2,0,P|190:290|260:201,1,240
256,192,75621,12,4,76371,0:3:0:0:
213,164,78021,6,0,L|219:242,1,60
292,202,78321,2,0,L|306:129,1,60
