osu file format v14

[General]
AudioFilename: Trident Blue Field (short ver.).mp3
AudioLeadIn: 500
PreviewTime: 50021
Countdown: 0
SampleSet: Soft
StackLeniency: 0.7
Mode: 0
LetterboxInBreaks: 0
WidescreenStoryboard: 1

[Editor]
Bookmarks: 8664
DistanceSpacing: 1.2
BeatDivisor: 2
GridSize: 4
TimelineZoom: 0.7999997

[Metadata]
Title:Blue Field
TitleUnicode:ブルー・フィールド
Artist:Trident
ArtistUnicode:Trident
Creator:arronchu1207
Version:Easy
Source:蒼き鋼のアルペジオ -アルス・ノヴァ-
Tags:StarForYou [Shana Lesus] Miomio Chii Arpeggio of Blue Steel Ars Nova ending IamKwaN
BeatmapID:496279
BeatmapSetID:153853

[Difficulty]
HPDrainRate:2
CircleSize:3
OverallDifficulty:1
ApproachRate:2
SliderMultiplier:0.80000000596046
SliderTickRate:1

[Events]
//Background and Video events
0,0,"BG.jpg",0,0
Video,1230,"HI.avi"
//Break Periods
//Storyboard Layer 0 (Background)
//Storyboard Layer 1 (Fail)
//Storyboard Layer 2 (Pass)
//Storyboard Layer 3 (Foreground)
//Storyboard Sound Samples

[TimingPoints]
1577,444.444444444444,4,2,0,45,1,0
51354,-100,4,2,0,50,0,1
79799,-100,4,2,0,50,0,0
87799,-100,4,2,0,5,0,0

[Colours]
Combo1 : 0,128,255
Combo2 : 128,128,255
Combo3 : 0,64,128
Combo4 : 0,128,192
Combo5 : 128,128,192

[HitObjects]
252,192,8688,6,0,P|344:224|416:96,1,240.000001788138,0|2,0:0|0:0,0:0:0:0:
324,128,10465,2,0,P|232:96|160:224,1,240.000001788138,0|2,0:0|0:0,0:0:0:0:
80,260,12243,2,0,B|136:312|204:280|204:280|192:344|236:380,1,240.000001788138,0|2,0:0|0:0,0:0:0:0:
300,308,14021,2,0,P|400:292|432:220,1,160.000001192092
336,220,15354,1,6,0:0:0:0:
372,132,15799,6,0,P|272:148|240:220,1,160.000001192092
336,220,17132,1,2,0:0:0:0:
312,312,17576,2,0,B|256:304|256:304|212:328|212:328|132:316,1,160.000001192092
64,344,18910,1,2,0:0:0:0:
88,252,19354,2,0,B|120:220|164:220|164:220|224:148|160:72,1,240.000001788138,0|2,0:0|0:0,0:0:0:0:
96,148,21132,2,0,P|68:100|84:24,2,120.000000894069,0|0|2,0:0|0:0|0:0,0:0:0:0:
164,80,22910,5,6,0:0:0:0:
124,268,23799,1,2,0:0:0:0:
204,320,24243,1,0,0:0:0:0:
300,324,24688,2,0,P|376:336|428:296,2,120.000000894069,2|0|0,0:0|0:0|0:0,0:0:0:0:
352,244,26465,5,2,0:0:0:0:
256,76,27354,2,0,P|208:96|152:96,1,80.000000596046,2|0,0:0|0:0,0:0:0:0:
120,24,28243,2,0,B|152:80|116:144|116:144|88:204|132:268,1,240.000001788138,2|0,0:0|0:0,0:0:0:0:
200,192,30021,1,2,0:0:0:0:
320,344,30910,6,0,P|360:348|412:340,1,80.000000596046,2|0,0:0|0:0,0:0:0:0:
440,256,31799,2,0,B|432:212|432:212|440:188|440:188|428:120,2,120.000000894069,2|0|0,0:0|0:0|0:0,0:0:0:0:
496,332,33576,1,2,0:0:0:0:
400,352,34021,6,0,B|240:328,1,160.000001192092,0|2,0:0|0:0,0:0:0:0:
236,232,35354,2,0,P|184:248|148:308,2,120.000000894069,0|2|8,0:0|0:0|0:0,0:0:0:0:
328,200,37132,1,4,0:0:0:0:
420,228,37576,6,0,L|416:124,2,80.000000596046,2|0|2,0:0|0:0|0:0,0:0:0:0:
340,280,38910,2,0,P|284:292|236:276,1,80.000000596046,0|2,0:0|0:0,0:0:0:0:
180,236,39799,2,0,P|108:192|96:136,2,120.000000894069,0|2|2,0:0|0:0|0:0,0:0:0:0:
192,140,41576,6,0,L|176:60,1,80.000000596046,2|0,0:0|0:0,0:0:0:0:
96,8,42465,1,2,0:0:0:0:
288,24,43354,2,0,P|364:32|408:76,2,120.000000894069,2|0|0,0:0|0:0|0:0,0:0:0:0:
316,116,45132,6,0,P|300:168|308:208,1,80.000000596046,2|0,0:0|0:0,0:0:0:0:
324,288,46021,2,0,P|349:336|383:358,1,80.000000596046,2|0,0:0|0:0,0:0:0:0:
420,268,46910,1,2,0:0:0:0:
392,176,47354,1,0,0:0:0:0:
256,192,47799,12,2,49576,1:2:0:0:
232,128,51354,6,0,P|264:160|324:168,1,80.000000596046,4|8,0:0|0:0,0:0:0:0:
312,76,52243,2,0,P|349:89|376:118,1,80.000000596046,0|8,0:0|0:0,0:0:0:0:
384,212,53132,2,0,L|340:288,1,80.000000596046,0|8,0:0|0:0,0:0:0:0:
248,292,54021,2,0,L|204:368,1,80.000000596046,0|8,0:0|0:0,0:0:0:0:
112,360,54910,6,0,P|48:248|156:96,2,320.000002384184,2|8|8,0:0|0:0|0:0,0:0:0:0:
236,212,59354,6,0,B|280:236|336:200,1,80.000000596046,0|8,0:0|0:0,0:0:0:0:
372,136,60243,2,0,B|428:192|396:260|396:260|344:372,1,240.000001788138,0|8,0:0|0:0,0:0:0:0:
272,300,62021,2,0,P|212:284|108:332,2,160.000001192092,2|8|8,0:0|0:0|0:0,0:0:0:0:
352,356,64243,6,0,L|456:348,2,80.000000596046,2|2|2,0:0|0:0|0:0,0:0:0:0:
272,300,65576,1,4,0:0:0:0:
236,212,66021,1,8,0:0:0:0:
140,204,66465,2,0,P|160:148|196:120,1,80.000000596046,0|8,0:0|0:0,0:0:0:0:
268,108,67354,2,0,B|316:120|336:168|336:168|368:152|404:164,1,160.000001192092
380,256,68688,1,8,0:0:0:0:
204,332,69576,6,0,P|140:328|108:312,1,80.000000596046,0|0,0:0|0:0,0:0:0:0:
84,236,70465,2,0,L|88:136,1,80.000000596046,8|0,0:0|0:0,0:0:0:0:
160,96,71354,2,0,B|200:84|240:96|240:96|280:108|344:88,1,160.000001192092,8|8,0:0|0:0,0:0:0:0:
276,8,72688,1,6,0:0:0:0:
432,116,73576,6,0,B|464:152|464:192|464:192|424:212|404:272,1,160.000001192092,2|2,0:0|0:0,0:0:0:0:
504,276,74910,2,0,P|448:336|352:312,1,160.000001192092,8|8,0:0|0:0,0:0:0:0:
260,244,76465,2,0,L|248:188,1,40.000000298023,2|0,0:0|0:0,0:0:0:0:
336,164,77132,2,0,L|344:124,1,40.000000298023,2|0,0:0|0:0,0:0:0:0:
244,20,78021,2,0,P|152:44|92:172,1,240.000001788138
168,228,79799,5,4,0:0:0:0:
256,192,80243,2,0,P|304:216|396:144,2,160.000001192092,8|8|8,0:0|0:0|0:0,0:0:0:0:
168,152,82465,2,0,L|156:244,1,80.000000596046,0|8,0:0|0:0,0:0:0:0:
80,288,83354,5,4,0:0:0:0:
224,308,84021,2,0,L|340:304,2,80.000000596046,6|2|2,0:0|0:0|0:0,0:0:0:0:
256,192,85132,12,0,87799,0:0:0:0:
