osu file format v13

[General]
AudioFilename: bluefield.mp3
AudioLeadIn: 0
PreviewTime: 49918
Countdown: 0
SampleSet: Soft
StackLeniency: 0.7
Mode: 0
LetterboxInBreaks: 0
WidescreenStoryboard: 0

[Editor]
DistanceSpacing: 1
BeatDivisor: 4
GridSize: 4
TimelineZoom: 1

[Metadata]
Title:Blue Field
TitleUnicode:ブルー・フィールド
Artist:Trident
ArtistUnicode:Trident
Creator:CloudSplash16
Version:Normal
Source:蒼き鋼のアルペジオ -アルス・ノヴァ-
Tags:aoki hagane no arpeggio of blue steel ars nova anime ending fuchigami mai numakura manami yamamura hibiku
BeatmapID:382624
BeatmapSetID:156120

[Difficulty]
HPDrainRate:4
CircleSize:3.5
OverallDifficulty:4
ApproachRate:5
SliderMultiplier:1.1
SliderTickRate:1

[Events]
//Background and Video events
0,0,"bg.jpg",0,0
Video,1248,"ed1v2.avi"
//Break Periods
//Storyboard Layer 0 (Background)
//Storyboard Layer 1 (Fail)
//Storyboard Layer 2 (Pass)
//Storyboard Layer 3 (Foreground)
//Storyboard Sound Samples
//Background Colour Transformations
3,100,163,162,255

[TimingPoints]
1585,444.444444444444,4,2,1,60,1,0
21140,-100,4,1,1,55,0,0
22473,-100,4,2,1,50,0,0
30140,-100,4,2,1,55,0,0
36696,-100,4,2,1,50,0,0
37140,-100,4,2,1,60,0,0
49584,-100,4,2,1,30,0,0
51362,-100,4,2,1,60,0,1
51473,-100,4,2,1,70,0,1
65140,-100,4,2,1,50,0,0
65584,-100,4,2,1,60,0,1
65696,-100,4,2,1,70,0,1
78029,-100,4,2,1,30,0,0
79140,-100,4,2,1,50,0,0
79807,-100,4,2,1,60,0,0
84696,-100,4,2,1,40,0,0
84918,-100,4,2,1,60,0,0
85140,-100,4,2,1,50,0,0
87807,-100,4,2,1,5,0,0

[Colours]
Combo1 : 128,128,192
Combo2 : 0,0,160

[HitObjects]
124,95,8696,6,0,P|170:102|232:84,1,110,2|8,0:0|0:0,0:0:0:0:
285,84,9362,1,0,0:0:0:0:
335,107,9584,2,0,P|359:155|351:215,1,110,2|8,0:0|0:0,0:0:0:0:
310,311,10473,2,0,P|261:305|193:327,1,110,2|8,0:0|0:0,0:0:0:0:
96,296,11362,2,0,L|84:236,1,55,2|0,0:0|0:0,0:0:0:0:
124,203,11807,2,0,L|112:143,1,55,8|0,0:0|0:0,0:0:0:0:
124,95,12251,6,0,P|170:102|232:84,1,110,2|8,0:0|0:0,0:0:0:0:
286,85,12917,1,0,0:0:0:0:
336,108,13139,2,0,P|360:156|352:216,1,110,2|8,0:0|0:0,0:0:0:0:
304,308,14029,2,0,L|278:356,2,55,2|0|8,0:0|0:0|0:0,0:0:0:0:
358,296,14696,2,0,P|411:308|465:298,1,110,0|0,0:0|0:0,0:0:0:0:
412,140,15807,6,0,L|356:148,1,55,2|0,0:0|0:0,0:0:0:0:
307,126,16251,2,0,L|251:134,1,55,8|0,0:0|0:0,0:0:0:0:
204,159,16696,2,0,P|190:212|204:265,1,110,2|8,0:0|0:0,0:0:0:0:
306,307,17584,2,0,L|362:319,1,55,2|0,0:0|0:0,0:0:0:0:
372,264,18029,2,0,L|426:246,1,55,8|0,0:0|0:0,0:0:0:0:
412,192,18473,2,0,P|418:138|391:91,1,110,2|8,0:0|0:0,0:0:0:0:
284,76,19362,6,0,P|230:88|177:76,1,110,2|8,0:0|0:0,0:0:0:0:
131,48,20029,1,0,0:0:0:0:
52,124,20473,1,0,0:0:0:0:
76,173,20696,2,0,P|84:199|85:226,1,55,8|0,0:0|0:0,0:0:0:0:
76,280,21140,1,0,0:0:0:0:
176,320,21584,1,2,0:2:0:0:
272,264,22029,2,0,L|328:232,2,55,2|0|4,0:2|0:0|0:0,0:0:0:0:
168,232,22918,6,0,P|156:178|168:125,1,110,2|2,0:0|0:0,0:0:0:0:
268,76,23807,2,0,P|321:87|374:75,1,110,2|2,0:0|0:0,0:0:0:0:
480,40,24696,2,0,L|472:149,1,110,2|2,0:0|0:0,0:0:0:0:
468,204,25362,1,0,0:0:0:0:
444,252,25584,2,0,P|419:265|392:266,1,55,2|0,0:0|0:0,0:0:0:0:
296,216,26251,5,0,0:0:0:0:
296,216,26473,2,0,P|244:198|191:209,1,110,2|2,0:0|0:0,0:0:0:0:
84,240,27362,2,0,P|80:204|84:176,1,55,2|0,0:0|0:0,0:0:0:0:
100,133,27807,2,0,P|101:105|97:78,1,55,2|0,0:0|0:0,0:0:0:0:
131,36,28251,2,0,P|184:23|234:43,1,110,2|2,0:0|0:0,0:0:0:0:
316,120,29140,2,0,L|376:100,2,55,2|0|2,0:0|0:0|0:0,0:0:0:0:
220,176,30029,6,0,P|200:226|213:278,1,110,6|8,0:0|0:0,0:0:0:0:
304,344,30918,1,2,0:0:0:0:
404,296,31362,2,0,L|407:241,1,55,8|0,0:0|0:0,0:0:0:0:
396,188,31807,2,0,P|360:146|308:133,1,110,2|8,0:0|0:0,0:0:0:0:
256,148,32473,2,0,P|204:165|152:151,1,110,0|0,0:0|0:0,0:0:0:0:
103,128,33140,1,8,0:0:0:0:
128,236,33584,6,0,P|121:288|78:320,2,110,2|8|2,0:0|0:0|0:0,0:0:0:0:
104,128,34918,1,8,0:0:0:0:
212,136,35362,2,0,L|324:120,2,110,2|0|0,0:0|0:0|0:0,0:0:0:0:
151,228,36696,2,0,P|162:280|206:311,1,110,4|2,0:0|0:0,0:0:0:0:
304,260,37584,5,2,0:0:0:0:
408,296,38029,1,2,0:0:0:0:
480,212,38473,1,2,0:0:0:0:
375,175,38918,2,0,P|347:130|355:76,1,110,2|2,0:0|0:0,0:0:0:0:
256,124,39807,2,0,P|202:137|149:125,1,110,2|2,0:0|0:0,0:0:0:0:
96,112,40473,2,0,L|77:163,1,55,0|2,0:0|0:0,0:0:0:0:
40,268,41140,5,2,0:0:0:0:
132,328,41584,1,2,0:0:0:0:
232,280,42029,1,2,0:0:0:0:
324,340,42473,2,0,L|433:350,1,110,2|2,0:0|0:0,0:0:0:0:
388,252,43362,2,0,P|375:199|393:147,1,110,2|8,0:0|0:0,0:0:0:0:
432,108,44029,2,0,L|486:104,1,55,0|2,0:0|0:0,0:0:0:0:
408,28,44696,6,0,L|353:31,1,55,8|0,0:0|0:0,0:0:0:0:
300,43,45140,2,0,P|248:62|195:53,1,110,2|8,0:0|0:0,0:0:0:0:
144,32,45807,1,0,0:0:0:0:
55,96,46251,2,0,P|39:147|51:200,2,110,0|0|0,0:0|0:0|0:0,0:0:0:0:
151,151,47584,5,0,0:0:0:0:
151,151,47807,2,0,P|206:159|258:144,1,110,2|2,0:0|0:0,0:0:0:0:
360,180,48696,2,0,L|364:236,1,55,2|2,0:0|0:0,0:0:0:0:
403,274,49140,2,0,L|407:330,1,55,2|2,0:0|0:0,0:0:0:0:
445,368,49584,1,0,0:0:0:0:
68,132,51362,6,0,P|108:96|162:94,1,110,6|8,0:0|0:0,0:0:0:0:
255,152,52251,2,0,L|280:259,1,110,2|8,0:0|0:0,0:0:0:0:
315,303,52918,1,0,0:0:0:0:
367,323,53140,2,0,P|421:315|455:274,1,110,2|8,0:0|0:0,0:0:0:0:
462,220,53807,2,0,B|440:198|484:138|461:115,1,110,0|0,0:0|0:0,0:0:0:0:
416,84,54473,2,0,L|361:80,1,55,8|0,0:0|0:0,0:0:0:0:
264,127,55140,6,0,P|224:140|184:134,1,82.5,0|0,0:0|0:0,0:0:0:0:
101,133,55807,2,0,P|85:170|87:211,1,82.5,2|0,0:0|0:0,0:0:0:0:
115,287,56473,1,0,0:0:0:0:
115,287,56696,2,0,P|170:297|224:292,1,110,2|8,0:0|0:0,0:0:0:0:
275,276,57362,2,0,P|307:232|300:179,1,110,0|0,0:0|0:0,0:0:0:0:
252,152,58029,6,0,L|197:148,2,55,8|0|2,0:0|0:0|0:0,0:0:0:0:
308,56,58918,2,0,L|362:52,2,55,8|0|2,0:0|0:0|0:0,0:0:0:0:
199,64,59807,1,8,0:0:0:0:
199,64,60029,2,0,P|147:75|96:56,1,110,0|0,0:0|0:0,0:0:0:0:
19,132,60918,2,0,L|22:241,1,110,0|0,0:0|0:0,0:0:0:0:
107,312,61807,5,0,0:0:0:0:
107,312,62029,2,0,P|161:304|212:325,1,110,2|8,0:0|0:0,0:0:0:0:
264,340,62696,1,0,0:0:0:0:
315,320,62918,2,0,P|340:271|334:217,2,110,2|8|2,0:0|0:0|0:0,0:0:0:0:
216,276,64251,1,2,0:0:0:0:
112,312,64696,1,2,0:0:0:0:
44,228,65140,1,0,0:0:0:0:
44,228,65584,6,0,P|64:177|56:123,1,110,6|8,0:0|0:0,0:0:0:0:
164,100,66473,2,0,L|273:103,1,110,2|8,0:0|0:0,0:0:0:0:
327,119,67140,1,0,0:0:0:0:
371,151,67362,2,0,P|388:203|379:257,1,110,2|8,0:0|0:0,0:0:0:0:
340,296,68029,2,0,B|318:318|258:274|235:297,1,110,0|0,0:0|0:0,0:0:0:0:
192,332,68696,2,0,L|151:368,1,55,8|0,0:0|0:0,0:0:0:0:
70,296,69362,6,0,B|87:277|87:277|107:224,1,82.5,0|0,0:0|0:0,0:0:0:0:
140,148,70029,2,0,B|158:165|158:165|211:185,1,82.5,2|0,0:0|0:0,0:0:0:0:
288,216,70696,1,0,0:0:0:0:
288,216,70918,2,0,P|342:219|384:185,1,110,2|8,0:0|0:0,0:0:0:0:
416,140,71584,2,0,L|423:249,1,110,0|0,0:0|0:0,0:0:0:0:
439,303,72251,6,0,P|464:316|491:323,2,55,8|0|2,0:0|0:0|0:0,0:0:0:0:
328,308,73140,2,0,P|305:323|285:342,2,55,8|0|2,0:0|0:0|0:0,0:0:0:0:
380,209,74029,2,0,P|378:181|371:155,2,55,8|0|2,0:0|0:0|0:0,0:0:0:0:
328,308,74918,1,8,0:0:0:0:
224,268,75362,2,0,P|170:255|116:264,1,110,2|8,0:0|0:0,0:0:0:0:
17,309,76251,6,0,L|27:199,1,110,2|8,0:0|0:0,0:0:0:0:
135,167,77140,2,0,L|124:57,2,110,8|8|0,0:0|0:0|0:0,0:0:0:0:
392,52,79140,6,0,L|446:55,1,55,4|2,0:0|0:0,0:0:0:0:
392,151,79807,6,0,P|343:176|290:168,1,110,2|8,0:0|0:0,0:0:0:0:
235,168,80473,1,0,0:0:0:0:
183,185,80696,2,0,P|158:233|168:286,1,110,2|8,0:0|0:0,0:0:0:0:
260,344,81584,2,0,L|369:347,2,110,2|8|2,0:0|0:0|0:0,0:0:0:0:
167,285,82918,1,8,0:0:0:0:
191,178,83362,6,0,P|241:158|293:170,1,110,2|0,0:0|0:0,0:0:0:0:
345,191,84029,1,2,0:0:0:0:
278,278,84473,2,0,L|223:282,1,55,2|8,0:0|0:0,0:0:0:0:
168,286,84918,1,2,0:0:0:0:
256,192,85140,12,0,87807,0:0:0:0:
