osu file format v13

[General]
AudioFilename: bluefield.mp3
AudioLeadIn: 0
PreviewTime: 49918
Countdown: 0
SampleSet: Soft
StackLeniency: 0.7
Mode: 0
LetterboxInBreaks: 0
WidescreenStoryboard: 0

[Editor]
DistanceSpacing: 1
BeatDivisor: 4
GridSize: 4
TimelineZoom: 1

[Metadata]
Title:Blue Field
TitleUnicode:ブルー・フィールド
Artist:Trident
ArtistUnicode:Trident
Creator:CloudSplash16
Version:Easy
Source:蒼き鋼のアルペジオ -アルス・ノヴァ-
Tags:aoki hagane no arpeggio of blue steel ars nova anime ending fuchigami mai numakura manami yamamura hibiku
BeatmapID:382626
BeatmapSetID:156120

[Difficulty]
HPDrainRate:2
CircleSize:3
OverallDifficulty:2
ApproachRate:3
SliderMultiplier:0.9
SliderTickRate:1

[Events]
//Background and Video events
0,0,"bg.jpg",0,0
Video,1248,"ed1v2.avi"
//Break Periods
//Storyboard Layer 0 (Background)
//Storyboard Layer 1 (Fail)
//Storyboard Layer 2 (Pass)
//Storyboard Layer 3 (Foreground)
//Storyboard Sound Samples
//Background Colour Transformations
3,100,163,162,255

[TimingPoints]
1585,444.444444444444,4,2,1,60,1,0
21140,-100,4,1,1,60,0,0
22473,-100,4,2,1,50,0,0
30140,-100,4,2,1,55,0,0
36696,-100,4,2,1,50,0,0
37140,-100,4,2,1,60,0,0
49584,-100,4,2,1,30,0,0
51362,-100,4,2,1,60,0,1
51473,-100,4,2,1,70,0,1
65140,-100,4,2,1,50,0,0
65584,-100,4,2,1,60,0,1
65696,-100,4,2,1,70,0,1
78029,-100,4,2,1,30,0,0
79807,-100,4,2,1,60,0,0
85140,-100,4,2,1,50,0,0
87807,-100,4,2,1,5,0,0

[Colours]
Combo1 : 128,128,192
Combo2 : 0,0,160

[HitObjects]
256,80,8696,6,0,P|308:84|372:188,1,180,2|2,0:0|0:0,0:0:0:0:
338,267,10029,1,8,0:0:0:0:
256,304,10473,2,0,P|204:300|140:196,1,180,2|2,0:0|0:0,0:0:0:0:
174,117,11807,1,8,0:0:0:0:
256,80,12251,6,0,B|324:104|396:72|396:72|419:99,2,180,2|2|2,0:0|0:0|0:0,0:0:0:0:
174,117,14473,1,8,0:0:0:0:
110,180,14918,2,0,P|104:228|112:276,1,90,2|8,0:0|0:0,0:0:0:0:
173,332,15807,6,0,P|217:342|265:330,1,90,2|8,0:0|0:0,0:0:0:0:
323,268,16696,2,0,P|366:258|410:268,1,90,2|8,0:0|0:0,0:0:0:0:
454,347,17584,2,0,P|410:356|367:347,1,90,2|8,0:0|0:0,0:0:0:0:
323,268,18473,2,0,L|297:173,1,90,2|8,0:0|0:0,0:0:0:0:
235,117,19362,6,0,P|168:112|104:156,2,135,2|0|8,0:0|0:0|0:0,0:0:0:0:
299,181,21140,1,0,0:0:0:0:
323,268,21584,1,2,0:2:0:0:
259,331,22029,2,0,B|214:337|214:337|170:331,1,90,0|4,0:0|0:0,0:0:0:0:
106,267,22918,6,0,L|82:180,1,90,2|2,0:0|0:0,0:0:0:0:
82,89,23807,1,2,0:0:0:0:
168,116,24251,1,2,0:0:0:0:
254,89,24696,2,0,P|324:69|392:98,2,135,2|0|2,0:0|0:0|0:0,0:0:0:0:
232,176,26473,6,0,L|240:280,1,90,2|2,0:0|0:0,0:0:0:0:
246,355,27362,1,2,0:0:0:0:
320,304,27807,1,2,0:0:0:0:
393,355,28251,2,0,P|436:364|480:355,2,90,2|2|2,0:0|0:0|0:0,0:0:0:0:
320,304,29584,1,2,0:0:0:0:
312,216,30029,6,0,L|305:126,1,90,6|8,0:0|0:0,0:0:0:0:
216,120,30918,2,0,L|223:210,1,90,2|8,0:0|0:0,0:0:0:0:
180,288,31807,2,0,P|110:308|42:279,2,135,2|0|8,0:0|0:0|0:0,0:0:0:0:
223,210,33584,6,0,L|216:120,2,90,2|8|2,0:0|0:0|0:0,0:0:0:0:
270,287,34918,1,8,0:0:0:0:
360,288,35362,2,0,P|413:171|328:77,1,270,2|4,0:0|0:0,0:0:0:0:
248,116,37140,5,2,0:0:0:0:
168,76,37584,2,0,L|78:69,2,90,2|2|2,0:0|0:0|0:0,0:0:0:0:
248,116,38918,2,0,P|257:160|248:203,1,90,2|2,0:0|0:0,0:0:0:0:
184,267,39807,2,0,P|140:276|97:267,1,90,2|2,0:0|0:0,0:0:0:0:
16,224,40696,5,2,0:0:0:0:
24,136,41140,2,0,L|31:46,2,90,2|2|2,0:0|0:0|0:0,0:0:0:0:
96,188,42473,2,0,P|139:197|183:188,1,90,2|2,0:0|0:0,0:0:0:0:
264,148,43362,2,0,P|307:138|351:148,1,90,2|8,0:0|0:0,0:0:0:0:
428,192,44251,5,2,0:0:0:0:
356,356,45140,2,0,L|216:332,1,135,2|0,0:0|0:0,0:0:0:0:
132,333,46251,2,0,P|88:342|44:332,2,90,0|0|0,0:0|0:0|0:0,0:0:0:0:
176,253,47584,6,0,L|198:119,1,135,0|2,0:0|0:0,0:0:0:0:
262,55,48696,2,0,P|305:45|349:55,2,90,2|2|0,0:0|0:0|0:0,0:0:0:0:
84,276,51362,6,0,P|127:285|170:275,1,90,6|8,0:0|0:0,0:0:0:0:
249,230,52251,2,0,P|292:219|335:229,1,90,2|8,0:0|0:0,0:0:0:0:
416,268,53140,1,2,0:0:0:0:
457,188,53584,2,0,P|467:144|457:101,2,90,2|8|2,0:0|0:0|0:0,0:0:0:0:
416,268,54918,6,0,P|406:311|416:354,2,90,2|8|2,0:0|0:0|0:0,0:0:0:0:
458,188,56251,1,8,0:0:0:0:
388,132,56696,2,0,P|302:114|232:167,1,180,2|2,0:0|0:0,0:0:0:0:
216,256,58029,1,8,0:0:0:0:
280,317,58473,6,0,P|323:327|367:316,1,90,2|8,0:0|0:0,0:0:0:0:
410,236,59362,2,0,P|366:225|323:237,1,90,2|8,0:0|0:0,0:0:0:0:
256,176,60251,2,0,L|230:81,1,90,2|8,0:0|0:0,0:0:0:0:
144,108,61140,2,0,L|167:194,1,90,2|8,0:0|0:0,0:0:0:0:
228,260,62029,6,0,P|312:243|342:162,2,180,2|2|2,0:0|0:0|0:0,0:0:0:0:
144,228,64251,2,0,P|101:219|58:229,1,90,2|2,0:0|0:0,0:0:0:0:
102,309,65140,1,2,0:0:0:0:
192,304,65584,6,0,L|281:300,1,90,6|8,0:0|0:0,0:0:0:0:
372,296,66473,1,2,0:0:0:0:
436,232,66918,1,8,0:0:0:0:
372,168,67362,2,0,P|308:146|244:163,2,135,2|0|8,0:0|0:0|0:0,0:0:0:0:
436,232,69140,6,0,L|444:324,1,90,2|8,0:0|0:0,0:0:0:0:
356,312,70029,2,0,P|312:304|268:313,1,90,2|8,0:0|0:0,0:0:0:0:
184,348,70918,1,2,0:0:0:0:
112,292,71362,1,8,0:0:0:0:
140,208,71807,2,0,P|183:198|227:206,1,90,2|8,0:0|0:0,0:0:0:0:
316,208,72696,6,0,L|323:118,1,90,2|8,0:0|0:0,0:0:0:0:
264,52,73584,1,2,0:0:0:0:
188,100,74029,2,0,B|160:116|160:116|108:92|60:108,2,135,8|0|2,0:0|0:0|0:0,0:0:0:0:
264,52,75807,1,8,0:0:0:0:
336,108,76251,6,0,L|343:197,1,90,2|8,0:0|0:0,0:0:0:0:
280,260,77140,2,0,L|287:349,2,90,8|8|0,0:0|0:0|0:0,0:0:0:0:
144,28,79362,6,0,P|100:36|68:67,1,90,2|2,0:0|0:0,0:0:0:0:
56,156,80251,2,0,L|63:245,1,90,10|10,0:0|0:0,0:0:0:0:
132,303,81140,1,8,0:0:0:0:
216,268,81584,2,0,B|256:256|304:276|304:276|348:264|357:209,1,180,2|2,0:0|0:0,0:0:0:0:
356,120,82918,1,8,0:0:0:0:
276,80,83362,6,0,L|145:115,1,135,2|2,0:0|0:0,0:0:0:0:
60,144,84473,1,2,0:0:0:0:
127,203,84918,1,2,0:0:0:0:
256,192,85140,12,0,87807,0:0:0:0:
