osu file format v13

[General]
AudioFilename: Trident - Blue Field [ED].mp3
AudioLeadIn: 0
PreviewTime: 48475
Countdown: 0
SampleSet: Soft
StackLeniency: 0.7
Mode: 0
LetterboxInBreaks: 0
WidescreenStoryboard: 0

[Editor]
DistanceSpacing: 1
BeatDivisor: 2
GridSize: 4
TimelineZoom: 1

[Metadata]
Title:Blue Field
TitleUnicode:ブルー・フィールド
Artist:Trident
ArtistUnicode:Trident
Creator:CelsiusLK
Version:Normal
Source:蒼き鋼のアルペジオ -アルス・ノヴァ-
Tags:ending arpeggio of steel ars nova aoki hagane no
BeatmapID:423988
BeatmapSetID:175968

[Difficulty]
HPDrainRate:4
CircleSize:3.5
OverallDifficulty:4
ApproachRate:5
SliderMultiplier:1.20000000596046
SliderTickRate:2

[Events]
//Background and Video events
Video,-300,"ccc.avi"
0,0,"rsz_aokihaganenoarpeggiofull1650014.jpg",0,0
//Break Periods
//Storyboard Layer 0 (Background)
//Storyboard Layer 1 (Fail)
//Storyboard Layer 2 (Pass)
//Storyboard Layer 3 (Foreground)
//Storyboard Sound Samples
//Background Colour Transformations
3,100,163,162,255

[TimingPoints]
7142,444.444444444444,4,2,1,60,1,0
19586,-100,4,2,2,60,0,0
20030,-100,4,2,2,25,0,0
21364,-100,4,2,1,45,0,0
28475,-100,4,2,1,55,0,0
28919,-100,4,2,1,60,0,0
29364,-100,4,2,1,55,0,0
29808,-100,4,2,1,60,0,0
32919,-100,4,2,1,65,0,0
35586,-100,4,2,2,65,0,0
36030,-100,4,2,1,40,0,0
43141,-100,4,2,1,50,0,0
49808,-100,4,2,1,55,0,1
56475,-100,4,2,1,50,0,1
62253,-100,4,2,1,50,0,0
63586,-100,4,2,2,30,0,0
64030,-100,4,2,1,50,0,1
68030,-100,4,2,2,30,0,1
68697,-100,4,2,1,55,0,1
70030,-100,4,2,1,50,0,1
71141,-100,4,2,2,50,0,1
71253,-100,4,2,1,50,0,1
72030,-100,4,2,1,53,0,1
74697,-100,4,2,1,70,0,1
76030,-100,4,2,1,55,0,1
76253,-100,4,2,1,55,0,0
78253,-100,4,2,1,60,0,0
83364,-100,4,2,2,25,0,0

[Colours]
Combo1 : 234,234,234
Combo2 : 228,148,192
Combo3 : 191,191,255
Combo4 : 0,128,64
Combo5 : 176,255,176
Combo6 : 13,104,138

[HitObjects]
97,286,7141,6,0,P|157:280|208:251,1,120.000000596046,4|8,0:0|0:0,0:0:0:0:
305,321,8030,2,0,P|334:269|340:209,1,120.000000596046,0|8,0:0|0:0,0:0:0:0:
312,156,8697,1,2,0:0:0:0:
306,98,8919,2,0,P|366:98|421:124,2,120.000000596046,0|8|0,0:0|0:0|0:0,0:0:0:0:
196,47,10253,1,8,0:0:0:0:
103,122,10697,6,0,P|90:177|110:237,1,120.000000596046,0|8,0:0|0:0,0:0:0:0:
210,300,11586,2,0,P|229:243|216:186,1,120.000000596046,0|8,0:0|0:0,0:0:0:0:
264,148,12253,1,2,0:0:0:0:
323,131,12475,2,0,P|383:161|445:147,2,120.000000596046,0|8|0,0:0|0:0|0:0,0:0:0:0:
399,38,13808,1,8,0:0:0:0:
280,56,14253,6,0,L|136:90,1,120.000000596046,0|8,0:0|0:0,0:0:0:0:
142,201,15141,2,0,L|286:235,1,120.000000596046,0|8,0:0|0:0,0:0:0:0:
316,244,15808,1,2,0:0:0:0:
374,261,16030,1,0,0:0:0:0:
457,174,16475,1,8,0:0:0:0:
383,79,16919,1,0,0:0:0:0:
294,159,17364,1,8,0:0:0:0:
204,79,17808,6,0,P|148:96|88:73,1,120.000000596046,0|8,0:0|0:0,0:0:0:0:
51,189,18697,2,0,P|32:216|32:264,2,60.000000298023,0|0|8,0:0|0:0|0:0,0:0:0:0:
151,260,19586,6,0,P|209:282|275:262,1,120.000000596046,2|0,0:0|0:0,0:0:0:0:
320,244,20253,1,2,0:0:0:0:
380,248,20475,2,0,P|358:186|347:178,2,60.000000298023,2|2|8,0:0|0:0|0:0,0:0:0:0:
499,275,21364,5,0,0:0:0:0:
404,348,21808,1,8,0:0:0:0:
303,284,22253,2,0,L|188:220,1,120.000000596046,0|8,0:0|0:0,0:0:0:0:
92,172,23141,6,0,P|42:135|26:124,2,60.000000298023,2|0|8,0:0|0:0|0:0,0:0:0:0:
128,120,23808,1,0,0:0:0:0:
144,64,24030,1,0,0:0:0:0:
192,96,24253,2,0,L|248:140,1,60.000000298023,2|8,0:0|0:0,0:0:0:0:
352,88,24919,6,0,P|411:86|464:121,1,120.000000596046,2|8,0:0|0:0,0:0:0:0:
480,176,25586,1,0,0:0:0:0:
473,239,25808,1,0,0:0:0:0:
355,262,26253,1,8,0:0:0:0:
261,336,26697,6,0,L|256:264,1,60.000000298023,2|0,0:0|0:0,0:0:0:0:
251,216,27141,2,0,P|212:263|192:272,1,60.000000298023,8|0,0:0|0:0,0:0:0:0:
160,296,27586,1,0,0:0:0:0:
103,310,27808,2,0,L|18:294,1,60.000000298023,2|8,0:0|0:0,0:0:0:0:
95,188,28475,6,0,P|106:129|153:92,1,120.000000596046,4|8,0:0|0:0,0:0:0:0:
208,76,29141,1,0,0:0:0:0:
270,84,29364,2,0,P|315:121|325:179,1,120.000000596046,0|8,0:0|0:0,0:0:0:0:
352,233,30030,1,0,0:0:0:0:
325,287,30253,2,0,B|285:246|247:287|205:250,1,120.000000596046,0|8,0:0|0:0,0:0:0:0:
97,224,31141,1,0,0:0:0:0:
21,142,31586,1,8,0:0:0:0:
105,56,32030,5,0,0:0:0:0:
163,71,32253,2,0,P|196:60|232:60,1,60.000000298023,0|8,0:0|0:0,0:0:0:0:
276,84,32697,1,0,0:0:0:0:
332,64,32919,1,0,0:0:0:0:
420,148,33364,1,8,0:0:0:0:
411,271,33808,6,0,P|344:296|288:288,1,120.000000596046,0|0,0:0|0:0,0:0:0:0:
236,188,34697,2,0,P|170:218|137:263,1,120.000000596046,0|8,0:0|0:0,0:0:0:0:
32,296,35586,5,4,0:0:0:0:
152,332,36030,2,0,L|272:272,1,120.000000596046,8|0,0:0|0:0,0:0:0:0:
368,224,36919,1,8,0:0:0:0:
440,128,37364,1,0,0:0:0:0:
360,40,37808,1,8,0:0:0:0:
272,120,38253,2,0,P|224:160|168:168,1,120.000000596046,0|8,0:0|0:0,0:0:0:0:
112,152,38919,1,0,0:0:0:0:
80,104,39141,6,0,P|72:72|32:48,1,60.000000298023,0|0,0:0|0:0,0:0:0:0:
0,88,39586,1,8,0:0:0:0:
32,208,40030,1,0,0:0:0:0:
88,312,40475,1,8,0:0:0:0:
176,232,40919,1,0,0:0:0:0:
224,344,41364,2,0,P|282:334|344:304,1,120.000000596046,8|0,0:0|0:0,0:0:0:0:
448,264,42253,2,0,L|392:208,1,60.000000298023,8|0,0:0|0:0,0:0:0:0:
368,176,42697,6,0,P|399:125|408:66,1,120.000000596046,2|8,0:0|0:0,0:0:0:0:
344,64,43364,1,0,0:0:0:0:
288,80,43586,2,0,L|240:136,1,60.000000298023,0|0,0:0|0:0,0:0:0:0:
216,176,44030,2,0,L|232:240,1,60.000000298023,8|0,0:0|0:0,0:0:0:0:
232,296,44475,2,0,P|166:292|106:258,1,120.000000596046,0|8,0:0|0:0,0:0:0:0:
96,152,45364,1,0,0:0:0:0:
216,176,45808,1,8,0:0:0:0:
312,248,46253,6,0,L|376:274,1,60.000000298023,0|2,0:0|0:0,0:0:0:0:
347,214,46697,2,0,L|408:189,1,60.000000298023,8|2,0:0|0:0,0:0:0:0:
348,164,47141,2,0,L|392:101,1,60.000000298023,0|2,0:0|0:0,0:0:0:0:
324,120,47586,2,0,L|336:52,1,60.000000298023,8|0,0:0|0:0,0:0:0:0:
284,28,48030,5,4,0:0:0:0:
176,80,48475,2,0,P|119:92|69:127,2,120.000000596046,2|0|2,0:0|0:0|0:0,0:0:0:0:
208,192,49808,5,4,0:0:0:0:
307,254,50253,1,8,0:0:0:0:
408,194,50697,1,2,0:0:0:0:
307,123,51141,1,8,0:0:0:0:
208,192,51586,2,0,P|184:245|197:303,1,120.000000596046,2|8,0:0|0:0,0:0:0:0:
248,336,52253,1,2,0:0:0:0:
307,314,52475,2,0,L|307:254,1,60.000000298023,0|0,0:0|0:0,0:0:0:0:
294,195,52919,2,0,P|289:164|270:129,1,60.000000298023,8|0,0:0|0:0,0:0:0:0:
236,93,53364,5,2,0:0:0:0:
144,168,53808,1,8,0:0:0:0:
32,120,54253,2,0,P|56:80|128:48,1,120.000000596046,2|8,0:0|0:0,0:0:0:0:
236,93,55141,1,2,0:0:0:0:
272,136,55364,1,2,0:0:0:0:
312,176,55586,2,0,P|352:220|410:231,1,120.000000596046,8|2,0:0|0:0,0:0:0:0:
496,144,56475,1,8,0:0:0:0:
424,48,56919,6,0,P|369:74|312:65,1,120.000000596046,2|8,0:0|0:0,0:0:0:0:
192,48,57808,1,0,0:0:0:0:
80,88,58253,1,8,0:0:0:0:
92,148,58475,1,2,0:0:0:0:
120,200,58697,2,0,L|88:264,1,60.000000298023,2|2,0:0|0:0,0:0:0:0:
152,256,59141,2,0,L|184:192,1,60.000000298023,8|2,0:0|0:0,0:0:0:0:
232,176,59586,2,0,P|264:224|309:269,1,120.000000596046,2|8,0:0|0:0,0:0:0:0:
384,176,60475,5,0,0:0:0:0:
464,88,60919,1,8,0:0:0:0:
464,208,61364,1,0,0:0:0:0:
376,296,61808,2,0,L|314:258,1,60.000000298023,8|2,0:0|0:0,0:0:0:0:
272,232,62253,1,2,0:0:0:0:
168,296,62697,2,0,P|110:284|84:226,2,120.000000596046,8|0|4,0:0|0:0|0:0,0:0:0:0:
272,232,64030,6,0,P|305:184|370:181,1,120.000000596046,4|8,0:0|0:0,0:0:0:0:
480,184,64919,2,0,P|434:147|416:91,1,120.000000596046,2|8,0:0|0:0,0:0:0:0:
424,32,65586,1,2,0:0:0:0:
368,56,65808,1,0,0:0:0:0:
312,48,66030,1,2,0:0:0:0:
256,32,66253,1,8,0:0:0:0:
208,64,66475,2,0,L|8:112,1,180.000000894069,2|8,0:0|0:0,0:0:0:0:
32,224,67586,5,2,0:0:0:0:
144,184,68030,2,0,P|196:211|264:194,1,120.000000596046,2|2,0:0|0:0,0:0:0:0:
352,128,68919,1,8,0:0:0:0:
440,208,69364,2,0,P|456:271|445:329,1,120.000000596046,2|8,0:0|0:0,0:0:0:0:
336,272,70253,1,0,0:0:0:0:
336,272,70697,1,8,0:0:0:0:
240,200,71141,5,4,0:0:0:0:
128,240,71586,1,8,0:0:0:0:
160,352,72030,2,0,P|208:315|273:315,1,120.000000596046,2|8,0:0|0:0,0:0:0:0:
321,342,72697,2,0,P|381:326|401:211,1,180.000000894069,0|8,0:0|0:0,0:0:0:0:
327,131,73808,1,2,0:0:0:0:
225,67,74253,1,8,0:0:0:0:
149,160,74697,5,2,0:0:0:0:
204,180,74919,2,0,L|281:193,1,60.000000298023,2|8,0:0|0:0,0:0:0:0:
320,212,75364,1,0,0:0:0:0:
276,252,75586,2,0,L|199:265,1,60.000000298023,0|0,0:0|0:0,0:0:0:0:
156,272,76030,1,8,0:0:0:0:
66,339,76475,2,0,B|118:369|118:369|144:355|144:355|172:369|172:369|197:352|197:352|223:366|223:366|281:375|339:353|374:275,1,360.000001788138,0|8,0:0|0:0,0:0:0:0:
445,187,78253,5,4,0:0:0:0:
347,117,78697,1,8,0:0:0:0:
256,192,79141,2,0,P|248:152|208:72,1,120.000000596046,2|8,0:0|0:0,0:0:0:0:
160,56,79808,1,2,0:0:0:0:
100,52,80030,1,0,0:0:0:0:
72,168,80475,1,8,0:0:0:0:
136,264,80919,1,0,0:0:0:0:
250,306,81364,1,8,0:0:0:0:
359,258,81808,6,0,L|467:192,1,120.000000596046,0|8,0:0|0:0,0:0:0:0:
455,135,82475,2,0,P|396:151|338:126,1,120.000000596046,8|8,0:0|0:0,0:0:0:0:
256,192,83364,12,4,86253,0:0:0:0:
