osu file format v14

[General]
AudioFilename: optc.mp3
AudioLeadIn: 0
PreviewTime: 76603
Countdown: 0
SampleSet: Normal
StackLeniency: 0.7
Mode: 0
LetterboxInBreaks: 0
WidescreenStoryboard: 0

[Editor]
Bookmarks: 19960,26673,33386,46813,61918,68631,77022,90449,103876
DistanceSpacing: 1.2
BeatDivisor: 4
GridSize: 32
TimelineZoom: 2.2

[Metadata]
Title:Trancing Pulse
TitleUnicode:Trancing Pulse
Artist:Triad Primus
ArtistUnicode:Triad Primus
Creator:Shad0w1and
Version:Todoke
Source:アイドルマスター シンデレラガールズ スターライトステージ
Tags:THE iDOLM@STER CINDERELLA GIRLS STARLIGHT STAGE idolmaster im@s Karen Hojo Shibuya Rin Kamiya Nao StarrStyx Narcissu Hyogo Kita m1223961117 DreaM117er
BeatmapID:896898
BeatmapSetID:409958

[Difficulty]
HPDrainRate:5.5
CircleSize:4
OverallDifficulty:8.4
ApproachRate:9.2
SliderMultiplier:1.8
SliderTickRate:1

[Events]
//Background and Video events
Video,0,"optc.flv"
0,0,"BG1.jpg",0,0
//Break Periods
//Storyboard Layer 0 (Background)
//Storyboard Layer 1 (Fail)
//Storyboard Layer 2 (Pass)
//Storyboard Layer 3 (Foreground)
//Storyboard Sound Samples

[TimingPoints]
-806,530.973451327434,4,2,1,60,1,0
16714,491.803278688525,4,2,1,60,1,0
17943,472.44094488189,4,2,1,60,1,0
18415,458.015267175573,4,2,1,60,1,0
18873,447.761194029851,4,2,1,60,1,0
19320,431.654676258993,4,2,1,60,1,0
19751,419.58041958042,4,2,1,60,1,0
19960,419.58041958042,4,2,1,70,1,0
26253,-100,4,2,1,40,0,0
26673,-100,4,1,1,70,0,0
33386,-117.647058823529,4,2,1,70,0,0
46813,-105.263157894737,4,1,1,70,0,0
61918,-133.333333333333,4,1,1,70,0,0
68211,-133.333333333333,4,1,1,40,0,0
68631,-111.111111111111,4,1,1,70,0,0
72617,-111.111111111111,4,1,1,40,0,0
72827,-111.111111111111,4,1,1,70,0,0
73036,-111.111111111111,4,1,1,40,0,0
73246,-111.111111111111,4,1,1,70,0,0
73456,-111.111111111111,4,1,1,40,0,0
73666,-111.111111111111,4,1,1,70,0,0
76603,-111.111111111111,4,1,1,40,0,0
77022,-90.9090909090909,4,1,1,80,0,1
86778,-90.9090909090909,4,1,1,50,0,1
87092,-90.9090909090909,4,1,1,80,0,1
90029,-90.9090909090909,4,1,1,50,0,1
90449,-90.9090909090909,4,1,1,80,0,1
96848,-90.9090909090909,4,1,1,50,0,1
97162,-90.9090909090909,4,1,1,80,0,1
100939,-100,4,1,1,70,0,0
103141,-100,4,1,1,40,0,0
103456,-100,4,1,1,70,0,0
103561,-100,4,1,1,40,0,0
103876,-100,4,1,1,70,0,0
109855,-100,4,1,1,40,0,0
110169,-100,4,1,1,70,0,0
110274,-100,4,1,1,40,0,0
110589,-100,4,1,1,70,0,0
115624,-100,4,1,1,30,0,0

[Colours]
Combo1 : 255,128,255
Combo2 : 128,255,255
Combo3 : 255,255,128
Combo4 : 128,128,255

[HitObjects]
158,193,786,6,0,L|147:248,1,45
251,146,1052,2,0,L|233:84,1,45
247,254,1317,6,0,P|307:273|385:239,1,135,2|0,0:0|0:0,0:0:0:0:
341,63,2114,1,0,0:0:0:0:
237,133,2379,2,0,B|146:146|146:146|103:126,1,135,2|0,0:0|0:0,0:0:0:0:
257,13,3176,1,0,0:0:0:0:
331,207,3441,5,2,0:0:0:0:
149,261,3840,1,0,0:0:0:0:
202,79,4238,1,0,0:0:0:0:
341,126,4503,2,0,P|356:209|317:307,1,180,2|0,0:0|0:0,0:0:0:0:
37,210,5565,6,0,P|90:208|183:191,1,135,2|0,0:0|0:0,0:0:0:0:
237,17,6362,1,0,0:0:0:0:
92,44,6627,2,0,P|94:118|98:178,1,135,2|0,0:0|0:0,0:0:0:0:
255,284,7424,1,0,0:0:0:0:
395,145,7689,6,0,L|233:143,1,135,2|0,0:0|0:0,0:0:0:0:
84,214,8486,1,0,0:0:0:0:
167,337,8751,2,0,L|269:326,1,90,2|0,0:0|0:0,0:0:0:0:
395,145,9282,2,0,L|371:211,1,45
422,259,9547,2,0,L|377:310,1,45
256,327,9813,6,0,P|245:257|250:139,1,180,2|0,0:0|0:0,0:0:0:0:
465,108,10609,1,0,0:0:0:0:
465,108,10742,1,0,0:0:0:0:
465,108,10875,2,0,B|477:168|451:218|451:218|421:199|381:205,1,180,2|0,0:0|0:0,0:0:0:0:
57,316,11937,5,2,0:0:0:0:
366,282,12335,1,0,0:0:0:0:
176,54,12733,1,0,0:0:0:0:
216,384,12999,5,2,0:0:0:0:
340,115,13397,1,0,0:0:0:0:
51,159,13795,1,0,0:0:0:0:
375,355,14326,5,2,0:0:0:0:
256,192,14592,1,2,0:0:0:0:
256,192,14724,12,0,16185,0:0:0:0:
157,153,16714,6,0,L|140:250,1,90
264,220,17205,2,0,L|248:308,1,90
372,286,17697,1,0,0:0:0:0:
286,105,17943,6,0,L|275:173,1,45,2|0,0:0|0:0,0:0:0:0:
216,213,18179,2,0,L|204:284,1,45
157,110,18415,6,0,L|146:178,1,45
226,5,18644,2,0,L|214:76,1,45
216,213,18873,5,2,0:0:0:0:
251,247,18984,1,0,0:0:0:0:
299,255,19096,1,0,0:0:0:0:
347,246,19208,1,0,0:0:0:0:
378,204,19320,5,0,0:0:0:0:
342,169,19427,1,0,0:0:0:0:
323,123,19535,1,0,0:0:0:0:
327,73,19643,1,0,0:0:0:0:
376,61,19751,5,0,0:0:0:0:
423,50,19855,1,0,0:0:0:0:
471,38,19960,5,6,0:1:0:0:
96,23,20589,1,0,0:0:0:0:
71,61,20694,1,0,0:0:0:0:
43,97,20799,1,0,0:0:0:0:
400,239,21428,1,0,0:0:0:0:
386,196,21533,1,0,0:0:0:0:
375,152,21638,5,2,0:1:0:0:
139,244,21953,1,0,0:0:0:0:
350,384,22267,1,0,0:0:0:0:
274,130,22477,5,2,0:1:0:0:
484,292,22792,1,8,0:3:0:0:
235,384,23106,1,8,0:3:0:0:
395,29,23316,5,6,0:1:0:0:
116,143,23946,1,0,0:0:0:0:
130,185,24050,1,0,0:0:0:0:
145,227,24155,1,2,0:0:0:0:
476,184,24785,1,0,0:0:0:0:
440,157,24890,1,0,0:0:0:0:
404,129,24994,5,2,0:1:0:0:
289,325,25309,1,8,0:3:0:0:
512,319,25624,1,8,0:3:0:0:
303,149,25834,2,0,B|257:133|257:133|151:161,1,135,4|0,0:3|0:0,0:0:0:0:
94,233,26253,5,10,0:1:0:0:
88,277,26358,1,10,0:1:0:0:
95,321,26463,1,10,0:1:0:0:
117,360,26568,1,10,0:1:0:0:
153,384,26673,6,0,L|255:355,1,90,6|0,0:0|0:0,0:0:0:0:
391,130,27092,2,0,L|287:151,1,90,8|0,0:0|0:0,0:0:0:0:
191,170,27407,1,0,0:0:0:0:
191,170,27512,2,0,L|179:72,1,90,2|0,0:0|0:0,0:0:0:0:
13,263,27932,5,8,0:0:0:0:
53,245,28036,1,4,0:3:0:0:
98,246,28141,1,4,0:3:0:0:
141,258,28246,1,4,0:3:0:0:
176,285,28351,6,0,L|138:366,1,90,2|0,0:0|0:0,0:0:0:0:
294,289,28666,1,0,0:0:0:0:
294,289,28771,2,0,L|253:379,1,90,8|0,0:0|0:0,0:0:0:0:
411,287,29085,1,0,0:0:0:0:
411,287,29190,5,2,0:0:0:0:
337,12,29505,1,0,0:0:0:0:
337,12,29610,1,8,0:0:0:0:
183,145,29820,1,0,0:0:0:0:
323,307,30029,6,0,L|423:282,1,90,2|0,0:0|0:0,0:0:0:0:
512,83,30449,2,0,L|412:107,1,90,8|0,0:0|0:0,0:0:0:0:
335,128,30764,1,0,0:0:0:0:
335,128,30869,5,2,0:0:0:0:
212,299,31183,1,0,0:0:0:0:
212,299,31288,2,0,L|125:277,1,90,8|0,0:0|0:0,0:0:0:0:
333,384,31708,5,2,0:0:0:0:
512,0,32127,1,8,0:0:0:0:
263,218,32547,5,2,0:0:0:0:
420,315,32757,1,2,0:2:0:0:
325,78,32966,1,8,0:0:0:0:
476,122,33176,1,0,0:0:0:0:
263,218,33386,6,0,L|135:192,1,114.750002188683,6|0,0:1|0:0,0:0:0:0:
85,286,33806,2,0,L|186:307,1,76.5000014591217,4|0,0:3|0:0,0:0:0:0:
413,309,34225,2,0,P|437:246|408:145,1,153.000002918243,2|4,0:1|0:3,0:0:0:0:
150,195,35064,6,0,B|94:218|94:218|2:205,1,153.000002918243,2|4,0:1|0:3,0:0:0:0:
236,95,35694,1,0,0:0:0:0:
256,127,35799,1,0,0:0:0:0:
278,158,35904,2,0,L|260:334,1,153.000002918243,2|4,0:1|0:3,0:0:0:0:
399,215,36533,1,0,0:0:0:0:
150,195,36743,6,0,B|77:186|77:186|41:153,1,114.750002188683,2|0,0:1|0:0,0:0:0:0:
85,286,37162,2,0,L|79:372,1,76.5000014591217,4|0,0:3|0:0,0:0:0:0:
270,240,37582,2,0,P|336:232|429:235,1,153.000002918243,2|4,0:1|0:3,0:0:0:0:
219,125,38421,6,0,P|145:119|94:54,1,153.000002918243,2|4,0:1|0:3,0:0:0:0:
20,178,39051,1,0,0:0:0:0:
26,215,39156,1,0,0:0:0:0:
29,252,39260,2,0,L|20:311,1,38.2500007295609,2|0,0:1|0:0,0:0:0:0:
148,342,39470,2,0,L|145:295,1,38.2500007295609
267,242,39680,2,0,L|264:287,1,38.2500007295609,2|0,0:1|0:0,0:0:0:0:
383,352,39890,2,0,L|380:313,1,38.2500007295609
454,224,40099,6,0,P|381:230|273:213,1,153.000002918243,2|4,0:1|0:3,0:0:0:0:
247,41,40729,1,0,0:0:0:0:
209,236,40939,1,2,0:1:0:0:
402,117,41148,1,0,0:0:0:0:
358,311,41358,1,4,0:3:0:0:
261,110,41568,1,0,0:0:0:0:
512,69,41778,6,0,P|515:167|472:218,1,153.000002918243,2|4,0:1|0:3,0:0:0:0:
269,253,42407,1,0,0:0:0:0:
231,247,42512,1,0,0:0:0:0:
192,242,42617,2,0,L|90:226,1,76.5000014591217,2|0,0:1|0:0,0:0:0:0:
261,110,43036,2,0,L|361:124,1,76.5000014591217,4|0,0:3|0:0,0:0:0:0:
133,338,43456,5,2,0:1:0:0:
127,305,43876,2,0,L|114:213,1,76.5000014591217,4|0,0:3|0:0,0:0:0:0:
88,56,44295,2,0,P|150:80|255:61,1,153.000002918243,2|4,0:1|0:3,0:0:0:0:
0,211,45134,5,2,0:1:0:0:
316,384,45449,1,2,0:1:0:0:
352,29,45764,1,2,0:1:0:0:
313,29,45869,1,0,0:0:0:0:
275,29,45973,6,0,L|240:5,1,38.2500007295609,2|0,0:0|0:0,0:0:0:0:
201,122,46183,2,0,L|155:150,1,38.2500007295609
165,272,46393,1,2,0:0:0:0:
206,305,46498,1,0,0:0:0:0:
259,310,46603,1,0,0:0:0:0:
310,293,46708,1,0,0:0:0:0:
376,213,46813,6,0,L|236:201,1,128.249996575356,6|0,0:0|0:0,0:0:0:0:
72,186,47232,2,0,L|164:194,1,85.4999977169037,8|0,0:0|0:0,0:0:0:0:
302,301,47652,2,0,P|299:349|285:384,1,85.4999977169037,2|0,0:0|0:0,0:0:0:0:
201,110,48071,2,0,P|200:66|215:17,1,85.4999977169037,8|0,0:0|0:0,0:0:0:0:
512,103,48491,6,0,B|468:122|468:122|363:99,1,128.249996575356,2|0,0:0|0:0,0:0:0:0:
300,81,48911,1,8,0:0:0:0:
184,217,49120,1,0,0:0:0:0:
233,229,49225,1,0,0:0:0:0:
282,241,49330,2,0,B|285:308,2,42.7499988584519,2|0|0,0:0|0:0|0:0,0:0:0:0:
300,81,49750,5,8,0:0:0:0:
329,50,49855,1,0,0:0:0:0:
366,30,49960,1,0,0:0:0:0:
407,21,50064,1,0,0:0:0:0:
464,91,50169,6,0,L|460:252,1,128.249996575356,2|0,0:0|0:0,0:0:0:0:
352,302,50589,2,0,L|355:204,1,85.4999977169037,8|0,0:0|0:0,0:0:0:0:
183,138,51008,2,0,L|178:224,1,85.4999977169037,2|0,0:0|0:0,0:0:0:0:
433,122,51428,2,0,L|434:242,1,85.4999977169037,8|0,0:0|0:0,0:0:0:0:
89,67,51848,6,0,B|84:164|84:164|121:144,1,128.249996575356,2|0,0:0|0:0,0:0:0:0:
112,150,52267,1,8,0:0:0:0:
16,283,52477,2,0,L|27:359,1,42.7499988584519
112,264,52687,5,2,0:0:0:0:
158,242,52792,1,0,0:0:0:0:
208,233,52897,1,0,0:0:0:0:
258,237,53001,1,0,0:0:0:0:
307,251,53106,2,0,L|372:286,1,42.7499988584519,8|0,0:0|0:0,0:0:0:0:
496,261,53316,2,0,L|454:237,1,42.7499988584519
355,143,53526,6,0,L|343:289,1,128.249996575356,2|0,0:0|0:0,0:0:0:0:
280,371,53946,2,0,L|220:390,1,42.7499988584519,8|0,0:0|0:0,0:0:0:0:
188,278,54155,2,0,L|124:268,1,42.7499988584519
29,320,54365,2,0,L|32:229,1,85.4999977169037,2|0,0:0|0:0,0:0:0:0:
65,194,54680,1,0,0:0:0:0:
99,155,54785,2,0,L|101:53,1,85.4999977169037,8|0,0:0|0:0,0:0:0:0:
327,141,55204,6,0,L|241:144,1,85.4999977169037,2|0,0:0|0:0,0:0:0:0:
210,185,55519,1,0,0:0:0:0:
180,226,55624,2,0,L|186:324,1,85.4999977169037,8|0,0:0|0:0,0:0:0:0:
388,346,56043,2,0,L|401:239,1,85.4999977169037,2|0,0:0|0:0,0:0:0:0:
405,209,56358,1,0,0:0:0:0:
410,157,56463,1,8,0:0:0:0:
185,311,56673,1,0,0:0:0:0:
236,309,56778,1,0,0:0:0:0:
287,307,56883,5,2,0:0:0:0:
60,20,57302,1,2,0:0:0:0:
265,31,57512,1,2,0:0:0:0:
79,327,57932,1,2,0:0:0:0:
283,223,58141,1,2,0:0:0:0:
128,163,58351,6,0,P|118:210|124:262,1,85.4999977169037,2|0,0:0|0:0,0:0:0:0:
275,377,58771,1,0,0:0:0:0:
325,366,58876,1,0,0:0:0:0:
373,350,58980,2,0,L|378:258,1,85.4999977169037,8|0,0:0|0:0,0:0:0:0:
127,55,59400,5,2,0:0:0:0:
168,84,59504,1,0,0:0:0:0:
220,94,59610,1,0,0:0:0:0:
270,82,59714,1,0,0:0:0:0:
311,48,59820,5,8,0:0:0:0:
288,95,59924,1,0,0:0:0:0:
288,147,60029,1,0,0:0:0:0:
310,195,60134,1,0,0:0:0:0:
352,229,60239,5,2,0:0:0:0:
299,222,60343,1,0,0:0:0:0:
247,216,60448,1,0,0:0:0:0:
194,209,60553,1,0,0:0:0:0:
181,261,60659,5,8,0:0:0:0:
142,297,60763,1,0,0:0:0:0:
92,308,60869,1,2,0:0:0:0:
42,292,60973,1,0,0:0:0:0:
96,206,61078,5,2,0:0:0:0:
367,321,61358,1,2,0:0:0:0:
363,26,61638,1,2,0:0:0:0:
260,187,61918,6,0,L|333:198,1,67.5000025749208,12|0,0:2|0:0,0:0:0:0:
346,229,62547,1,2,0:0:0:0:
265,217,62757,2,0,L|114:194,1,135.000005149842,2|8,0:0|0:0,0:0:0:0:
0,292,63596,6,0,L|83:304,1,67.5000025749208,2|0,0:0|0:0,0:0:0:0:
223,95,64225,1,2,0:0:0:0:
303,107,64435,2,0,L|437:128,1,135.000005149842,2|8,0:0|0:0,0:0:0:0:
488,190,65064,1,0,0:0:0:0:
408,206,65274,6,0,L|322:194,1,67.5000025749208,2|0,0:0|0:0,0:0:0:0:
236,321,65904,1,2,0:0:0:0:
316,310,66113,1,2,0:0:0:0:
197,199,66533,2,0,L|169:288,1,67.5000025749208,8|0,0:0|0:0,0:0:0:0:
122,191,66953,6,0,L|140:327,1,135.000005149842,2|0,0:0|0:0,0:0:0:0:
310,314,67582,1,2,0:0:0:0:
327,277,67687,1,0,0:0:0:0:
342,239,67792,2,0,L|430:234,1,67.5000025749208,2|0,0:0|0:0,0:0:0:0:
213,317,68211,5,8,0:0:0:0:
194,280,68316,1,8,0:0:0:0:
189,239,68421,1,8,0:0:0:0:
197,199,68526,1,8,0:0:0:0:
223,158,68631,6,0,L|345:152,1,121.499996292114,2|0,0:0|0:0,0:0:0:0:
392,149,69050,1,8,0:0:0:0:
189,239,69260,1,0,0:0:0:0:
141,250,69365,1,0,0:0:0:0:
93,259,69470,2,0,L|14:230,1,80.9999975280763,2|0,0:0|0:0,0:0:0:0:
158,367,69890,2,0,L|253:344,1,80.9999975280763,8|0,0:0|0:0,0:0:0:0:
454,237,70309,6,0,P|393:259|313:229,1,121.499996292114,2|0,0:0|0:0,0:0:0:0:
298,219,70729,1,8,0:0:0:0:
128,69,70939,1,0,0:0:0:0:
92,36,71043,1,0,0:0:0:0:
58,1,71148,2,0,L|61:137,1,121.499996292114,2|0,0:0|0:0,0:0:0:0:
137,257,71568,5,8,0:0:0:0:
211,128,71778,1,0,0:0:0:0:
0,259,71987,1,2,0:0:0:0:
355,371,72407,1,8,0:0:0:0:
203,225,72617,1,2,0:0:0:0:
207,177,72722,1,2,0:0:0:0:
211,128,72827,5,8,0:0:0:0:
347,253,73036,1,8,0:0:0:0:
351,301,73141,1,8,0:0:0:0:
355,350,73246,5,2,0:0:0:0:
488,229,73456,1,8,0:0:0:0:
484,181,73561,1,8,0:0:0:0:
480,132,73666,5,2,0:0:0:0:
301,134,73876,2,0,L|302:192,1,40.4999987640381
235,236,74085,1,8,0:0:0:0:
195,263,74190,1,0,0:0:0:0:
146,266,74295,1,0,0:0:0:0:
100,249,74400,1,0,0:0:0:0:
58,193,74505,5,2,0:0:0:0:
61,124,74610,1,0,0:0:0:0:
105,71,74715,1,0,0:0:0:0:
172,55,74820,1,0,0:0:0:0:
236,81,74925,5,8,0:0:0:0:
100,249,75134,1,0,0:0:0:0:
355,384,75344,5,2,0:0:0:0:
159,157,75659,1,2,0:0:0:0:
437,121,75973,1,2,0:0:0:0:
280,310,76183,5,2,0:0:0:0:
232,301,76288,1,4,0:3:0:0:
183,293,76393,1,4,0:3:0:0:
134,285,76498,1,4,0:3:0:0:
85,277,76603,6,8,L|96:305,7,20.2499993820191
121,210,77022,6,0,L|145:106,1,99.0000030212403,6|0,0:0|0:0,0:0:0:0:
55,139,77337,1,0,0:0:0:0:
32,230,77442,2,0,L|76:347,1,99.0000030212403,8|0,0:0|0:0,0:0:0:0:
303,123,77862,2,0,L|402:123,1,99.0000030212403,2|0,0:0|0:0,0:0:0:0:
461,121,78176,1,0,0:0:0:0:
461,121,78281,1,8,0:0:0:0:
214,10,78491,1,0,0:0:0:0:
110,201,78701,6,0,L|145:294,1,99.0000030212403,2|0,0:0|0:0,0:0:0:0:
171,346,79015,1,0,0:0:0:0:
171,346,79120,1,8,0:0:0:0:
0,221,79330,1,0,0:0:0:0:
180,105,79540,2,0,L|294:97,1,99.0000030212403,2|0,0:0|0:0,0:0:0:0:
382,293,79960,2,0,L|265:303,1,99.0000030212403,8|0,0:0|0:0,0:0:0:0:
30,318,80379,6,0,P|14:273|35:197,1,99.0000030212403,2|0,0:0|0:0,0:0:0:0:
69,188,80694,1,0,0:0:0:0:
119,156,80799,2,0,P|132:110|109:33,1,99.0000030212403,8|0,0:0|0:0,0:0:0:0:
139,259,81218,2,0,L|238:259,1,99.0000030212403,2|0,0:0|0:0,0:0:0:0:
331,262,81533,1,0,0:0:0:0:
331,262,81638,1,8,0:0:0:0:
176,112,81848,1,0,0:0:0:0:
171,309,82057,6,0,L|232:303,1,49.5000015106202,2|0,0:0|0:0,0:0:0:0:
86,238,82267,1,0,0:0:0:0:
86,238,82372,1,0,0:0:0:0:
86,238,82477,2,0,L|25:229,1,49.5000015106202,8|0,0:0|0:0,0:0:0:0:
192,199,82687,1,0,0:0:0:0:
192,199,82792,1,0,0:0:0:0:
192,199,82897,6,0,L|254:189,1,49.5000015106202,2|0,0:0|0:0,0:0:0:0:
125,81,83106,2,0,L|102:139,1,49.5000015106202
263,83,83316,2,0,L|223:34,1,49.5000015106202,8|0,0:0|0:0,0:0:0:0:
133,230,83526,5,4,0:3:0:0:
106,282,83631,1,4,0:3:0:0:
77,334,83736,2,0,B|141:334|141:334|191:383,1,99.0000030212403,8|0,0:0|0:0,0:0:0:0:
317,101,84155,5,4,0:3:0:0:
283,52,84260,1,4,0:3:0:0:
252,1,84365,2,0,B|221:58|221:58|153:76,1,99.0000030212403,8|0,0:0|0:0,0:0:0:0:
302,332,84785,5,4,0:3:0:0:
361,329,84890,1,4,0:3:0:0:
420,327,84994,2,0,B|388:271|388:271|406:204,1,99.0000030212403,8|0,0:0|0:0,0:0:0:0:
206,47,85414,6,0,L|175:154,1,99.0000030212403,2|0,0:0|0:0,0:0:0:0:
208,194,85729,1,0,0:0:0:0:
232,248,85834,2,0,L|198:355,1,99.0000030212403,8|0,0:0|0:0,0:0:0:0:
100,123,86253,1,2,0:0:0:0:
302,142,86463,1,0,0:0:0:0:
203,260,86673,5,8,0:0:0:0:
140,203,86778,1,8,0:0:0:0:
155,120,86883,1,8,0:0:0:0:
234,93,86987,1,8,0:0:0:0:
220,176,87092,6,0,B|128:192|128:192|67:163,1,148.50000453186,6|0,0:0|0:0,0:0:0:0:
15,249,87512,2,0,L|105:297,1,99.0000030212403,8|0,0:0|0:0,0:0:0:0:
352,164,87932,1,2,0:0:0:0:
143,93,88141,1,0,0:0:0:0:
290,322,88351,2,0,L|417:319,1,99.0000030212403,8|0,0:0|0:0,0:0:0:0:
512,69,88771,5,2,0:0:0:0:
319,233,88980,1,8,0:3:0:0:
100,40,89190,1,8,0:0:0:0:
346,99,89400,1,0,0:0:0:0:
181,364,89610,5,4,0:3:0:0:
166,328,89714,1,4,0:3:0:0:
154,292,89819,1,4,0:3:0:0:
140,255,89924,1,4,0:3:0:0:
121,199,90029,5,8,0:0:0:0:
138,142,90134,1,8,0:0:0:0:
185,106,90238,1,8,0:0:0:0:
244,108,90343,1,8,0:0:0:0:
298,133,90449,6,0,L|417:183,1,99.0000030212403,6|0,0:0|0:0,0:0:0:0:
421,279,90764,1,0,0:0:0:0:
411,332,90869,2,0,L|299:291,1,99.0000030212403,8|0,0:0|0:0,0:0:0:0:
38,193,91289,2,0,L|146:151,1,99.0000030212403,2|0,0:0|0:0,0:0:0:0:
219,124,91603,1,0,0:0:0:0:
219,124,91708,1,8,0:0:0:0:
31,67,91918,1,0,0:0:0:0:
184,322,92128,6,0,L|294:325,1,99.0000030212403,2|0,0:0|0:0,0:0:0:0:
374,334,92442,1,0,0:0:0:0:
374,334,92547,1,8,0:0:0:0:
251,150,92757,1,0,0:0:0:0:
67,257,92966,2,0,L|65:372,1,99.0000030212403,2|0,0:0|0:0,0:0:0:0:
343,221,93386,2,0,L|345:110,1,99.0000030212403,8|0,0:0|0:0,0:0:0:0:
165,380,93806,6,0,L|265:370,1,99.0000030212403,2|0,0:0|0:0,0:0:0:0:
349,302,94121,1,0,0:0:0:0:
349,302,94225,2,0,L|474:290,1,99.0000030212403,8|0,0:0|0:0,0:0:0:0:
208,84,94646,2,0,L|218:199,1,99.0000030212403,2|0,0:0|0:0,0:0:0:0:
224,282,94960,1,0,0:0:0:0:
224,282,95065,1,8,0:0:0:0:
359,150,95275,1,0,0:0:0:0:
73,174,95484,5,2,0:0:0:0:
231,384,95694,1,0,0:0:0:0:
231,384,95799,1,0,0:0:0:0:
231,384,95904,1,8,0:0:0:0:
39,351,96114,1,0,0:0:0:0:
272,190,96323,1,2,0:0:0:0:
76,67,96533,1,4,0:3:0:0:
76,67,96638,1,4,0:3:0:0:
76,67,96743,5,8,0:0:0:0:
68,120,96848,1,8,0:0:0:0:
73,174,96953,1,8,0:0:0:0:
95,224,97058,1,8,0:0:0:0:
128,266,97162,5,6,0:0:0:0:
331,100,97372,1,2,0:0:0:0:
389,340,97582,1,2,0:0:0:0:
217,133,97792,5,0,0:0:0:0:
217,133,97897,1,0,0:0:0:0:
217,133,98001,1,2,0:0:0:0:
204,326,98211,1,0,0:0:0:0:
204,326,98316,1,0,0:0:0:0:
204,326,98421,2,0,L|268:326,1,49.5000015106202,8|0,0:0|0:0,0:0:0:0:
359,194,98631,2,0,L|408:194,1,49.5000015106202
512,327,98841,5,6,0:0:0:0:
432,67,99155,1,2,0:0:0:0:
224,253,99470,1,2,0:0:0:0:
237,24,99680,5,6,0:0:0:0:
406,309,99994,1,2,0:0:0:0:
79,293,100309,1,2,0:0:0:0:
353,147,100519,5,6,0:0:0:0:
272,283,100729,1,2,0:0:0:0:
173,177,100939,2,0,L|187:61,1,90,8|0,0:0|0:0,0:0:0:0:
370,255,101358,2,0,L|356:376,1,90,2|0,0:0|0:0,0:0:0:0:
193,293,101778,1,8,0:0:0:0:
385,115,101987,1,0,0:0:0:0:
133,24,102197,5,6,0:0:0:0:
106,81,102302,1,4,0:3:0:0:
119,142,102407,1,4,0:3:0:0:
171,176,102512,1,4,0:3:0:0:
225,172,102617,5,8,0:0:0:0:
168,200,102722,1,4,0:3:0:0:
152,261,102827,1,4,0:3:0:0:
169,321,102932,1,4,0:3:0:0:
224,365,103036,5,2,0:0:0:0:
295,373,103142,1,8,0:0:0:0:
353,331,103246,1,8,0:0:0:0:
359,259,103351,1,8,0:0:0:0:
334,191,103456,5,8,0:0:0:0:
306,124,103561,1,8,0:0:0:0:
331,56,103666,1,8,0:0:0:0:
400,38,103771,1,8,0:0:0:0:
467,63,103876,6,0,P|454:130|438:195,1,135,6|2,0:0|0:0,0:0:0:0:
130,113,104505,2,0,B|64:111|6:128|6:128|6:94|38:71,1,180,8|2,0:0|0:0,0:0:0:0:
334,89,105134,5,8,0:0:0:0:
352,139,105239,1,4,0:3:0:0:
323,184,105344,1,4,0:3:0:0:
342,234,105449,1,4,0:3:0:0:
308,276,105554,5,2,0:0:0:0:
511,86,105869,1,2,0:0:0:0:
244,5,106183,2,0,L|236:59,1,45,2|0,0:0|0:0,0:0:0:0:
141,44,106393,6,0,L|149:139,1,90,2|0,0:0|0:0,0:0:0:0:
162,238,106708,1,0,0:0:0:0:
162,238,106813,1,8,0:0:0:0:
465,243,107022,1,0,0:0:0:0:
465,243,107127,1,0,0:0:0:0:
465,243,107232,6,0,L|345:236,1,90,2|0,0:0|0:0,0:0:0:0:
153,364,107652,2,0,L|252:370,1,90,8|0,0:0|0:0,0:0:0:0:
239,134,108071,2,0,L|149:134,1,90,2|0,0:0|0:0,0:0:0:0:
119,90,108386,1,0,0:0:0:0:
91,45,108491,2,0,L|-31:42,1,90,8|0,0:0|0:0,0:0:0:0:
196,194,108911,5,6,0:0:0:0:
241,195,109016,1,4,0:3:0:0:
285,184,109121,1,4,0:3:0:0:
323,162,109225,1,4,0:3:0:0:
352,116,109330,5,8,0:0:0:0:
344,161,109435,1,4,0:3:0:0:
349,206,109540,1,4,0:3:0:0:
364,247,109645,1,4,0:3:0:0:
374,300,109750,5,2,0:0:0:0:
313,262,109854,1,8,0:0:0:0:
241,251,109959,1,8,0:0:0:0:
172,272,110064,1,8,0:0:0:0:
120,322,110169,5,8,0:0:0:0:
120,249,110274,1,8,0:0:0:0:
82,187,110379,1,8,0:0:0:0:
16,157,110484,1,8,0:0:0:0:
22,233,110589,5,6,0:0:0:0:
190,10,110903,1,2,0:0:0:0:
328,248,111218,1,2,0:0:0:0:
23,79,111428,5,6,0:0:0:0:
343,87,111743,1,2,0:0:0:0:
173,357,112057,1,2,0:0:0:0:
190,10,112267,5,14,0:0:0:0:
256,192,112372,12,0,115624,0:0:0:0:
