osu file format v14

[General]
AudioFilename: Pareidolia Elena Siegman Call of Duty- Black Ops - Shangri-La Easter Egg song Kevin Sherwood.mp3
AudioLeadIn: 0
PreviewTime: 72786
Countdown: 0
SampleSet: Normal
StackLeniency: 0.7
Mode: 1
LetterboxInBreaks: 0
WidescreenStoryboard: 0

[Editor]
DistanceSpacing: 0.9
BeatDivisor: 4
GridSize: 4
TimelineZoom: 2

[Metadata]
Title:Pareidolia
TitleUnicode:Pareidolia
Artist:Treyarch Sound
ArtistUnicode:Treyarch Sound
Creator:Raiden
Version:Inner Oni
Source:Call of Duty: Black Ops
Tags:zombies kevin sherwood pishifat shooter shangri-la activision napalm elena siegman annihilation
BeatmapID:714078
BeatmapSetID:320957

[Difficulty]
HPDrainRate:4
CircleSize:5
OverallDifficulty:6
ApproachRate:5
SliderMultiplier:1.4
SliderTickRate:1

[Events]
//Background and Video events
0,0,"pareidolia.jpg",0,120
//Break Periods
//Storyboard Layer 0 (Background)
//Storyboard Layer 1 (Fail)
//Storyboard Layer 2 (Pass)
//Storyboard Layer 3 (Foreground)
//Storyboard Sound Samples

[TimingPoints]
4986,300,4,1,0,80,1,0
72786,300,4,1,0,80,1,1
93036,-100,4,1,0,80,0,0
121986,-100,4,1,0,80,0,1
141486,-100,4,1,0,80,0,0
169986,-100,4,1,0,60,0,0
178986,-105.263157894737,4,1,0,60,0,0
179286,-111.111111111111,4,1,0,60,0,0
179586,-117.647058823529,4,1,0,60,0,0
179886,-125,4,1,0,60,0,0
189186,-100,4,1,0,80,0,0
229986,-100,4,1,0,80,0,1
249486,-100,4,1,0,80,0,0
277986,-100,4,1,0,75,0,0
280386,-100,4,1,0,70,0,0
282786,-100,4,1,0,65,0,0
285186,-100,4,1,0,60,0,0
287586,-100,4,1,0,55,0,0
289986,-100,4,1,0,60,0,0
292386,-100,4,1,0,50,0,0
344886,324.324324324324,4,1,0,50,1,8
344886,-92.5925925925926,4,1,0,50,0,0
345210,324.324324324324,4,1,0,50,1,8
345210,-92.5925925925926,4,1,0,50,0,0
346507,387.096774193548,4,1,0,50,1,8
347668,461.538461538462,4,1,0,50,1,8
348129,402.684563758389,4,1,0,50,1,8
349337,437.956204379562,4,1,0,50,1,8
349774,468.75,4,1,0,50,1,8
350242,540.540540540541,4,1,0,50,1,8
350782,750,4,1,0,50,1,8
351532,1304.34782608696,4,1,0,50,1,8
352673,-25,4,1,0,50,0,0

[HitObjects]
232,268,4986,5,0,0:0:0:0:
228,276,5136,1,0,0:0:0:0:
228,288,5286,1,8,0:0:0:0:
228,288,5436,1,0,0:0:0:0:
228,288,5586,1,8,0:0:0:0:
184,176,5886,1,0,0:0:0:0:
184,176,6036,1,0,0:0:0:0:
184,176,6186,1,8,0:0:0:0:
184,176,6336,1,0,0:0:0:0:
184,176,6486,1,8,0:0:0:0:
216,208,6636,1,8,0:0:0:0:
220,208,6786,1,0,0:0:0:0:
220,208,6936,1,0,0:0:0:0:
220,208,7086,1,8,0:0:0:0:
216,232,7236,1,8,0:0:0:0:
232,264,7386,1,0,0:0:0:0:
232,264,7536,1,0,0:0:0:0:
232,264,7686,1,8,0:0:0:0:
232,264,7836,1,0,0:0:0:0:
232,264,7986,1,8,0:0:0:0:
216,172,8286,1,0,0:0:0:0:
216,172,8436,1,0,0:0:0:0:
216,172,8586,1,8,0:0:0:0:
216,172,8736,1,0,0:0:0:0:
240,256,8886,1,8,0:0:0:0:
248,220,9036,1,0,0:0:0:0:
240,240,9111,1,0,0:0:0:0:
240,256,9186,1,0,0:0:0:0:
264,264,9336,1,0,0:0:0:0:
264,264,9486,1,8,0:0:0:0:
240,256,9636,1,8,0:0:0:0:
240,256,9786,1,0,0:0:0:0:
228,284,9936,1,0,0:0:0:0:
228,284,10086,1,8,0:0:0:0:
228,284,10236,1,0,0:0:0:0:
228,284,10386,1,8,0:0:0:0:
228,272,10686,1,0,0:0:0:0:
248,260,10836,1,0,0:0:0:0:
248,260,10986,1,8,0:0:0:0:
248,260,11136,1,0,0:0:0:0:
236,280,11286,1,8,0:0:0:0:
236,268,11436,1,8,0:0:0:0:
224,240,11511,1,8,0:0:0:0:
248,272,11586,1,0,0:0:0:0:
248,272,11736,1,0,0:0:0:0:
248,272,11886,1,8,0:0:0:0:
248,272,12036,1,8,0:0:0:0:
248,272,12186,1,0,0:0:0:0:
248,272,12336,1,0,0:0:0:0:
248,272,12486,1,8,0:0:0:0:
248,272,12636,1,0,0:0:0:0:
248,272,12786,1,8,0:0:0:0:
248,272,13086,1,0,0:0:0:0:
248,272,13236,1,0,0:0:0:0:
248,272,13386,1,8,0:0:0:0:
248,272,13536,1,8,0:0:0:0:
248,272,13686,1,0,0:0:0:0:
248,272,13836,1,0,0:0:0:0:
278,254,13911,1,0,0:0:0:0:
248,272,13986,1,8,0:0:0:0:
264,272,14136,1,8,0:0:0:0:
240,288,14286,1,8,0:0:0:0:
232,280,14436,1,8,0:0:0:0:
232,280,14586,1,0,0:0:0:0:
212,264,14736,1,0,0:0:0:0:
260,280,14886,1,8,0:0:0:0:
260,280,15036,1,0,0:0:0:0:
260,280,15186,1,8,0:0:0:0:
160,248,15486,1,0,0:0:0:0:
264,272,15636,1,0,0:0:0:0:
168,252,15786,1,8,0:0:0:0:
264,252,15936,1,8,0:0:0:0:
200,256,16086,1,0,0:0:0:0:
200,256,16236,1,0,0:0:0:0:
228,232,16311,1,0,0:0:0:0:
200,256,16386,1,8,0:0:0:0:
236,272,16536,1,0,0:0:0:0:
232,280,16686,1,8,0:0:0:0:
236,280,16836,1,8,0:0:0:0:
236,280,16986,1,0,0:0:0:0:
204,252,17136,1,0,0:0:0:0:
204,264,17286,1,8,0:0:0:0:
200,264,17436,1,0,0:0:0:0:
204,264,17586,1,8,0:0:0:0:
240,288,17886,1,0,0:0:0:0:
240,288,18036,1,0,0:0:0:0:
240,288,18186,1,8,0:0:0:0:
240,288,18336,1,8,0:0:0:0:
240,288,18486,1,0,0:0:0:0:
248,296,18636,1,0,0:0:0:0:
248,296,18786,1,8,0:0:0:0:
224,288,18936,1,0,0:0:0:0:
224,288,19086,1,8,0:0:0:0:
248,284,19386,1,0,0:0:0:0:
248,284,19536,1,0,0:0:0:0:
248,284,19686,1,8,0:0:0:0:
248,284,19836,1,0,0:0:0:0:
248,284,19986,1,8,0:0:0:0:
248,284,20136,1,0,0:0:0:0:
248,284,20286,1,8,0:0:0:0:
248,284,20436,1,0,0:0:0:0:
208,264,20586,1,8,0:0:0:0:
236,280,20736,1,8,0:0:0:0:
236,280,20886,1,0,0:0:0:0:
236,280,21036,1,0,0:0:0:0:
192,236,21111,1,0,0:0:0:0:
236,280,21186,1,8,0:0:0:0:
176,272,21486,1,8,0:0:0:0:
176,272,21636,1,8,0:0:0:0:
176,272,21786,1,0,0:0:0:0:
176,272,21936,1,0,0:0:0:0:
176,272,22086,1,8,0:0:0:0:
176,272,22236,1,0,0:0:0:0:
176,272,22386,1,8,0:0:0:0:
176,272,22536,1,0,0:0:0:0:
176,272,22686,1,0,0:0:0:0:
176,272,22836,1,8,0:0:0:0:
176,272,22986,1,8,0:0:0:0:
176,272,23136,1,0,0:0:0:0:
176,272,23286,1,0,0:0:0:0:
176,272,23436,1,0,0:0:0:0:
282,183,23511,1,0,0:0:0:0:
176,272,23586,1,8,0:0:0:0:
224,288,23736,1,8,0:0:0:0:
224,288,23886,1,0,0:0:0:0:
224,288,24036,1,8,0:0:0:0:
224,288,24186,1,0,0:0:0:0:
224,288,24336,1,0,0:0:0:0:
224,288,24636,1,8,0:0:0:0:
224,288,24786,1,0,0:0:0:0:
224,288,24936,1,0,0:0:0:0:
224,288,25236,1,8,0:0:0:0:
224,288,25386,1,0,0:0:0:0:
224,288,25536,1,0,0:0:0:0:
224,288,25686,1,8,0:0:0:0:
224,288,25836,1,0,0:0:0:0:
224,288,25986,1,8,0:0:0:0:
200,260,26136,1,0,0:0:0:0:
224,288,26286,1,0,0:0:0:0:
216,200,26586,1,8,0:0:0:0:
212,312,26736,1,0,0:0:0:0:
224,288,27036,1,8,0:0:0:0:
224,288,27186,1,0,0:0:0:0:
220,280,27336,1,0,0:0:0:0:
220,280,27636,1,8,0:0:0:0:
220,280,27786,1,8,0:0:0:0:
220,280,27936,1,0,0:0:0:0:
216,284,28086,1,8,0:0:0:0:
216,284,28236,1,0,0:0:0:0:
224,296,28386,1,8,0:0:0:0:
224,296,28536,1,0,0:0:0:0:
208,280,28686,1,0,0:0:0:0:
228,272,28986,1,8,0:0:0:0:
196,272,29136,1,0,0:0:0:0:
224,300,29436,1,8,0:0:0:0:
224,300,29586,1,8,0:0:0:0:
224,300,29736,1,0,0:0:0:0:
204,300,30036,1,8,0:0:0:0:
204,300,30186,1,0,0:0:0:0:
204,300,30336,1,0,0:0:0:0:
204,300,30486,1,8,0:0:0:0:
204,300,30636,1,0,0:0:0:0:
204,300,30786,1,8,0:0:0:0:
192,300,30936,1,8,0:0:0:0:
192,300,31086,1,0,0:0:0:0:
192,300,31386,1,8,0:0:0:0:
192,300,31536,1,0,0:0:0:0:
180,304,31836,1,8,0:0:0:0:
180,300,31986,1,0,0:0:0:0:
216,284,32136,1,0,0:0:0:0:
296,272,32436,1,8,0:0:0:0:
216,284,32586,1,0,0:0:0:0:
216,284,32736,1,0,0:0:0:0:
232,300,32886,1,8,0:0:0:0:
232,300,33036,1,8,0:0:0:0:
232,300,33186,1,0,0:0:0:0:
236,240,33336,1,0,0:0:0:0:
236,240,33486,1,0,0:0:0:0:
288,296,33786,1,0,0:0:0:0:
280,280,33936,1,0,0:0:0:0:
280,280,34086,1,0,0:0:0:0:
280,280,34236,1,0,0:0:0:0:
272,244,34536,1,0,0:0:0:0:
272,244,34686,1,0,0:0:0:0:
244,280,34836,1,0,0:0:0:0:
244,280,34986,1,8,0:0:0:0:
256,264,35136,1,0,0:0:0:0:
264,292,35286,1,8,0:0:0:0:
264,292,35436,1,0,0:0:0:0:
264,292,35586,1,8,0:0:0:0:
264,292,35736,1,8,0:0:0:0:
264,292,35886,1,0,0:0:0:0:
264,292,36036,1,8,0:0:0:0:
264,292,36186,1,0,0:0:0:0:
264,288,36336,1,0,0:0:0:0:
264,288,36486,1,0,0:0:0:0:
240,280,36636,1,0,0:0:0:0:
248,268,36936,1,0,0:0:0:0:
248,268,37086,1,0,0:0:0:0:
248,268,37236,1,0,0:0:0:0:
248,268,37386,1,8,0:0:0:0:
248,268,37536,1,8,0:0:0:0:
248,268,37686,1,0,0:0:0:0:
236,292,37836,1,0,0:0:0:0:
236,292,37986,1,8,0:0:0:0:
236,292,38136,1,0,0:0:0:0:
236,292,38286,1,0,0:0:0:0:
240,284,38436,1,8,0:0:0:0:
240,284,38586,1,0,0:0:0:0:
268,276,38736,1,0,0:0:0:0:
248,268,38886,1,0,0:0:0:0:
248,268,39036,1,0,0:0:0:0:
232,272,39336,1,0,0:0:0:0:
236,276,39486,1,0,0:0:0:0:
236,276,39636,1,0,0:0:0:0:
260,272,39786,1,8,0:0:0:0:
248,308,39936,1,0,0:0:0:0:
248,308,40086,1,8,0:0:0:0:
248,308,40236,1,0,0:0:0:0:
248,308,40386,1,8,0:0:0:0:
248,308,40536,1,0,0:0:0:0:
248,308,40686,1,0,0:0:0:0:
248,308,40836,1,8,0:0:0:0:
248,308,40986,1,0,0:0:0:0:
248,308,41136,1,0,0:0:0:0:
248,308,41286,1,0,0:0:0:0:
248,308,41436,1,0,0:0:0:0:
192,248,41736,1,0,0:0:0:0:
200,244,41886,1,0,0:0:0:0:
200,244,42036,1,0,0:0:0:0:
200,244,42186,1,8,0:0:0:0:
232,304,42336,1,8,0:0:0:0:
240,272,42486,1,8,0:0:0:0:
256,296,42636,1,0,0:0:0:0:
256,296,42786,1,8,0:0:0:0:
256,296,42936,1,8,0:0:0:0:
256,296,43086,1,0,0:0:0:0:
256,296,43236,1,8,0:0:0:0:
288,296,43386,1,0,0:0:0:0:
280,280,43536,1,0,0:0:0:0:
280,280,43686,1,0,0:0:0:0:
280,280,43836,1,0,0:0:0:0:
272,244,44136,1,0,0:0:0:0:
272,244,44286,1,0,0:0:0:0:
244,280,44436,1,0,0:0:0:0:
256,284,44511,1,0,0:0:0:0:
244,280,44586,1,8,0:0:0:0:
256,264,44736,1,0,0:0:0:0:
264,292,44886,1,8,0:0:0:0:
264,292,45036,1,0,0:0:0:0:
264,292,45186,1,8,0:0:0:0:
264,292,45336,1,8,0:0:0:0:
264,292,45486,1,0,0:0:0:0:
264,296,45561,1,0,0:0:0:0:
264,292,45636,1,8,0:0:0:0:
264,292,45786,1,0,0:0:0:0:
264,288,45936,1,0,0:0:0:0:
264,288,46086,1,0,0:0:0:0:
240,280,46236,1,0,0:0:0:0:
248,268,46536,1,0,0:0:0:0:
248,268,46686,1,0,0:0:0:0:
248,268,46836,1,0,0:0:0:0:
260,304,46911,1,0,0:0:0:0:
248,268,46986,1,8,0:0:0:0:
248,268,47136,1,0,0:0:0:0:
260,304,47211,1,0,0:0:0:0:
248,268,47286,1,8,0:0:0:0:
236,292,47436,1,0,0:0:0:0:
236,292,47586,1,8,0:0:0:0:
236,292,47736,1,0,0:0:0:0:
236,292,47886,1,0,0:0:0:0:
260,304,47961,1,0,0:0:0:0:
240,284,48036,1,8,0:0:0:0:
240,284,48186,1,0,0:0:0:0:
268,276,48336,1,0,0:0:0:0:
248,268,48486,1,0,0:0:0:0:
248,268,48636,1,0,0:0:0:0:
232,272,48936,1,0,0:0:0:0:
236,276,49086,1,0,0:0:0:0:
236,276,49236,1,0,0:0:0:0:
260,304,49311,1,0,0:0:0:0:
260,304,49386,1,8,0:0:0:0:
248,308,49536,1,0,0:0:0:0:
248,308,49686,1,8,0:0:0:0:
248,308,49836,1,0,0:0:0:0:
260,304,49911,1,0,0:0:0:0:
248,308,49986,1,8,0:0:0:0:
248,308,50136,1,0,0:0:0:0:
260,304,50286,1,8,0:0:0:0:
260,304,50361,1,0,0:0:0:0:
248,308,50436,1,8,0:0:0:0:
248,308,50586,1,0,0:0:0:0:
248,308,50736,1,0,0:0:0:0:
248,308,50886,1,0,0:0:0:0:
248,308,51036,1,0,0:0:0:0:
192,248,51336,1,0,0:0:0:0:
200,244,51486,1,0,0:0:0:0:
200,244,51636,1,0,0:0:0:0:
260,304,51711,1,0,0:0:0:0:
200,244,51786,1,8,0:0:0:0:
232,304,51936,1,8,0:0:0:0:
240,272,52086,1,8,0:0:0:0:
256,296,52236,1,0,0:0:0:0:
256,296,52386,1,8,0:0:0:0:
256,296,52536,1,8,0:0:0:0:
256,296,52686,1,0,0:0:0:0:
260,304,52761,1,8,0:0:0:0:
256,296,52836,1,0,0:0:0:0:
288,296,52986,1,0,0:0:0:0:
280,280,53136,1,0,0:0:0:0:
280,280,53286,1,0,0:0:0:0:
280,280,53436,1,0,0:0:0:0:
272,244,53736,1,0,0:0:0:0:
272,244,53886,1,0,0:0:0:0:
244,280,54036,1,0,0:0:0:0:
244,280,54186,1,8,0:0:0:0:
260,304,54261,1,0,0:0:0:0:
256,264,54336,1,0,0:0:0:0:
264,292,54486,1,8,0:0:0:0:
264,292,54636,1,0,0:0:0:0:
264,292,54786,1,8,0:0:0:0:
264,292,54936,1,8,0:0:0:0:
264,292,55086,1,0,0:0:0:0:
264,292,55236,1,8,0:0:0:0:
260,304,55311,1,8,0:0:0:0:
264,292,55386,1,0,0:0:0:0:
264,288,55536,1,0,0:0:0:0:
264,288,55686,1,0,0:0:0:0:
240,280,55836,1,0,0:0:0:0:
248,268,56136,1,0,0:0:0:0:
248,268,56286,1,0,0:0:0:0:
248,268,56436,1,0,0:0:0:0:
248,268,56586,1,8,0:0:0:0:
260,304,56661,1,8,0:0:0:0:
248,268,56736,1,0,0:0:0:0:
248,268,56886,1,8,0:0:0:0:
260,304,56961,1,8,0:0:0:0:
236,292,57036,1,0,0:0:0:0:
236,292,57186,1,8,0:0:0:0:
236,292,57336,1,0,0:0:0:0:
236,292,57486,1,0,0:0:0:0:
240,284,57636,1,8,0:0:0:0:
260,304,57711,1,8,0:0:0:0:
240,284,57786,1,0,0:0:0:0:
268,276,57936,1,0,0:0:0:0:
248,268,58086,1,0,0:0:0:0:
248,268,58236,1,0,0:0:0:0:
232,272,58536,1,0,0:0:0:0:
236,276,58686,1,0,0:0:0:0:
236,276,58836,1,0,0:0:0:0:
260,272,58986,1,8,0:0:0:0:
248,308,59136,1,0,0:0:0:0:
248,308,59286,1,8,0:0:0:0:
260,304,59361,1,8,0:0:0:0:
248,308,59436,1,0,0:0:0:0:
248,308,59586,1,8,0:0:0:0:
260,304,59661,1,8,0:0:0:0:
248,308,59736,1,8,0:0:0:0:
248,308,59886,1,0,0:0:0:0:
248,308,60036,1,8,0:0:0:0:
248,308,60186,1,0,0:0:0:0:
248,308,60336,1,0,0:0:0:0:
248,308,60486,1,0,0:0:0:0:
248,308,60636,1,0,0:0:0:0:
192,248,60936,1,0,0:0:0:0:
200,244,61086,1,0,0:0:0:0:
200,244,61236,1,0,0:0:0:0:
200,244,61386,1,8,0:0:0:0:
232,304,61536,1,8,0:0:0:0:
260,304,61611,1,8,0:0:0:0:
240,272,61686,1,0,0:0:0:0:
256,296,61836,1,8,0:0:0:0:
260,304,61911,1,8,0:0:0:0:
260,304,61986,1,8,0:0:0:0:
260,304,62061,1,8,0:0:0:0:
256,296,62136,1,8,0:0:0:0:
256,296,62286,1,0,0:0:0:0:
256,296,62436,1,8,0:0:0:0:
232,220,62586,1,4,0:0:0:0:
240,256,62886,1,0,0:0:0:0:
240,256,63036,1,8,0:0:0:0:
208,260,63336,1,0,0:0:0:0:
208,260,63486,1,8,0:0:0:0:
192,244,63786,1,0,0:0:0:0:
200,244,63936,1,0,0:0:0:0:
260,304,64011,1,0,0:0:0:0:
200,244,64086,1,8,0:0:0:0:
216,260,64236,1,0,0:0:0:0:
216,260,64386,1,0,0:0:0:0:
212,268,64536,1,0,0:0:0:0:
260,304,64611,1,0,0:0:0:0:
216,260,64686,1,8,0:0:0:0:
220,228,64836,1,0,0:0:0:0:
228,232,64986,1,4,0:0:0:0:
228,232,65286,1,0,0:0:0:0:
240,260,65436,1,8,0:0:0:0:
216,248,65736,1,0,0:0:0:0:
260,248,65886,1,8,0:0:0:0:
280,252,66186,1,0,0:0:0:0:
280,252,66336,1,0,0:0:0:0:
260,304,66411,1,0,0:0:0:0:
280,252,66486,1,8,0:0:0:0:
280,252,66636,1,0,0:0:0:0:
280,252,66786,1,0,0:0:0:0:
296,292,66936,1,0,0:0:0:0:
260,304,67011,1,0,0:0:0:0:
260,304,67086,1,8,0:0:0:0:
296,292,67236,1,0,0:0:0:0:
296,292,67386,1,4,0:0:0:0:
212,188,67686,1,0,0:0:0:0:
220,204,67836,1,8,0:0:0:0:
268,240,68136,1,0,0:0:0:0:
268,240,68286,1,8,0:0:0:0:
212,188,68586,1,0,0:0:0:0:
216,184,68736,1,0,0:0:0:0:
260,304,68811,1,0,0:0:0:0:
224,180,68886,1,8,0:0:0:0:
224,180,69036,1,8,0:0:0:0:
224,180,69186,1,0,0:0:0:0:
260,304,69261,1,0,0:0:0:0:
216,256,69336,1,8,0:0:0:0:
176,268,69486,1,8,0:0:0:0:
216,256,69786,1,4,0:0:0:0:
236,244,70236,1,4,0:0:0:0:
224,264,70686,1,4,0:0:0:0:
228,260,70986,1,4,0:0:0:0:
252,256,71286,1,0,0:0:0:0:
252,256,71436,1,8,0:0:0:0:
252,256,71736,1,0,0:0:0:0:
252,256,71886,1,8,0:0:0:0:
224,240,72786,1,4,0:0:0:0:
256,264,73086,1,0,0:0:0:0:
256,264,73236,1,0,0:0:0:0:
256,272,73536,1,0,0:0:0:0:
256,272,73686,1,8,0:0:0:0:
256,264,73986,1,8,0:0:0:0:
256,264,74136,1,0,0:0:0:0:
256,264,74286,1,0,0:0:0:0:
284,304,74361,1,0,0:0:0:0:
256,264,74436,1,0,0:0:0:0:
260,304,74511,1,0,0:0:0:0:
256,264,74586,1,8,0:0:0:0:
256,264,74736,1,0,0:0:0:0:
256,264,74886,1,0,0:0:0:0:
284,304,74961,1,0,0:0:0:0:
284,304,75036,1,8,0:0:0:0:
256,264,75186,1,0,0:0:0:0:
244,280,75486,1,0,0:0:0:0:
244,280,75636,1,0,0:0:0:0:
256,272,75936,1,0,0:0:0:0:
256,272,76086,1,8,0:0:0:0:
224,272,76386,1,0,0:0:0:0:
252,268,76536,1,8,0:0:0:0:
252,268,76686,1,0,0:0:0:0:
252,268,76836,1,0,0:0:0:0:
260,300,76911,1,0,0:0:0:0:
260,272,76986,1,8,0:0:0:0:
260,272,77136,1,0,0:0:0:0:
256,272,77286,1,0,0:0:0:0:
256,272,77436,1,8,0:0:0:0:
256,272,77586,1,0,0:0:0:0:
216,268,77886,1,0,0:0:0:0:
232,280,78036,1,0,0:0:0:0:
232,280,78336,1,0,0:0:0:0:
232,280,78486,1,8,0:0:0:0:
248,312,78786,1,0,0:0:0:0:
228,248,78936,1,0,0:0:0:0:
260,292,79011,1,0,0:0:0:0:
212,280,79086,1,8,0:0:0:0:
248,312,79236,1,0,0:0:0:0:
248,312,79386,1,0,0:0:0:0:
260,296,79461,1,0,0:0:0:0:
248,312,79536,1,8,0:0:0:0:
260,304,79611,1,0,0:0:0:0:
248,312,79686,1,8,0:0:0:0:
236,312,79761,1,8,0:0:0:0:
248,312,79836,1,0,0:0:0:0:
236,312,79911,1,8,0:0:0:0:
248,312,79986,1,0,0:0:0:0:
248,312,80286,1,0,0:0:0:0:
248,312,80436,1,0,0:0:0:0:
248,312,80736,1,0,0:0:0:0:
248,312,80886,1,8,0:0:0:0:
248,324,81186,1,0,0:0:0:0:
248,324,81336,1,0,0:0:0:0:
264,328,81636,1,0,0:0:0:0:
268,328,81786,1,8,0:0:0:0:
268,328,81936,1,0,0:0:0:0:
268,328,82086,1,0,0:0:0:0:
256,288,82161,1,0,0:0:0:0:
268,328,82236,1,8,0:0:0:0:
268,328,82386,1,4,0:0:0:0:
256,264,82686,1,0,0:0:0:0:
256,264,82836,1,0,0:0:0:0:
256,272,83136,1,0,0:0:0:0:
256,272,83286,1,8,0:0:0:0:
256,264,83586,1,8,0:0:0:0:
256,264,83736,1,0,0:0:0:0:
256,264,83886,1,0,0:0:0:0:
256,264,84036,1,0,0:0:0:0:
260,304,84111,1,0,0:0:0:0:
256,264,84186,1,8,0:0:0:0:
256,264,84336,1,0,0:0:0:0:
256,288,84411,1,0,0:0:0:0:
256,264,84486,1,0,0:0:0:0:
240,280,84636,1,8,0:0:0:0:
256,264,84786,1,0,0:0:0:0:
216,268,85086,1,0,0:0:0:0:
232,280,85236,1,0,0:0:0:0:
232,280,85536,1,0,0:0:0:0:
232,280,85686,1,8,0:0:0:0:
248,312,85986,1,0,0:0:0:0:
228,248,86136,1,0,0:0:0:0:
284,258,86211,1,0,0:0:0:0:
212,280,86286,1,8,0:0:0:0:
248,312,86436,1,0,0:0:0:0:
248,312,86586,1,0,0:0:0:0:
248,312,86736,1,0,0:0:0:0:
256,288,86811,1,0,0:0:0:0:
248,312,86886,1,8,0:0:0:0:
260,304,86961,1,8,0:0:0:0:
248,312,87036,1,0,0:0:0:0:
248,312,87186,1,0,0:0:0:0:
248,312,87486,1,0,0:0:0:0:
248,312,87636,1,0,0:0:0:0:
248,312,87936,1,0,0:0:0:0:
248,312,88086,1,8,0:0:0:0:
248,324,88386,1,8,0:0:0:0:
248,324,88536,1,8,0:0:0:0:
264,328,88836,1,0,0:0:0:0:
256,288,88911,1,0,0:0:0:0:
268,328,88986,1,8,0:0:0:0:
256,288,89061,1,0,0:0:0:0:
268,328,89136,1,8,0:0:0:0:
256,288,89211,1,8,0:0:0:0:
268,328,89286,1,0,0:0:0:0:
256,288,89361,1,0,0:0:0:0:
268,328,89436,1,8,0:0:0:0:
268,328,89586,1,0,0:0:0:0:
216,232,89886,1,0,0:0:0:0:
216,232,90036,1,0,0:0:0:0:
240,256,90336,1,0,0:0:0:0:
240,256,90486,1,0,0:0:0:0:
260,272,90786,1,8,0:0:0:0:
260,272,90936,1,0,0:0:0:0:
260,272,91236,1,8,0:0:0:0:
256,288,91311,1,8,0:0:0:0:
260,272,91386,1,0,0:0:0:0:
260,304,91461,1,8,0:0:0:0:
260,272,91536,1,0,0:0:0:0:
260,272,91686,1,8,0:0:0:0:
260,272,91836,1,8,0:0:0:0:
260,272,91986,1,0,0:0:0:0:
220,232,93036,1,4,0:0:0:0:
130,173,93336,1,0,0:0:0:0:
168,184,93486,1,0,0:0:0:0:
356,328,93636,1,0,0:0:0:0:
352,328,93711,1,0,0:0:0:0:
228,288,93786,1,8,0:0:0:0:
228,288,94086,1,0,0:0:0:0:
348,328,94236,1,0,0:0:0:0:
184,176,94386,1,0,0:0:0:0:
184,176,94536,1,0,0:0:0:0:
184,176,94686,1,8,0:0:0:0:
184,176,94836,1,0,0:0:0:0:
184,176,94986,1,8,0:0:0:0:
220,208,95286,1,0,0:0:0:0:
220,208,95436,1,0,0:0:0:0:
220,208,95586,1,8,0:0:0:0:
296,288,95736,1,0,0:0:0:0:
232,264,95886,1,0,0:0:0:0:
232,264,96036,1,0,0:0:0:0:
296,288,96111,1,0,0:0:0:0:
232,264,96186,1,8,0:0:0:0:
232,264,96336,1,0,0:0:0:0:
296,288,96486,1,0,0:0:0:0:
296,288,96636,1,8,0:0:0:0:
216,172,96786,1,0,0:0:0:0:
216,172,96936,1,0,0:0:0:0:
216,172,97086,1,8,0:0:0:0:
216,172,97236,1,0,0:0:0:0:
240,256,97386,1,8,0:0:0:0:
240,256,97686,1,0,0:0:0:0:
264,264,97836,1,0,0:0:0:0:
203,276,97986,1,8,0:0:0:0:
240,256,98136,1,0,0:0:0:0:
203,276,98286,1,8,0:0:0:0:
228,284,98436,1,0,0:0:0:0:
204,143,98511,1,0,0:0:0:0:
228,284,98586,1,8,0:0:0:0:
203,276,98736,1,0,0:0:0:0:
228,284,98886,1,8,0:0:0:0:
181,198,99036,1,0,0:0:0:0:
228,272,99186,1,0,0:0:0:0:
248,260,99336,1,0,0:0:0:0:
248,260,99486,1,8,0:0:0:0:
248,260,99636,1,0,0:0:0:0:
236,280,99786,1,8,0:0:0:0:
224,272,100086,1,0,0:0:0:0:
224,272,100236,1,4,0:0:0:0:
248,252,100536,1,4,0:0:0:0:
248,252,100836,1,4,0:0:0:0:
288,296,101586,1,0,0:0:0:0:
280,280,101736,1,0,0:0:0:0:
384,296,101811,1,0,0:0:0:0:
280,280,101886,1,0,0:0:0:0:
280,280,102036,1,0,0:0:0:0:
272,244,102336,1,0,0:0:0:0:
272,244,102486,1,0,0:0:0:0:
244,280,102636,1,0,0:0:0:0:
240,304,102711,1,0,0:0:0:0:
244,280,102786,1,8,0:0:0:0:
256,264,102936,1,0,0:0:0:0:
264,292,103086,1,8,0:0:0:0:
248,300,103161,1,0,0:0:0:0:
264,292,103236,1,0,0:0:0:0:
264,292,103386,1,8,0:0:0:0:
264,292,103536,1,8,0:0:0:0:
264,292,103686,1,0,0:0:0:0:
264,292,103836,1,8,0:0:0:0:
264,292,103986,1,0,0:0:0:0:
264,288,104136,1,0,0:0:0:0:
248,296,104211,1,0,0:0:0:0:
264,288,104286,1,0,0:0:0:0:
240,280,104436,1,0,0:0:0:0:
248,268,104736,1,0,0:0:0:0:
248,268,104886,1,0,0:0:0:0:
248,268,105036,1,0,0:0:0:0:
248,268,105186,1,8,0:0:0:0:
248,268,105336,1,8,0:0:0:0:
248,268,105486,1,8,0:0:0:0:
236,292,105636,1,0,0:0:0:0:
256,284,105711,1,0,0:0:0:0:
256,284,105786,1,8,0:0:0:0:
236,292,105936,1,0,0:0:0:0:
236,292,106086,1,0,0:0:0:0:
256,284,106161,1,0,0:0:0:0:
240,284,106236,1,8,0:0:0:0:
240,284,106386,1,0,0:0:0:0:
268,276,106536,1,0,0:0:0:0:
256,284,106611,1,0,0:0:0:0:
252,280,106686,1,0,0:0:0:0:
248,268,106836,1,0,0:0:0:0:
232,272,107136,1,0,0:0:0:0:
236,276,107286,1,0,0:0:0:0:
236,276,107436,1,0,0:0:0:0:
252,280,107511,1,0,0:0:0:0:
260,272,107586,1,8,0:0:0:0:
248,308,107736,1,0,0:0:0:0:
248,308,107886,1,8,0:0:0:0:
248,308,108036,1,0,0:0:0:0:
248,308,108186,1,8,0:0:0:0:
248,308,108336,1,0,0:0:0:0:
248,308,108486,1,0,0:0:0:0:
252,280,108561,1,0,0:0:0:0:
248,308,108636,1,8,0:0:0:0:
248,308,108786,1,0,0:0:0:0:
248,308,108936,1,0,0:0:0:0:
252,280,109011,1,0,0:0:0:0:
248,308,109086,1,0,0:0:0:0:
248,308,109236,1,0,0:0:0:0:
192,248,109536,1,0,0:0:0:0:
200,244,109686,1,0,0:0:0:0:
200,244,109836,1,0,0:0:0:0:
260,296,109911,1,0,0:0:0:0:
200,244,109986,1,8,0:0:0:0:
232,304,110136,1,8,0:0:0:0:
240,272,110286,1,8,0:0:0:0:
256,296,110436,1,0,0:0:0:0:
256,296,110586,1,8,0:0:0:0:
252,292,110661,1,8,0:0:0:0:
256,296,110736,1,8,0:0:0:0:
244,292,110811,1,8,0:0:0:0:
256,296,110886,1,0,0:0:0:0:
256,296,111036,1,8,0:0:0:0:
288,296,111186,1,4,0:0:0:0:
240,256,111486,1,0,0:0:0:0:
240,256,111636,1,8,0:0:0:0:
208,260,111936,1,0,0:0:0:0:
208,260,112086,1,8,0:0:0:0:
192,244,112386,1,0,0:0:0:0:
200,244,112536,1,0,0:0:0:0:
260,296,112611,1,0,0:0:0:0:
200,244,112686,1,8,0:0:0:0:
216,260,112836,1,0,0:0:0:0:
216,260,112986,1,0,0:0:0:0:
212,268,113136,1,0,0:0:0:0:
260,296,113211,1,0,0:0:0:0:
216,260,113286,1,8,0:0:0:0:
220,228,113436,1,0,0:0:0:0:
228,232,113586,1,4,0:0:0:0:
228,232,113886,1,0,0:0:0:0:
240,260,114036,1,8,0:0:0:0:
216,248,114336,1,0,0:0:0:0:
260,248,114486,1,8,0:0:0:0:
280,252,114786,1,0,0:0:0:0:
280,252,114936,1,0,0:0:0:0:
260,296,115011,1,0,0:0:0:0:
280,252,115086,1,8,0:0:0:0:
280,252,115236,1,0,0:0:0:0:
280,252,115386,1,0,0:0:0:0:
296,292,115536,1,0,0:0:0:0:
260,296,115611,1,0,0:0:0:0:
296,292,115686,1,8,0:0:0:0:
296,292,115836,1,0,0:0:0:0:
296,292,115986,1,4,0:0:0:0:
212,188,116286,1,0,0:0:0:0:
220,204,116436,1,8,0:0:0:0:
268,240,116736,1,0,0:0:0:0:
268,240,116886,1,8,0:0:0:0:
212,188,117186,1,0,0:0:0:0:
216,184,117336,1,0,0:0:0:0:
260,296,117411,1,0,0:0:0:0:
224,180,117486,1,8,0:0:0:0:
224,180,117636,1,8,0:0:0:0:
224,180,117786,1,0,0:0:0:0:
216,256,117936,1,8,0:0:0:0:
260,296,118011,1,8,0:0:0:0:
176,268,118086,1,8,0:0:0:0:
292,256,118161,1,8,0:0:0:0:
216,200,118236,1,0,0:0:0:0:
216,256,118386,1,4,0:0:0:0:
236,244,118836,1,4,0:0:0:0:
224,264,119286,1,4,0:0:0:0:
228,260,119586,1,4,0:0:0:0:
252,256,119886,1,0,0:0:0:0:
252,256,120036,1,12,0:0:0:0:
252,256,120336,1,0,0:0:0:0:
168,200,120486,1,12,0:0:0:0:
164,208,120786,1,0,0:0:0:0:
164,208,120936,1,12,0:0:0:0:
164,208,121236,1,0,0:0:0:0:
164,208,121386,1,12,0:0:0:0:
176,216,121536,1,0,0:0:0:0:
164,208,121686,1,12,0:0:0:0:
224,240,121986,1,4,0:0:0:0:
256,264,122286,1,0,0:0:0:0:
256,264,122436,1,0,0:0:0:0:
256,272,122736,1,0,0:0:0:0:
256,272,122886,1,8,0:0:0:0:
256,264,123186,1,8,0:0:0:0:
236,292,123261,1,8,0:0:0:0:
256,264,123336,1,0,0:0:0:0:
256,264,123486,1,0,0:0:0:0:
256,264,123636,1,0,0:0:0:0:
256,264,123786,1,8,0:0:0:0:
256,264,123936,1,0,0:0:0:0:
256,264,124086,1,0,0:0:0:0:
260,268,124161,1,0,0:0:0:0:
284,280,124236,1,8,0:0:0:0:
256,264,124386,1,0,0:0:0:0:
244,280,124686,1,0,0:0:0:0:
244,280,124836,1,0,0:0:0:0:
256,272,125136,1,0,0:0:0:0:
256,272,125286,1,8,0:0:0:0:
224,272,125586,1,0,0:0:0:0:
252,268,125736,1,8,0:0:0:0:
252,268,125886,1,0,0:0:0:0:
252,268,126036,1,0,0:0:0:0:
236,292,126111,1,0,0:0:0:0:
260,272,126186,1,8,0:0:0:0:
260,272,126336,1,0,0:0:0:0:
240,232,126411,1,0,0:0:0:0:
256,272,126486,1,0,0:0:0:0:
236,292,126561,1,0,0:0:0:0:
256,272,126636,1,8,0:0:0:0:
256,272,126786,1,0,0:0:0:0:
216,268,127086,1,0,0:0:0:0:
232,280,127236,1,0,0:0:0:0:
232,280,127536,1,0,0:0:0:0:
232,280,127686,1,8,0:0:0:0:
248,312,127986,1,0,0:0:0:0:
228,248,128136,1,0,0:0:0:0:
212,280,128286,1,8,0:0:0:0:
236,292,128361,1,8,0:0:0:0:
248,312,128436,1,0,0:0:0:0:
236,292,128511,1,8,0:0:0:0:
248,312,128586,1,8,0:0:0:0:
225,243,128661,1,8,0:0:0:0:
274,336,128736,1,0,0:0:0:0:
248,312,128886,1,0,0:0:0:0:
248,312,129036,1,8,0:0:0:0:
248,312,129186,1,0,0:0:0:0:
248,312,129486,1,0,0:0:0:0:
248,312,129636,1,0,0:0:0:0:
248,312,129936,1,0,0:0:0:0:
248,312,130086,1,8,0:0:0:0:
248,324,130386,1,0,0:0:0:0:
248,324,130536,1,0,0:0:0:0:
264,328,130836,1,0,0:0:0:0:
268,328,130986,1,8,0:0:0:0:
228,314,131061,1,8,0:0:0:0:
268,328,131136,1,0,0:0:0:0:
264,308,131211,1,0,0:0:0:0:
260,324,131286,1,8,0:0:0:0:
260,324,131361,1,8,0:0:0:0:
268,328,131436,1,0,0:0:0:0:
268,328,131586,1,4,0:0:0:0:
256,264,131886,1,0,0:0:0:0:
256,264,132036,1,0,0:0:0:0:
256,272,132336,1,0,0:0:0:0:
256,272,132486,1,8,0:0:0:0:
256,264,132786,1,8,0:0:0:0:
256,264,132936,1,0,0:0:0:0:
256,264,133086,1,0,0:0:0:0:
256,264,133236,1,0,0:0:0:0:
256,264,133386,1,8,0:0:0:0:
272,312,133461,1,8,0:0:0:0:
256,264,133536,1,0,0:0:0:0:
256,288,133611,1,0,0:0:0:0:
256,264,133686,1,0,0:0:0:0:
240,280,133836,1,8,0:0:0:0:
256,264,133986,1,0,0:0:0:0:
216,268,134286,1,0,0:0:0:0:
232,280,134436,1,0,0:0:0:0:
232,280,134736,1,0,0:0:0:0:
232,280,134886,1,8,0:0:0:0:
248,312,135186,1,0,0:0:0:0:
228,248,135336,1,0,0:0:0:0:
272,312,135411,1,0,0:0:0:0:
212,280,135486,1,8,0:0:0:0:
248,312,135636,1,0,0:0:0:0:
280,300,135711,1,0,0:0:0:0:
248,312,135786,1,0,0:0:0:0:
248,312,135936,1,0,0:0:0:0:
248,312,136086,1,0,0:0:0:0:
264,324,136161,1,0,0:0:0:0:
248,312,136236,1,8,0:0:0:0:
248,312,136386,1,0,0:0:0:0:
248,312,136686,1,0,0:0:0:0:
248,312,136836,1,0,0:0:0:0:
248,312,137136,1,0,0:0:0:0:
248,312,137286,1,8,0:0:0:0:
248,324,137586,1,8,0:0:0:0:
248,324,137736,1,8,0:0:0:0:
264,328,138036,1,0,0:0:0:0:
268,328,138186,1,8,0:0:0:0:
272,312,138261,1,0,0:0:0:0:
268,328,138336,1,0,0:0:0:0:
296,296,138411,1,0,0:0:0:0:
268,328,138486,1,8,0:0:0:0:
260,328,138561,1,0,0:0:0:0:
268,328,138636,1,8,0:0:0:0:
268,328,138786,1,0,0:0:0:0:
216,232,139086,1,0,0:0:0:0:
216,232,139236,1,0,0:0:0:0:
240,256,139536,1,0,0:0:0:0:
240,256,139686,1,0,0:0:0:0:
260,272,139986,1,8,0:0:0:0:
260,272,140136,1,0,0:0:0:0:
260,272,140436,1,8,0:0:0:0:
260,272,140586,1,0,0:0:0:0:
260,272,140736,1,0,0:0:0:0:
224,320,140811,1,0,0:0:0:0:
260,272,140886,1,8,0:0:0:0:
272,312,140961,1,8,0:0:0:0:
260,272,141036,1,0,0:0:0:0:
272,312,141111,1,8,0:0:0:0:
260,272,141186,1,0,0:0:0:0:
204,160,141486,1,0,0:0:0:0:
212,164,141636,1,0,0:0:0:0:
264,192,141936,1,0,0:0:0:0:
264,192,142086,1,0,0:0:0:0:
256,224,142386,1,0,0:0:0:0:
256,224,142536,1,0,0:0:0:0:
232,188,142836,1,0,0:0:0:0:
232,188,142986,1,8,0:0:0:0:
236,232,143286,1,0,0:0:0:0:
236,232,143436,1,8,0:0:0:0:
236,232,143586,1,8,0:0:0:0:
216,220,143886,1,0,0:0:0:0:
216,220,144036,1,8,0:0:0:0:
228,216,144336,1,0,0:0:0:0:
228,256,144486,1,8,0:0:0:0:
240,256,144786,1,0,0:0:0:0:
240,256,144936,1,8,0:0:0:0:
240,256,145236,1,0,0:0:0:0:
240,256,145386,1,8,0:0:0:0:
240,256,145686,1,0,0:0:0:0:
240,256,145836,1,8,0:0:0:0:
240,256,145986,1,0,0:0:0:0:
240,256,146286,1,0,0:0:0:0:
240,256,146436,1,8,0:0:0:0:
240,256,146736,1,0,0:0:0:0:
240,256,146886,1,8,0:0:0:0:
240,256,147186,1,0,0:0:0:0:
240,256,147336,1,8,0:0:0:0:
240,256,147636,1,0,0:0:0:0:
240,256,147786,1,8,0:0:0:0:
224,280,148086,1,0,0:0:0:0:
232,276,148236,1,8,0:0:0:0:
240,300,148386,1,8,0:0:0:0:
240,300,148686,1,8,0:0:0:0:
240,300,148836,1,8,0:0:0:0:
240,300,149136,1,8,0:0:0:0:
240,300,149286,1,8,0:0:0:0:
240,300,149586,1,8,0:0:0:0:
240,300,149736,1,8,0:0:0:0:
240,300,150036,1,0,0:0:0:0:
240,300,150186,1,8,0:0:0:0:
272,312,150261,1,8,0:0:0:0:
240,300,150336,1,0,0:0:0:0:
272,312,150411,1,0,0:0:0:0:
272,312,150486,1,8,0:0:0:0:
272,312,150561,1,8,0:0:0:0:
240,300,150636,1,0,0:0:0:0:
176,288,150786,1,0,0:0:0:0:
224,264,151086,1,0,0:0:0:0:
224,208,151236,1,8,0:0:0:0:
200,264,151386,1,0,0:0:0:0:
216,256,151686,1,8,0:0:0:0:
207,248,152286,1,0,0:0:0:0:
208,280,152586,1,0,0:0:0:0:
228,292,152886,1,8,0:0:0:0:
228,292,153186,1,8,0:0:0:0:
216,296,153636,1,8,0:0:0:0:
200,280,153786,1,0,0:0:0:0:
208,300,154086,1,0,0:0:0:0:
188,276,154536,1,0,0:0:0:0:
192,280,154686,1,8,0:0:0:0:
192,280,154986,1,0,0:0:0:0:
204,296,155136,1,0,0:0:0:0:
272,312,155211,1,0,0:0:0:0:
204,288,155286,1,8,0:0:0:0:
256,252,155586,1,0,0:0:0:0:
272,256,155736,1,0,0:0:0:0:
272,256,155886,1,8,0:0:0:0:
272,256,156036,1,8,0:0:0:0:
272,312,156111,1,8,0:0:0:0:
272,256,156186,1,0,0:0:0:0:
212,240,156486,1,0,0:0:0:0:
212,240,156636,1,0,0:0:0:0:
212,240,156786,1,8,0:0:0:0:
272,292,157086,1,0,0:0:0:0:
272,292,157236,1,0,0:0:0:0:
272,312,157311,1,0,0:0:0:0:
272,292,157386,1,8,0:0:0:0:
272,292,157536,1,8,0:0:0:0:
272,292,157686,1,0,0:0:0:0:
272,312,157761,1,0,0:0:0:0:
272,292,157836,1,8,0:0:0:0:
272,292,157986,1,0,0:0:0:0:
216,240,158286,1,0,0:0:0:0:
216,240,158436,1,8,0:0:0:0:
224,288,158736,1,0,0:0:0:0:
224,288,158886,1,8,0:0:0:0:
224,240,159186,1,0,0:0:0:0:
232,240,159336,1,0,0:0:0:0:
272,312,159411,1,0,0:0:0:0:
232,240,159486,1,8,0:0:0:0:
188,228,159636,1,0,0:0:0:0:
196,228,159786,1,0,0:0:0:0:
196,228,159936,1,0,0:0:0:0:
196,228,160086,1,8,0:0:0:0:
192,168,160386,1,8,0:0:0:0:
152,272,160686,1,0,0:0:0:0:
152,272,160836,1,8,0:0:0:0:
208,264,161136,1,0,0:0:0:0:
192,256,161286,1,8,0:0:0:0:
156,232,161586,1,0,0:0:0:0:
156,232,161736,1,0,0:0:0:0:
156,232,161886,1,8,0:0:0:0:
200,280,162186,1,0,0:0:0:0:
200,280,162336,1,0,0:0:0:0:
200,280,162486,1,8,0:0:0:0:
272,312,162561,1,0,0:0:0:0:
200,280,162636,1,0,0:0:0:0:
200,280,162786,1,8,0:0:0:0:
200,280,163086,1,0,0:0:0:0:
200,280,163236,1,8,0:0:0:0:
200,280,163536,1,0,0:0:0:0:
200,280,163686,1,8,0:0:0:0:
200,280,163986,1,0,0:0:0:0:
200,280,164136,1,0,0:0:0:0:
200,280,164286,1,8,0:0:0:0:
272,312,164361,1,0,0:0:0:0:
272,312,164436,1,0,0:0:0:0:
272,312,164511,1,0,0:0:0:0:
200,280,164586,1,8,0:0:0:0:
200,280,164736,1,0,0:0:0:0:
200,280,164886,1,8,0:0:0:0:
257,243,165036,1,8,0:0:0:0:
200,280,165186,1,0,0:0:0:0:
200,280,165486,1,0,0:0:0:0:
200,280,165636,1,8,0:0:0:0:
192,284,165936,1,0,0:0:0:0:
188,284,166086,1,8,0:0:0:0:
192,280,166386,1,0,0:0:0:0:
192,280,166536,1,0,0:0:0:0:
192,280,166686,1,8,0:0:0:0:
192,280,166986,1,0,0:0:0:0:
192,280,167136,1,0,0:0:0:0:
272,312,167211,1,0,0:0:0:0:
192,284,167286,1,8,0:0:0:0:
192,284,167436,1,0,0:0:0:0:
188,284,167586,1,0,0:0:0:0:
176,280,167886,1,0,0:0:0:0:
176,280,168036,1,8,0:0:0:0:
184,284,168336,1,0,0:0:0:0:
184,284,168486,1,8,0:0:0:0:
220,328,168786,1,0,0:0:0:0:
220,328,168936,1,0,0:0:0:0:
220,328,169086,1,8,0:0:0:0:
220,328,169236,1,0,0:0:0:0:
272,312,169311,1,0,0:0:0:0:
220,328,169386,1,0,0:0:0:0:
212,232,169461,1,0,0:0:0:0:
220,328,169536,1,0,0:0:0:0:
220,328,169686,1,8,0:0:0:0:
220,328,169836,1,0,0:0:0:0:
228,304,169986,1,4,0:0:0:0:
261,296,170286,1,0,0:0:0:0:
261,296,170436,1,8,0:0:0:0:
266,298,170736,1,8,0:0:0:0:
283,309,171036,1,0,0:0:0:0:
204,240,171186,1,4,0:0:0:0:
283,309,171336,1,0,0:0:0:0:
283,309,171486,1,0,0:0:0:0:
286,311,171786,1,8,0:0:0:0:
286,311,172086,1,8,0:0:0:0:
236,264,172386,1,4,0:0:0:0:
283,309,172686,1,0,0:0:0:0:
283,309,172836,1,8,0:0:0:0:
286,311,173136,1,8,0:0:0:0:
286,311,173436,1,0,0:0:0:0:
236,264,173586,1,4,0:0:0:0:
283,309,173736,1,0,0:0:0:0:
283,309,173886,1,0,0:0:0:0:
283,309,174186,1,8,0:0:0:0:
286,311,174486,1,8,0:0:0:0:
228,284,174786,1,4,0:0:0:0:
289,313,175086,1,0,0:0:0:0:
289,313,175236,1,8,0:0:0:0:
301,291,175536,1,8,0:0:0:0:
297,303,175836,1,0,0:0:0:0:
228,284,175986,1,4,0:0:0:0:
297,303,176136,1,0,0:0:0:0:
297,303,176286,1,0,0:0:0:0:
286,286,176586,1,8,0:0:0:0:
287,286,176886,1,8,0:0:0:0:
228,284,177186,1,4,0:0:0:0:
290,288,177486,1,0,0:0:0:0:
290,288,177636,1,8,0:0:0:0:
290,288,177936,1,8,0:0:0:0:
287,286,178236,1,0,0:0:0:0:
228,284,178386,1,4,0:0:0:0:
290,288,178536,1,0,0:0:0:0:
290,288,178686,1,0,0:0:0:0:
290,288,178986,1,8,0:0:0:0:
290,288,179286,1,8,0:0:0:0:
228,284,179586,1,4,0:0:0:0:
336,224,179886,1,0,0:0:0:0:
296,236,180186,1,8,0:0:0:0:
272,284,180336,1,0,0:0:0:0:
248,272,180486,1,0,0:0:0:0:
244,256,180786,1,4,0:0:0:0:
256,272,181086,1,0,0:0:0:0:
240,280,181386,1,0,0:0:0:0:
240,280,181536,1,0,0:0:0:0:
240,280,181686,1,8,0:0:0:0:
240,300,181986,1,4,0:0:0:0:
240,300,182286,1,0,0:0:0:0:
240,300,182586,1,8,0:0:0:0:
276,304,182736,1,0,0:0:0:0:
240,300,182886,1,0,0:0:0:0:
216,248,183186,1,4,0:0:0:0:
240,300,183486,1,0,0:0:0:0:
240,300,183786,1,0,0:0:0:0:
240,300,183936,1,0,0:0:0:0:
240,300,184086,1,8,0:0:0:0:
240,300,184236,1,0,0:0:0:0:
240,300,184386,1,4,0:0:0:0:
240,300,184686,1,0,0:0:0:0:
240,300,184986,1,8,0:0:0:0:
256,256,185136,1,8,0:0:0:0:
240,300,185286,1,0,0:0:0:0:
216,204,185586,1,4,0:0:0:0:
240,300,185886,1,0,0:0:0:0:
240,300,186186,1,0,0:0:0:0:
240,300,186336,1,0,0:0:0:0:
240,300,186486,1,8,0:0:0:0:
236,232,186636,1,0,0:0:0:0:
240,224,186786,1,4,0:0:0:0:
272,212,187086,1,0,0:0:0:0:
256,268,187386,1,8,0:0:0:0:
256,268,187686,1,0,0:0:0:0:
256,268,187836,1,8,0:0:0:0:
228,280,188136,1,0,0:0:0:0:
228,280,188286,1,8,0:0:0:0:
228,280,188586,1,0,0:0:0:0:
228,280,188736,1,0,0:0:0:0:
228,280,188886,1,8,0:0:0:0:
228,280,189186,1,0,0:0:0:0:
256,256,189336,1,0,0:0:0:0:
340,264,189411,1,0,0:0:0:0:
256,256,189486,1,0,0:0:0:0:
252,252,189636,1,8,0:0:0:0:
236,224,190386,1,0,0:0:0:0:
240,228,190536,1,0,0:0:0:0:
232,248,190611,1,0,0:0:0:0:
232,248,190686,1,8,0:0:0:0:
216,232,191586,1,0,0:0:0:0:
224,232,191736,1,0,0:0:0:0:
224,232,191811,1,0,0:0:0:0:
224,232,191886,1,0,0:0:0:0:
228,232,192036,1,8,0:0:0:0:
204,192,192786,1,0,0:0:0:0:
212,200,192936,1,0,0:0:0:0:
228,256,193011,1,8,0:0:0:0:
212,204,193086,1,8,0:0:0:0:
240,196,193986,1,0,0:0:0:0:
240,196,194136,1,0,0:0:0:0:
240,196,194211,1,0,0:0:0:0:
240,196,194286,1,0,0:0:0:0:
240,196,194436,1,8,0:0:0:0:
248,204,195186,1,0,0:0:0:0:
248,204,195336,1,0,0:0:0:0:
224,260,195411,1,0,0:0:0:0:
248,204,195486,1,8,0:0:0:0:
240,196,196386,1,0,0:0:0:0:
240,196,196536,1,0,0:0:0:0:
240,196,196611,1,0,0:0:0:0:
240,196,196686,1,0,0:0:0:0:
240,196,196836,1,8,0:0:0:0:
228,192,197586,1,0,0:0:0:0:
228,192,197736,1,0,0:0:0:0:
224,260,197811,1,8,0:0:0:0:
228,192,197886,1,8,0:0:0:0:
240,196,198786,1,0,0:0:0:0:
240,196,198936,1,0,0:0:0:0:
240,196,199011,1,0,0:0:0:0:
240,196,199086,1,0,0:0:0:0:
240,196,199236,1,8,0:0:0:0:
244,172,199986,1,0,0:0:0:0:
244,172,200136,1,0,0:0:0:0:
224,260,200211,1,0,0:0:0:0:
244,172,200286,1,8,0:0:0:0:
240,196,201186,1,0,0:0:0:0:
240,196,201336,1,0,0:0:0:0:
240,196,201411,1,0,0:0:0:0:
240,196,201486,1,0,0:0:0:0:
240,196,201636,1,8,0:0:0:0:
260,184,202386,1,0,0:0:0:0:
252,236,202536,1,0,0:0:0:0:
224,260,202611,1,8,0:0:0:0:
252,236,202686,1,8,0:0:0:0:
240,196,203586,1,0,0:0:0:0:
240,196,203736,1,0,0:0:0:0:
240,196,203811,1,0,0:0:0:0:
240,196,203886,1,0,0:0:0:0:
240,196,204036,1,8,0:0:0:0:
224,200,204786,1,0,0:0:0:0:
224,260,204936,1,0,0:0:0:0:
224,260,205011,1,0,0:0:0:0:
240,224,205086,1,8,0:0:0:0:
240,196,205986,1,0,0:0:0:0:
240,196,206136,1,0,0:0:0:0:
240,196,206211,1,0,0:0:0:0:
240,196,206286,1,0,0:0:0:0:
240,196,206436,1,8,0:0:0:0:
252,192,207186,1,0,0:0:0:0:
252,192,207336,1,0,0:0:0:0:
244,232,207411,1,8,0:0:0:0:
256,200,207486,1,8,0:0:0:0:
224,216,207936,1,0,0:0:0:0:
224,216,208011,1,0,0:0:0:0:
224,216,208086,1,0,0:0:0:0:
168,208,208236,1,0,0:0:0:0:
200,208,208386,1,0,0:0:0:0:
244,232,208686,1,8,0:0:0:0:
260,264,208986,1,0,0:0:0:0:
260,264,209136,1,0,0:0:0:0:
260,264,209286,1,8,0:0:0:0:
200,240,209436,1,0,0:0:0:0:
196,232,209586,1,0,0:0:0:0:
196,232,209661,1,0,0:0:0:0:
196,232,209736,1,0,0:0:0:0:
196,232,209886,1,8,0:0:0:0:
224,248,210036,1,0,0:0:0:0:
204,248,210186,1,0,0:0:0:0:
208,252,210336,1,0,0:0:0:0:
208,252,210486,1,8,0:0:0:0:
200,240,210636,1,0,0:0:0:0:
248,272,210786,1,0,0:0:0:0:
248,272,210861,1,0,0:0:0:0:
248,272,210936,1,0,0:0:0:0:
236,264,211086,1,8,0:0:0:0:
232,264,211386,1,0,0:0:0:0:
232,264,211536,1,0,0:0:0:0:
232,264,211686,1,8,0:0:0:0:
204,240,211836,1,0,0:0:0:0:
232,248,211986,1,0,0:0:0:0:
232,248,212061,1,0,0:0:0:0:
232,248,212136,1,0,0:0:0:0:
232,248,212286,1,8,0:0:0:0:
232,248,212436,1,0,0:0:0:0:
232,248,212586,1,0,0:0:0:0:
240,256,212661,1,0,0:0:0:0:
240,256,212736,1,0,0:0:0:0:
240,256,212811,1,0,0:0:0:0:
240,244,212886,1,8,0:0:0:0:
204,240,213036,1,0,0:0:0:0:
248,272,213186,1,0,0:0:0:0:
248,272,213261,1,0,0:0:0:0:
248,272,213336,1,0,0:0:0:0:
232,248,213486,1,8,0:0:0:0:
248,272,213786,1,0,0:0:0:0:
248,272,213936,1,0,0:0:0:0:
248,272,214086,1,8,0:0:0:0:
240,256,214236,1,0,0:0:0:0:
240,256,214311,1,0,0:0:0:0:
260,268,214386,1,0,0:0:0:0:
248,284,214536,1,0,0:0:0:0:
248,284,214686,1,8,0:0:0:0:
208,248,214986,1,0,0:0:0:0:
216,252,215136,1,0,0:0:0:0:
216,252,215286,1,8,0:0:0:0:
216,252,215436,1,0,0:0:0:0:
216,252,215511,1,0,0:0:0:0:
248,272,215586,1,0,0:0:0:0:
248,272,215736,1,0,0:0:0:0:
268,256,215886,1,8,0:0:0:0:
268,256,216036,1,0,0:0:0:0:
204,244,216336,1,0,0:0:0:0:
248,272,216486,1,8,0:0:0:0:
248,272,216636,1,0,0:0:0:0:
248,272,216711,1,0,0:0:0:0:
208,224,216786,1,0,0:0:0:0:
144,176,216936,1,0,0:0:0:0:
224,232,217086,1,8,0:0:0:0:
224,224,217386,1,0,0:0:0:0:
204,244,217536,1,0,0:0:0:0:
264,232,217686,1,8,0:0:0:0:
264,232,217836,1,0,0:0:0:0:
264,232,217911,1,0,0:0:0:0:
264,232,217986,1,0,0:0:0:0:
264,232,218136,1,0,0:0:0:0:
92,144,218211,1,0,0:0:0:0:
264,232,218286,1,0,0:0:0:0:
340,204,218436,1,8,0:0:0:0:
204,244,218736,1,0,0:0:0:0:
204,196,218886,1,0,0:0:0:0:
216,200,218961,1,0,0:0:0:0:
216,200,219036,1,0,0:0:0:0:
216,200,219186,1,0,0:0:0:0:
354,293,219336,1,0,0:0:0:0:
354,293,219486,1,8,0:0:0:0:
268,212,219786,1,0,0:0:0:0:
268,212,219936,1,0,0:0:0:0:
268,212,220011,1,0,0:0:0:0:
268,212,220086,1,0,0:0:0:0:
268,212,220236,1,8,0:0:0:0:
268,212,220386,1,0,0:0:0:0:
268,212,220536,1,0,0:0:0:0:
268,212,220611,1,0,0:0:0:0:
268,212,220686,1,0,0:0:0:0:
337,300,220836,1,8,0:0:0:0:
204,244,221136,1,0,0:0:0:0:
236,236,221286,1,0,0:0:0:0:
232,248,221361,1,0,0:0:0:0:
236,236,221436,1,0,0:0:0:0:
236,236,221586,1,0,0:0:0:0:
337,300,221736,1,0,0:0:0:0:
337,300,221886,1,8,0:0:0:0:
236,236,222186,1,0,0:0:0:0:
224,232,222336,1,0,0:0:0:0:
174,219,222411,1,0,0:0:0:0:
224,232,222486,1,8,0:0:0:0:
212,224,222636,1,0,0:0:0:0:
248,232,222786,1,0,0:0:0:0:
248,232,222936,1,0,0:0:0:0:
248,232,223011,1,0,0:0:0:0:
248,232,223086,1,0,0:0:0:0:
248,232,223236,1,8,0:0:0:0:
212,224,223536,1,0,0:0:0:0:
176,192,223686,1,0,0:0:0:0:
196,196,223836,1,0,0:0:0:0:
169,165,223911,1,0,0:0:0:0:
196,196,223986,1,0,0:0:0:0:
200,200,224136,1,0,0:0:0:0:
200,200,224286,1,8,0:0:0:0:
208,224,224736,1,8,0:0:0:0:
208,224,224811,1,0,0:0:0:0:
208,224,224886,1,0,0:0:0:0:
284,264,225036,1,0,0:0:0:0:
280,304,225111,1,0,0:0:0:0:
284,264,225186,1,0,0:0:0:0:
280,304,225336,1,0,0:0:0:0:
296,312,225486,1,0,0:0:0:0:
304,240,225636,1,8,0:0:0:0:
296,312,225936,1,0,0:0:0:0:
224,164,226011,1,0,0:0:0:0:
296,312,226086,1,0,0:0:0:0:
296,312,226236,1,0,0:0:0:0:
304,240,226386,1,8,0:0:0:0:
240,256,226536,1,0,0:0:0:0:
268,280,226686,1,0,0:0:0:0:
268,280,226836,1,8,0:0:0:0:
232,232,226986,1,0,0:0:0:0:
232,232,227136,1,0,0:0:0:0:
232,232,227211,1,0,0:0:0:0:
232,232,227286,1,0,0:0:0:0:
232,232,227436,1,0,0:0:0:0:
260,268,227586,1,8,0:0:0:0:
240,244,227661,1,0,0:0:0:0:
256,264,227736,1,0,0:0:0:0:
240,256,227811,1,0,0:0:0:0:
208,232,227886,1,8,0:0:0:0:
240,256,227961,1,0,0:0:0:0:
232,248,228036,1,0,0:0:0:0:
240,244,228111,1,0,0:0:0:0:
216,236,228186,1,8,0:0:0:0:
240,244,228261,1,0,0:0:0:0:
240,272,228336,1,0,0:0:0:0:
240,256,228411,1,0,0:0:0:0:
240,272,228486,1,8,0:0:0:0:
240,256,228561,1,0,0:0:0:0:
240,256,228636,1,0,0:0:0:0:
240,244,228711,1,0,0:0:0:0:
240,272,228786,1,8,0:0:0:0:
216,224,228936,1,0,0:0:0:0:
240,272,229086,1,8,0:0:0:0:
240,256,229161,1,0,0:0:0:0:
240,272,229236,1,0,0:0:0:0:
240,272,229386,1,8,0:0:0:0:
224,208,229461,1,0,0:0:0:0:
240,272,229536,1,0,0:0:0:0:
240,272,229686,1,8,0:0:0:0:
224,208,229761,1,0,0:0:0:0:
240,272,229836,1,0,0:0:0:0:
256,276,229986,1,4,0:0:0:0:
256,264,230286,1,0,0:0:0:0:
256,264,230436,1,0,0:0:0:0:
256,272,230736,1,0,0:0:0:0:
256,272,230886,1,8,0:0:0:0:
256,264,231186,1,8,0:0:0:0:
240,256,231261,1,8,0:0:0:0:
256,264,231336,1,0,0:0:0:0:
256,264,231486,1,0,0:0:0:0:
256,264,231636,1,0,0:0:0:0:
240,256,231711,1,0,0:0:0:0:
256,264,231786,1,8,0:0:0:0:
256,264,231936,1,0,0:0:0:0:
240,256,232086,1,0,0:0:0:0:
336,328,232161,1,0,0:0:0:0:
240,280,232236,1,8,0:0:0:0:
256,264,232386,1,0,0:0:0:0:
244,280,232686,1,0,0:0:0:0:
244,280,232836,1,0,0:0:0:0:
256,272,233136,1,0,0:0:0:0:
256,272,233286,1,8,0:0:0:0:
224,272,233586,1,0,0:0:0:0:
252,268,233736,1,8,0:0:0:0:
240,256,233811,1,8,0:0:0:0:
252,268,233886,1,0,0:0:0:0:
252,268,234036,1,0,0:0:0:0:
260,272,234186,1,8,0:0:0:0:
240,256,234261,1,8,0:0:0:0:
260,272,234336,1,0,0:0:0:0:
240,256,234411,1,8,0:0:0:0:
256,272,234486,1,0,0:0:0:0:
256,272,234636,1,8,0:0:0:0:
256,272,234786,1,0,0:0:0:0:
216,268,235086,1,0,0:0:0:0:
232,280,235236,1,0,0:0:0:0:
232,280,235536,1,0,0:0:0:0:
232,280,235686,1,8,0:0:0:0:
248,312,235986,1,0,0:0:0:0:
228,248,236136,1,0,0:0:0:0:
212,280,236286,1,8,0:0:0:0:
240,256,236361,1,8,0:0:0:0:
248,312,236436,1,0,0:0:0:0:
240,256,236511,1,8,0:0:0:0:
248,312,236586,1,0,0:0:0:0:
236,308,236661,1,0,0:0:0:0:
248,312,236736,1,8,0:0:0:0:
236,308,236811,1,8,0:0:0:0:
248,312,236886,1,0,0:0:0:0:
248,312,237036,1,8,0:0:0:0:
248,312,237186,1,0,0:0:0:0:
248,312,237486,1,0,0:0:0:0:
248,312,237636,1,0,0:0:0:0:
248,312,237936,1,0,0:0:0:0:
248,312,238086,1,8,0:0:0:0:
248,324,238386,1,0,0:0:0:0:
248,324,238536,1,0,0:0:0:0:
264,328,238836,1,0,0:0:0:0:
268,328,238986,1,8,0:0:0:0:
240,256,239061,1,0,0:0:0:0:
268,328,239136,1,0,0:0:0:0:
240,256,239211,1,8,0:0:0:0:
268,328,239286,1,0,0:0:0:0:
268,328,239436,1,8,0:0:0:0:
268,328,239586,1,4,0:0:0:0:
256,264,239886,1,0,0:0:0:0:
256,264,240036,1,0,0:0:0:0:
256,272,240336,1,0,0:0:0:0:
256,272,240486,1,8,0:0:0:0:
256,264,240786,1,8,0:0:0:0:
256,264,240936,1,0,0:0:0:0:
240,256,241011,1,0,0:0:0:0:
256,264,241086,1,8,0:0:0:0:
240,256,241161,1,8,0:0:0:0:
256,264,241236,1,0,0:0:0:0:
256,264,241386,1,8,0:0:0:0:
256,264,241536,1,0,0:0:0:0:
256,264,241686,1,0,0:0:0:0:
288,244,241761,1,0,0:0:0:0:
240,280,241836,1,8,0:0:0:0:
256,264,241986,1,0,0:0:0:0:
216,268,242286,1,0,0:0:0:0:
232,280,242436,1,0,0:0:0:0:
232,280,242736,1,0,0:0:0:0:
232,280,242886,1,8,0:0:0:0:
248,312,243186,1,0,0:0:0:0:
228,248,243336,1,0,0:0:0:0:
212,280,243486,1,8,0:0:0:0:
260,280,243561,1,8,0:0:0:0:
248,312,243636,1,0,0:0:0:0:
260,280,243711,1,8,0:0:0:0:
248,312,243786,1,0,0:0:0:0:
248,312,243936,1,0,0:0:0:0:
248,312,244086,1,0,0:0:0:0:
248,312,244236,1,8,0:0:0:0:
248,312,244386,1,0,0:0:0:0:
248,312,244686,1,0,0:0:0:0:
248,312,244836,1,0,0:0:0:0:
248,312,245136,1,0,0:0:0:0:
248,312,245286,1,8,0:0:0:0:
248,324,245586,1,8,0:0:0:0:
248,324,245736,1,8,0:0:0:0:
264,328,246036,1,0,0:0:0:0:
268,328,246186,1,8,0:0:0:0:
224,256,246261,1,0,0:0:0:0:
268,328,246336,1,0,0:0:0:0:
260,280,246411,1,0,0:0:0:0:
268,328,246486,1,8,0:0:0:0:
260,280,246561,1,8,0:0:0:0:
268,328,246636,1,0,0:0:0:0:
268,328,246786,1,0,0:0:0:0:
216,232,247086,1,0,0:0:0:0:
216,232,247236,1,0,0:0:0:0:
240,256,247536,1,0,0:0:0:0:
240,256,247686,1,0,0:0:0:0:
260,272,247986,1,8,0:0:0:0:
260,272,248136,1,0,0:0:0:0:
260,272,248436,1,8,0:0:0:0:
260,272,248586,1,0,0:0:0:0:
260,280,248661,1,8,0:0:0:0:
260,272,248736,1,0,0:0:0:0:
260,280,248811,1,0,0:0:0:0:
260,272,248886,1,8,0:0:0:0:
232,300,248961,1,0,0:0:0:0:
260,272,249036,1,8,0:0:0:0:
232,300,249111,1,8,0:0:0:0:
260,272,249186,1,0,0:0:0:0:
256,264,249486,1,0,0:0:0:0:
256,264,249636,1,0,0:0:0:0:
256,272,249936,1,0,0:0:0:0:
256,272,250086,1,8,0:0:0:0:
256,264,250386,1,8,0:0:0:0:
256,264,250536,1,0,0:0:0:0:
256,264,250686,1,0,0:0:0:0:
256,264,250836,1,0,0:0:0:0:
260,280,250911,1,0,0:0:0:0:
256,264,250986,1,8,0:0:0:0:
260,280,251061,1,0,0:0:0:0:
256,264,251136,1,0,0:0:0:0:
256,264,251286,1,0,0:0:0:0:
240,280,251436,1,8,0:0:0:0:
256,264,251586,1,0,0:0:0:0:
244,280,251886,1,0,0:0:0:0:
244,280,252036,1,0,0:0:0:0:
256,272,252336,1,0,0:0:0:0:
256,272,252486,1,8,0:0:0:0:
224,272,252786,1,0,0:0:0:0:
252,268,252936,1,8,0:0:0:0:
252,268,253086,1,0,0:0:0:0:
260,280,253161,1,0,0:0:0:0:
252,268,253236,1,0,0:0:0:0:
260,280,253311,1,0,0:0:0:0:
260,272,253386,1,8,0:0:0:0:
260,272,253536,1,0,0:0:0:0:
256,272,253686,1,0,0:0:0:0:
256,272,253836,1,8,0:0:0:0:
256,272,253986,1,0,0:0:0:0:
256,264,254286,1,0,0:0:0:0:
256,264,254436,1,0,0:0:0:0:
256,272,254736,1,0,0:0:0:0:
256,272,254886,1,8,0:0:0:0:
256,264,255186,1,8,0:0:0:0:
256,264,255336,1,0,0:0:0:0:
256,264,255486,1,0,0:0:0:0:
260,280,255561,1,0,0:0:0:0:
256,264,255636,1,8,0:0:0:0:
260,280,255711,1,8,0:0:0:0:
256,264,255786,1,0,0:0:0:0:
256,264,255936,1,0,0:0:0:0:
256,264,256086,1,0,0:0:0:0:
240,280,256236,1,8,0:0:0:0:
256,264,256386,1,0,0:0:0:0:
244,280,256686,1,0,0:0:0:0:
244,280,256836,1,0,0:0:0:0:
256,272,257136,1,0,0:0:0:0:
256,272,257286,1,8,0:0:0:0:
224,272,257586,1,0,0:0:0:0:
252,268,257736,1,8,0:0:0:0:
252,268,257886,1,0,0:0:0:0:
260,280,257961,1,8,0:0:0:0:
260,280,258036,1,0,0:0:0:0:
260,280,258111,1,0,0:0:0:0:
260,280,258186,1,8,0:0:0:0:
260,272,258336,1,0,0:0:0:0:
256,272,258486,1,0,0:0:0:0:
256,272,258636,1,8,0:0:0:0:
256,272,258786,1,0,0:0:0:0:
256,264,259086,1,0,0:0:0:0:
256,264,259236,1,0,0:0:0:0:
256,272,259536,1,0,0:0:0:0:
256,272,259686,1,8,0:0:0:0:
256,264,259986,1,8,0:0:0:0:
260,280,260061,1,0,0:0:0:0:
256,264,260136,1,0,0:0:0:0:
260,280,260211,1,8,0:0:0:0:
256,264,260286,1,0,0:0:0:0:
256,264,260436,1,0,0:0:0:0:
256,264,260586,1,8,0:0:0:0:
256,264,260736,1,0,0:0:0:0:
256,264,260886,1,0,0:0:0:0:
240,280,261036,1,8,0:0:0:0:
256,264,261186,1,0,0:0:0:0:
244,280,261486,1,0,0:0:0:0:
244,280,261636,1,0,0:0:0:0:
256,272,261936,1,0,0:0:0:0:
256,272,262086,1,8,0:0:0:0:
224,272,262386,1,0,0:0:0:0:
260,280,262461,1,0,0:0:0:0:
252,268,262536,1,8,0:0:0:0:
260,280,262611,1,8,0:0:0:0:
252,268,262686,1,0,0:0:0:0:
252,268,262836,1,0,0:0:0:0:
260,272,262986,1,8,0:0:0:0:
260,272,263136,1,0,0:0:0:0:
256,272,263286,1,0,0:0:0:0:
256,272,263436,1,8,0:0:0:0:
256,272,263586,1,0,0:0:0:0:
256,264,263886,1,0,0:0:0:0:
256,264,264036,1,0,0:0:0:0:
256,272,264336,1,0,0:0:0:0:
256,272,264486,1,8,0:0:0:0:
256,264,264786,1,8,0:0:0:0:
260,280,264861,1,8,0:0:0:0:
256,264,264936,1,0,0:0:0:0:
260,280,265011,1,8,0:0:0:0:
256,264,265086,1,0,0:0:0:0:
256,264,265236,1,0,0:0:0:0:
256,264,265386,1,8,0:0:0:0:
256,264,265536,1,0,0:0:0:0:
256,264,265686,1,0,0:0:0:0:
240,280,265836,1,8,0:0:0:0:
256,264,265986,1,0,0:0:0:0:
244,280,266286,1,0,0:0:0:0:
244,280,266436,1,0,0:0:0:0:
256,272,266736,1,0,0:0:0:0:
256,272,266886,1,8,0:0:0:0:
224,272,267186,1,0,0:0:0:0:
252,268,267336,1,8,0:0:0:0:
252,268,267486,1,0,0:0:0:0:
252,268,267636,1,0,0:0:0:0:
260,280,267711,1,0,0:0:0:0:
260,272,267786,1,8,0:0:0:0:
260,272,267936,1,0,0:0:0:0:
256,272,268086,1,0,0:0:0:0:
256,272,268236,1,8,0:0:0:0:
256,272,268386,1,0,0:0:0:0:
256,264,268686,1,0,0:0:0:0:
256,264,268836,1,0,0:0:0:0:
256,272,269136,1,0,0:0:0:0:
256,272,269286,1,8,0:0:0:0:
256,264,269586,1,8,0:0:0:0:
256,264,269736,1,0,0:0:0:0:
260,280,269886,1,0,0:0:0:0:
256,264,270036,1,0,0:0:0:0:
256,264,270186,1,8,0:0:0:0:
256,264,270336,1,0,0:0:0:0:
256,264,270486,1,0,0:0:0:0:
240,280,270636,1,8,0:0:0:0:
256,264,270786,1,0,0:0:0:0:
244,280,271086,1,0,0:0:0:0:
244,280,271236,1,0,0:0:0:0:
256,272,271536,1,0,0:0:0:0:
256,272,271686,1,8,0:0:0:0:
224,272,271986,1,0,0:0:0:0:
252,268,272136,1,8,0:0:0:0:
252,268,272286,1,0,0:0:0:0:
252,268,272436,1,0,0:0:0:0:
260,272,272586,1,8,0:0:0:0:
260,272,272736,1,0,0:0:0:0:
256,272,272886,1,8,0:0:0:0:
256,272,273036,1,8,0:0:0:0:
256,272,273186,1,0,0:0:0:0:
256,264,273486,1,0,0:0:0:0:
256,264,273636,1,0,0:0:0:0:
256,272,273936,1,0,0:0:0:0:
256,272,274086,1,8,0:0:0:0:
256,264,274386,1,8,0:0:0:0:
256,264,274536,1,0,0:0:0:0:
256,264,274686,1,0,0:0:0:0:
256,264,274836,1,0,0:0:0:0:
256,264,274986,1,8,0:0:0:0:
256,264,275136,1,0,0:0:0:0:
256,264,275286,1,0,0:0:0:0:
240,280,275436,1,8,0:0:0:0:
256,264,275586,1,0,0:0:0:0:
244,280,275886,1,0,0:0:0:0:
244,280,276036,1,0,0:0:0:0:
256,272,276336,1,0,0:0:0:0:
256,272,276486,1,8,0:0:0:0:
224,272,276786,1,0,0:0:0:0:
252,268,276936,1,8,0:0:0:0:
252,268,277086,1,0,0:0:0:0:
252,268,277236,1,0,0:0:0:0:
260,272,277386,1,8,0:0:0:0:
260,272,277536,1,0,0:0:0:0:
256,272,277686,1,0,0:0:0:0:
256,272,277836,1,8,0:0:0:0:
256,272,277986,1,0,0:0:0:0:
256,264,278286,1,0,0:0:0:0:
256,264,278436,1,0,0:0:0:0:
256,272,278736,1,0,0:0:0:0:
256,272,278886,1,8,0:0:0:0:
256,264,279186,1,8,0:0:0:0:
256,264,279336,1,0,0:0:0:0:
256,264,279486,1,0,0:0:0:0:
256,264,279786,1,8,0:0:0:0:
256,264,279936,1,0,0:0:0:0:
256,264,280086,1,0,0:0:0:0:
240,280,280236,1,8,0:0:0:0:
256,264,280386,1,0,0:0:0:0:
244,280,280686,1,0,0:0:0:0:
244,280,280836,1,0,0:0:0:0:
256,272,281136,1,0,0:0:0:0:
256,272,281286,1,8,0:0:0:0:
224,272,281586,1,0,0:0:0:0:
252,268,281736,1,8,0:0:0:0:
252,268,281886,1,0,0:0:0:0:
260,272,282186,1,8,0:0:0:0:
260,272,282336,1,0,0:0:0:0:
256,272,282486,1,0,0:0:0:0:
256,272,282786,1,0,0:0:0:0:
256,264,283086,1,0,0:0:0:0:
256,264,283236,1,0,0:0:0:0:
256,272,283536,1,0,0:0:0:0:
256,272,283686,1,8,0:0:0:0:
256,264,283986,1,8,0:0:0:0:
256,264,284136,1,0,0:0:0:0:
260,280,284286,1,0,0:0:0:0:
256,264,284586,1,8,0:0:0:0:
256,264,284736,1,0,0:0:0:0:
256,264,284886,1,0,0:0:0:0:
256,264,285186,1,0,0:0:0:0:
244,280,285486,1,0,0:0:0:0:
244,280,285636,1,0,0:0:0:0:
256,272,285936,1,0,0:0:0:0:
256,272,286086,1,8,0:0:0:0:
224,272,286386,1,0,0:0:0:0:
252,268,286536,1,8,0:0:0:0:
252,268,286686,1,0,0:0:0:0:
260,272,286986,1,8,0:0:0:0:
256,272,287286,1,0,0:0:0:0:
256,272,287586,1,0,0:0:0:0:
256,264,287886,1,0,0:0:0:0:
256,264,288036,1,0,0:0:0:0:
256,272,288336,1,0,0:0:0:0:
256,272,288486,1,8,0:0:0:0:
256,264,288786,1,8,0:0:0:0:
256,264,288936,1,0,0:0:0:0:
256,264,289086,1,0,0:0:0:0:
256,264,289386,1,8,0:0:0:0:
256,264,289686,1,0,0:0:0:0:
256,264,289986,1,0,0:0:0:0:
244,280,290286,1,0,0:0:0:0:
244,280,290436,1,0,0:0:0:0:
256,272,290736,1,0,0:0:0:0:
256,272,290886,1,8,0:0:0:0:
224,272,291186,1,0,0:0:0:0:
252,268,291486,1,0,0:0:0:0:
260,272,291786,1,8,0:0:0:0:
256,272,292086,1,0,0:0:0:0:
256,272,292386,1,0,0:0:0:0:
256,272,292986,1,0,0:0:0:0:
256,264,293586,1,8,0:0:0:0:
216,176,294036,1,8,0:0:0:0:
240,280,294486,1,8,0:0:0:0:
256,264,294786,1,0,0:0:0:0:
256,272,295686,1,0,0:0:0:0:
224,272,295986,1,8,0:0:0:0:
252,268,296286,1,0,0:0:0:0:
260,272,296586,1,0,0:0:0:0:
256,272,296886,1,8,0:0:0:0:
256,272,297186,1,0,0:0:0:0:
256,264,297636,1,0,0:0:0:0:
256,272,298086,1,0,0:0:0:0:
256,264,298386,1,8,0:0:0:0:
256,264,298836,1,8,0:0:0:0:
256,264,299286,1,0,0:0:0:0:
256,264,299586,1,0,0:0:0:0:
256,272,300036,1,8,0:0:0:0:
256,272,300486,1,0,0:0:0:0:
252,268,301086,1,8,0:0:0:0:
256,272,301686,1,0,0:0:0:0:
240,284,302586,1,8,0:0:0:0:
256,280,303186,1,8,0:0:0:0:
268,284,303786,1,8,0:0:0:0:
260,296,304386,1,8,0:0:0:0:
260,276,305286,1,0,0:0:0:0:
260,276,305586,1,8,0:0:0:0:
224,252,305886,1,0,0:0:0:0:
232,280,306186,1,0,0:0:0:0:
232,280,306486,1,8,0:0:0:0:
264,276,306786,1,0,0:0:0:0:
232,280,307686,1,0,0:0:0:0:
228,292,307986,1,8,0:0:0:0:
224,288,308436,1,8,0:0:0:0:
224,288,308886,1,8,0:0:0:0:
228,292,309186,1,0,0:0:0:0:
236,312,309636,1,8,0:0:0:0:
252,300,310086,1,0,0:0:0:0:
252,300,310686,1,8,0:0:0:0:
252,300,311286,1,0,0:0:0:0:
268,292,312186,1,8,0:0:0:0:
280,288,312786,1,8,0:0:0:0:
280,288,313236,1,8,0:0:0:0:
280,288,313686,1,8,0:0:0:0:
280,288,313986,1,8,0:0:0:0:
188,228,314886,1,0,0:0:0:0:
188,228,315186,1,8,0:0:0:0:
200,216,315486,1,0,0:0:0:0:
200,220,315786,1,8,0:0:0:0:
200,220,316086,1,0,0:0:0:0:
212,256,316386,1,0,0:0:0:0:
204,296,317286,1,0,0:0:0:0:
204,296,317586,1,8,0:0:0:0:
192,240,318036,1,8,0:0:0:0:
208,272,318486,1,0,0:0:0:0:
208,272,318786,1,8,0:0:0:0:
208,272,319236,1,8,0:0:0:0:
208,272,319686,1,0,0:0:0:0:
200,256,320286,1,8,0:0:0:0:
200,256,320886,1,0,0:0:0:0:
192,268,321786,1,8,0:0:0:0:
192,272,322386,1,8,0:0:0:0:
192,268,322986,1,8,0:0:0:0:
200,272,323586,1,12,0:0:0:0:
200,272,324786,1,8,0:0:0:0:
219,268,325086,1,0,0:0:0:0:
219,268,325386,1,0,0:0:0:0:
226,278,325686,1,8,0:0:0:0:
212,264,325986,1,0,0:0:0:0:
296,208,326286,1,0,0:0:0:0:
296,208,326586,1,8,0:0:0:0:
296,208,326886,1,0,0:0:0:0:
220,288,327186,1,8,0:0:0:0:
296,208,327636,1,8,0:0:0:0:
296,208,328086,1,8,0:0:0:0:
220,288,328386,1,8,0:0:0:0:
296,208,328836,1,8,0:0:0:0:
296,208,329286,1,0,0:0:0:0:
216,244,329886,1,8,0:0:0:0:
220,288,330486,1,0,0:0:0:0:
240,320,331386,1,8,0:0:0:0:
220,288,331986,1,8,0:0:0:0:
248,316,332436,1,8,0:0:0:0:
244,324,332886,1,8,0:0:0:0:
232,320,333186,1,8,0:0:0:0:
252,332,334086,1,0,0:0:0:0:
252,332,334386,1,8,0:0:0:0:
224,200,334686,1,0,0:0:0:0:
216,300,334986,1,8,0:0:0:0:
216,300,335286,1,8,0:0:0:0:
216,300,335586,1,0,0:0:0:0:
244,288,336036,1,0,0:0:0:0:
248,316,336486,1,0,0:0:0:0:
260,280,336786,1,8,0:0:0:0:
260,280,337236,1,8,0:0:0:0:
288,288,337686,1,8,0:0:0:0:
260,280,337986,1,0,0:0:0:0:
260,280,338436,1,8,0:0:0:0:
260,280,338886,1,0,0:0:0:0:
248,268,339486,1,0,0:0:0:0:
248,268,339786,1,8,0:0:0:0:
248,268,340086,1,0,0:0:0:0:
252,280,340186,1,8,0:0:0:0:
252,280,340286,1,8,0:0:0:0:
252,280,340386,1,0,0:0:0:0:
264,292,341286,1,8,0:0:0:0:
248,284,341586,1,8,0:0:0:0:
248,308,342186,1,8,0:0:0:0:
260,284,342786,1,12,0:0:0:0:
252,276,343686,1,0,0:0:0:0:
240,276,343986,1,8,0:0:0:0:
276,304,344286,1,0,0:0:0:0:
276,304,344586,1,0,0:0:0:0:
276,304,344886,1,8,0:0:0:0:
276,304,345210,1,12,0:0:0:0:
256,192,345534,12,0,352184,0:0:0:0:
260,216,352673,5,12,0:0:0:0:
