osu file format v5

[General]
AudioFilename: Kanye_West-Gay_Fish- OfficialHipHop.net.mp3
AudioLeadIn: 0
PreviewTime: -1
Countdown: 1
SampleSet: Soft
StackLeniency: 0.7
Mode: 0
LetterboxInBreaks: 1
EditorBookmarks: 15603,61373,84257,140786

[Metadata]
Title:Gay Fish
Artist:Trey Parker
Creator:Zerostarry
Version:Intense
Source:South Park
Tags:gay fish sticks dicks

[Difficulty]
HPDrainRate:7
CircleSize:5
OverallDifficulty:7
SliderMultiplier:1.4
SliderTickRate:2

[Events]
//Background and Video events
0,0,"1305_press_image_2.jpg"
//Break Periods
2,71638,84408
2,110126,117001
//Storyboard Layer 0 (Background)
//Storyboard Layer 1 (Failing)
//Storyboard Layer 2 (Passing)
//Storyboard Layer 3 (Foreground)
//Storyboard Sound Samples
//Background Colour Transformations
3,100,163,162,255

[TimingPoints]
10,346.740638002774,4,2,0,100,1,0

[Colours]
Combo1 : 255,128,192
Combo2 : 255,128,255
Combo3 : 255,0,255
Combo4 : 255,0,128
Combo5 : 128,0,255

[HitObjects]
72,56,15439,1,0
120,104,15613,1,0
168,152,15786,1,0
224,192,15960,2,0,B|312:192|344:104,1,140,8|0
368,56,16480,2,0,B|448:120,1,70
480,144,16826,5,0
424,184,17000,1,0
480,224,17173,1,0
424,264,17347,1,8
424,336,17520,2,0,B|336:336,1,70
280,336,17867,2,0,B|208:296|136:376|56:336,1,210
24,296,18560,5,0
72,248,18733,1,8
24,200,18907,1,0
72,152,19080,1,0
64,80,19254,2,0,B|128:8|208:96,1,140
240,120,19774,1,0
280,64,19947,1,0
320,120,20120,1,8
360,64,20294,1,0
400,120,20467,1,0
472,120,20641,6,0,B|512:192|432:264|472:344,1,210
392,328,21334,1,0
320,328,21507,1,8
360,272,21681,1,0
288,272,21854,1,0
240,328,22028,2,0,B|160:328|136:248,1,140
64,248,22548,5,0
64,176,22721,1,0
136,176,22894,1,8
99,115,23068,1,0
168,117,23241,1,0
288,192,23588,2,0,B|352:248|440:184,1,140
416,128,24108,1,0
416,56,24281,5,6
256,56,24628,5,4
96,56,24975,5,4
148,264,26015,5,0
220,264,26188,1,0
292,264,26362,1,0
364,264,26535,1,0
328,200,26709,2,0,B|168:200,1,140
256,40,27402,1,0
40,192,27749,5,4
40,192,28095,1,0
256,344,28442,1,4
256,344,28789,1,0
472,192,29136,1,4
472,192,29482,1,0
192,80,29829,6,2,B|256:16|336:96,1,140
256,120,30349,1,2
256,192,30523,1,2
256,328,30869,1,2
56,192,31216,6,4,B|200:192,1,140,4|0
456,192,31910,2,4,B|312:192,1,140,4|0
192,304,32603,6,2,B|256:368|336:288,1,140
256,264,33123,1,2
256,192,33297,1,2
256,56,33643,1,2
56,192,33990,6,4,B|200:192,1,140,4|0
456,192,34684,2,4,B|312:192,1,140,4|0
148,120,35724,5,0
220,120,35897,1,0
292,120,36071,1,0
364,120,36244,1,0
328,184,36418,2,2,B|168:184,1,140
256,344,37111,1,2
56,144,37804,5,0
96,88,37978,1,0
136,144,38151,2,0,B|216:144|240:240,1,140,8|0
256,288,38671,2,0,B|344:296|352:192,1,140
416,192,39191,1,0
472,152,39365,1,0
416,112,39538,1,8
472,72,39711,1,0
416,32,39885,2,0,B|352:-16|264:40,1,140
144,24,40578,5,0
88,64,40752,1,0
88,136,40925,1,8
144,96,41098,1,0
144,168,41272,1,0
128,304,41618,2,0,B|200:360|272:296,1,140
312,272,42138,1,0
368,232,42312,1,8
312,192,42485,1,0
368,152,42659,1,0
368,80,42832,2,0,B|448:80|448:184,1,140
448,240,43352,5,0
448,312,43525,1,0
376,312,43699,2,0,B|312:384|248:296,1,140,8|0
120,312,44392,1,0
48,192,44739,5,0
104,152,44912,1,0
48,104,45086,1,8
104,64,45259,1,0
176,64,45433,1,0
336,64,45779,2,0,B|416:64|456:152,1,140
400,192,46299,1,0
328,192,46473,1,0
256,192,46646,1,0
184,192,46819,1,0
112,192,46993,1,2
112,192,47166,1,2
256,256,47513,5,4
256,256,47860,1,4
256,88,48206,5,0
328,88,48380,1,0
292,28,48553,1,0
224,24,48727,1,0
190,85,48900,1,0
221,147,49073,1,0
291,149,49247,1,4
256,256,49593,1,4
340,192,49940,6,4,B|480:192,2,140,4|0|0
172,192,50980,2,4,B|32:192,2,140,4|0|0
192,80,52021,6,2,B|256:16|336:96,1,140
256,120,52541,1,2
256,192,52715,1,2
256,328,53061,1,2
56,192,53408,6,4,B|200:192,1,140,4|0
456,192,54102,2,4,B|312:192,1,140,4|0
192,304,54795,6,2,B|256:368|336:288,1,140
256,264,55315,1,2
256,192,55489,1,2
256,56,55835,1,2
56,192,56182,6,4,B|200:192,1,140,4|0
456,192,56876,2,4,B|312:192,1,140,4|0
256,192,57568,12,0,58955
256,336,59302,5,2
400,192,59649,1,2
256,48,59996,1,2
112,192,60342,1,2
256,192,60689,1,2
256,264,60862,6,2,B|352:264,3,70
392,264,61556,2,0,B|392:112,1,140
256,88,62249,1,0
216,144,62423,1,0
176,200,62596,1,0
104,200,62770,1,2
32,200,62943,1,2
68,140,63116,1,2
256,344,63810,5,2
256,344,63983,1,2
392,344,64330,2,0,B|464:344|464:232,1,140
464,168,64850,1,0
464,96,65023,1,0
392,96,65197,1,0
392,24,65370,1,0
320,24,65543,1,2
320,160,65890,1,2
176,160,66237,2,2,B|32:160,1,140
32,232,66757,5,0
104,232,66930,1,0
68,292,67104,1,0
72,360,67277,2,2,B|144:360,1,70
208,360,67624,1,0
256,312,67797,1,0
304,360,67971,1,0
256,312,68144,1,0
216,256,68317,1,0
296,256,68491,1,0
256,200,68664,2,2,B|256:120,1,70
256,192,69184,12,0,71438
368,128,85308,6,2,B|432:192|352:272,1,140
328,192,85828,1,2
256,192,86002,1,2
120,192,86348,1,2
256,0,86695,6,4,B|256:136,1,140,4|0
256,392,87389,2,4,B|256:248,1,140,4|0
144,128,88082,6,2,B|80:192|160:272,1,140
184,192,88602,1,2
256,192,88776,1,2
392,192,89122,1,2
256,0,89469,6,4,B|256:136,1,140,4|0
256,392,90163,2,4,B|256:248,1,140,4|0
256,192,90682,12,0,92243
136,192,92589,5,2
176,136,92763,1,2
216,192,92936,1,2
256,136,93109,1,2
296,192,93283,1,2
336,136,93456,1,2
408,136,93629,2,6,B|408:288,1,140
256,192,94323,12,0,95537
56,80,95883,5,0
128,80,96056,1,0
200,80,96229,1,0
272,80,96403,2,0,B|336:144|264:208,1,140
270,201,96923,1,0
88,304,97444,1,0
128,248,97617,1,0
168,304,97790,1,8
240,304,97964,1,0
288,352,98137,1,0
336,304,98310,1,0
440,192,98831,5,0
392,136,99004,1,0
440,88,99177,1,8
392,32,99351,1,0
320,32,99524,1,0
256,160,99871,1,0
184,160,100044,1,0
128,112,100218,1,0
80,160,100391,1,0
40,216,100564,1,8
88,264,100738,1,0
88,336,100911,1,0
160,336,101084,1,0
256,248,101605,5,0
304,296,101778,1,0
352,344,101951,2,0,B|432:344|424:232,1,140,8|0
424,176,102471,2,0,B|424:96|336:56,1,140
280,64,102991,1,0
208,64,103165,1,0
136,64,103338,2,0,B|48:64,1,70,8|0
64,136,103685,1,0
64,208,103858,2,0,B|64:368,1,140
136,344,104378,5,0
184,288,104552,1,0
224,344,104725,1,8
264,288,104899,1,0
304,344,105072,1,0
376,344,105245,1,0
448,344,105419,2,0,B|448:192,1,140
256,32,106286,5,0
256,104,106459,1,0
200,144,106632,1,0
144,192,106806,1,0
200,232,106979,1,0
256,272,107152,1,0
312,232,107326,1,0
368,192,107499,1,0
320,144,107672,1,0
256,104,107846,1,0
72,192,108193,5,4
72,192,108539,1,0
440,192,108886,1,4
440,192,109233,1,0
256,336,109580,1,4
256,336,109926,1,0
40,80,117901,5,0
88,128,118075,1,0
136,80,118248,1,0
184,128,118421,1,0
256,128,118595,2,0,B|256:280,1,140,8|0
256,268,119115,1,0
392,272,119462,5,0
448,232,119635,1,0
392,192,119808,1,0
392,120,119982,1,8
456,152,120155,1,0
456,80,120329,1,0
392,48,120502,1,0
256,80,120849,5,0
184,80,121022,1,0
40,80,121369,1,8
88,128,121542,1,0
40,176,121715,1,0
88,224,121889,1,0
40,272,122062,1,0
40,344,122236,1,0
112,344,122409,2,0,B|192:344,1,70
256,344,122756,1,10
256,344,123102,1,4
256,344,123449,1,4
256,136,123969,6,0,B|256:232,1,70
256,272,124316,1,0
184,272,124489,1,0
184,200,124663,1,0
112,200,124836,1,2
112,200,125010,1,2
112,56,125356,5,0
184,56,125530,1,8
256,56,125703,1,0
328,56,125876,1,0
400,56,126050,1,0
400,128,126223,1,8
400,200,126396,1,0
400,272,126570,1,0
328,272,126743,1,0
256,272,126917,1,8
184,272,127090,1,0
112,272,127263,1,0
112,200,127437,1,0
112,128,127610,1,4
256,64,128650,5,2
344,128,128824,1,2
256,192,128997,1,2
176,128,129170,1,2
256,192,129344,1,2
344,248,129517,1,2
256,312,129690,1,2
176,248,129864,1,2
256,192,130037,1,2
188,192,130384,6,4,B|48:192,2,140
324,192,131424,6,4,B|464:192,2,140
192,80,132464,6,2,B|256:16|336:96,1,140
256,120,132984,1,2
256,192,133158,1,2
256,328,133504,1,2
56,192,133851,6,4,B|200:192,1,140
456,192,134545,2,4,B|312:192,1,140
192,304,135238,6,2,B|256:368|336:288,1,140
256,264,135758,1,2
256,192,135932,1,2
256,56,136278,1,2
256,192,136625,12,0,139399
256,192,139746,12,4,141133
