osu file format v9

[General]
AudioFilename: America - Fuck Yeah!.mp3
AudioLeadIn: 0
PreviewTime: 7145
Countdown: 0
SampleSet: Normal
StackLeniency: 0.7
Mode: 0
LetterboxInBreaks: 1

[Editor]
Bookmarks: 19513
DistanceSpacing: 0.8
BeatDivisor: 4
GridSize: 8

[Metadata]
Title:America, Fuck Yeah
Artist:Trey Parker
Creator:Noob Man
Version:Normal
Source:Team America World Police
Tags:Fight69

[Difficulty]
HPDrainRate:3
CircleSize:3
OverallDifficulty:3
ApproachRate:4
SliderMultiplier:0.9
SliderTickRate:2

[Events]
//Background and Video events
0,0,"olol.jpg"
//Break Periods
2,64394,68704
//Storyboard Layer 0 (Background)
//Storyboard Layer 1 (Fail)
//Storyboard Layer 2 (Pass)
//Storyboard Layer 3 (Foreground)
//Storyboard Sound Samples
//Background Colour Transformations
3,100,163,162,255

[TimingPoints]
7145,353.25287017957,4,1,1,100,1,0

[Colours]
Combo1 : 255,150,0
Combo2 : 5,240,5
Combo3 : 5,5,240
Combo4 : 240,5,5

[HitObjects]
256,328,7498,2,0,B|320:328,4,45
184,328,8558,6,0,B|88:328|56:200,1,180,4|0
56,144,9617,1,8
56,72,9971,1,0
56,72,10324,1,8
272,72,11384,6,0,B|368:80|432:176,1,180
456,224,12443,1,8
448,296,12797,2,0,B|408:328|352:328,1,90,0|8
296,328,13503,2,0,B|248:344|200:320,1,90,0|8
176,264,14210,6,0,B|184:168|120:96,1,180,4|0
64,48,15269,1,8
24,112,15623,1,0
24,112,15976,1,8
40,328,17036,6,0,B|112:272|160:192,1,180
184,128,18095,1,8
200,56,18449,2,0,B|248:40|288:64,1,90,0|8
328,120,19155,2,0,B|360:168|408:184,1,90,0|8
456,208,19862,6,0,B|408:296,1,90,0|8
412,287,20568,1,0
412,287,20921,2,0,B|320:240,1,90,8|0
272,216,21628,2,0,B|184:160,1,90,8|0
136,136,22334,1,8
136,136,22688,6,0,B|64:208,1,90,0|8
72,272,23394,1,0
120,320,23747,1,8
256,192,24101,12,4,25514
424,192,26220,5,0
424,264,26573,1,8
424,336,26927,1,0
424,336,27280,1,8
208,336,28340,6,0,B|144:288|104:176,1,180
104,120,29399,1,8
120,48,29753,2,0,B|176:32|224:40,1,90,0|8
280,48,30459,2,0,B|328:64|352:112,1,90,0|8
384,168,31166,6,0,B|376:256|272:312,1,180
216,328,32225,1,8
144,336,32579,1,0
144,336,32932,1,8
88,128,33992,6,0,B|176:80|272:128,1,180
320,168,35051,1,8
376,216,35405,2,0,B|416:248|456:208,1,90,0|8
464,136,36111,2,0,B|456:88|408:72,1,90,0|8
336,48,36818,6,0,B|248:48,1,90,0|8
246,48,37524,1,0
246,48,37877,2,0,B|248:136,1,90,8|0
248,208,38584,2,0,B|144:208,1,90,8|0
88,208,39291,1,8
88,208,39644,6,0,B|88:120,1,90,0|8
128,64,40350,1,0
200,80,40704,1,8
256,192,41057,12,4,42470
256,312,43176,5,0
256,312,43353,1,0
256,312,43530,1,8
256,240,43883,2,0,B|256:152,1,90,0|8
256,80,44589,5,0
256,80,44766,1,0
256,80,44943,1,8
312,40,45296,2,0,B|408:64|432:176,1,180
440,232,46356,5,8
432,264,46532,1,0
408,288,46709,2,0,B|368:312|312:296,1,90,0|8
256,264,47415,2,0,B|224:224|168:208,1,90,0|8
120,184,48122,6,0,B|48:152|48:80|128:56,1,180,4|0
125,56,49182,1,0
200,56,49535,2,0,B|288:48|376:104,1,180
371,100,50595,1,0
408,160,50948,2,0,B|409:256|312:312,1,180
320,307,52008,1,0
256,336,52361,6,0,B|216:352|168:336,1,90,0|8
128,280,53067,2,0,B|112:224|160:200,1,90,0|8
216,160,53774,6,0,B|296:112,1,90,0|8
293,113,54480,1,0
293,113,54834,1,8
344,160,55187,2,0,B|400:232,1,90,0|8
399,231,55893,1,0
399,231,56247,1,8
352,288,56600,6,0,B|264:288,1,90,0|8
262,288,57306,1,0
262,288,57660,1,8
192,288,58013,2,0,B|88:288,1,90,0|8
102,288,58719,1,0
102,288,59073,1,8
102,288,59426,1,4
256,192,59779,12,8,61192
256,64,62075,5,0
256,64,62252,1,0
256,136,62605,2,0,B|256:192|232:240,1,90,8|0
192,280,63312,1,8
120,304,63665,2,0,B|72:312,3,45,0|0|8|4
256,192,70024,12,4,72143
456,96,72850,6,0,B|360:96,1,90,0|8
296,96,73556,1,0
224,96,73909,1,8
152,96,74263,2,0,B|112:128|96:184,1,90,0|8
80,240,74969,1,0
130,290,75322,1,8
181,341,75676,2,0,B|229:325|261:285,1,90,0|8
285,229,76382,6,0,B|309:181|357:149,1,90,0|8
397,117,77089,2,0,B|453:141|453:197,1,90,0|8
453,253,77795,6,0,B|389:309|285:317,1,180
287,316,78855,1,8
213,309,79208,2,0,B|125:277|85:181,1,180
87,187,80268,1,8
85,117,80621,2,0,B|173:61|261:61,1,180
253,61,81681,1,8
325,69,82034,6,0,B|389:77|389:133,1,90,0|8
397,197,82741,2,0,B|397:253|333:253,1,90,0|8
269,253,83447,5,0
197,253,83800,1,8
125,253,84154,2,0,B|77:245|53:197,1,90,0|8
53,133,84860,5,0
93,77,85213,1,8
157,45,85567,2,0,B|205:37|253:69,1,90,0|8
301,101,86273,6,0,B|397:165|389:269,1,180
349,309,87333,1,8
317,325,87510,1,0
285,325,87686,1,0
221,301,88039,1,8
173,245,88393,1,0
125,189,88746,1,8
69,141,89099,6,0,B|21:157|21:221,1,90,4|8
21,285,89806,1,0
21,285,90159,1,8
77,333,90512,2,0,B|125:341|173:309,1,90,0|8
221,269,91219,5,0
221,269,91572,1,8
253,205,91925,2,0,B|277:157|317:133,1,90,0|8
365,93,92632,1,0
365,93,92985,1,8
429,53,93338,6,0,B|477:69|469:133,1,90,0|8
453,197,94045,2,0,B|413:221|365:205,1,90,0|8
301,181,94751,5,4
237,149,95104,2,0,B|208:112|152:96,1,90,8|0
96,125,95811,1,8
32,165,96164,5,0
24,240,96517,2,0,B|48:296|96:304,1,90,8|0
156,315,97224,1,8
228,315,97577,5,0
296,296,97930,2,0,B|352:280|376:256,1,90,8|0
426,205,98637,1,8
450,133,98990,6,0,B|458:85|410:53,1,90,0|8
346,29,99697,2,0,B|298:29|242:61,1,90,0|8
202,93,100403,6,0,B|122:141,1,90,4|8
124,139,101110,1,0
124,139,101463,1,8
74,189,101816,2,0,B|122:269,1,90,0|8
120,266,102523,1,0
120,266,102876,1,8
170,317,103229,6,0,B|258:317,1,90,0|8
260,317,103936,1,0
260,317,104289,1,8
330,317,104642,2,0,B|378:317|378:253,1,90,0|8
370,181,105349,2,0,B|370:125|434:125,1,90,0|8
498,125,106055,1,4
256,192,106409,12,8,107822
256,320,108705,5,0
256,320,108882,1,0
256,248,109235,2,0,B|256:192|280:144,1,90,8|0
320,104,109942,1,8
392,80,110295,2,0,B|440:72,3,45,0|0|8|4
