osu file format v9

[General]
AudioFilename: America - Fuck Yeah!.mp3
AudioLeadIn: 0
PreviewTime: 7145
Countdown: 0
SampleSet: Normal
StackLeniency: 0.7
Mode: 0
LetterboxInBreaks: 1

[Editor]
Bookmarks: 71088
DistanceSpacing: 1
BeatDivisor: 4
GridSize: 8

[Metadata]
Title:America, Fuck Yeah
Artist:Trey Parker
Creator:Noob Man
Version:Insane
Source:Team America World Police
Tags:Fight69

[Difficulty]
HPDrainRate:7
CircleSize:5
OverallDifficulty:8
ApproachRate:8
SliderMultiplier:1.6
SliderTickRate:2

[Events]
//Background and Video events
0,0,"olol.jpg"
//Break Periods
2,64395,69274
//Storyboard Layer 0 (Background)
//Storyboard Layer 1 (Fail)
//Storyboard Layer 2 (Pass)
//Storyboard Layer 3 (Foreground)
//Storyboard Sound Samples
//Background Colour Transformations
3,100,163,162,255

[TimingPoints]
7145,353.25287017957,4,1,1,100,1,0
70029,-100,4,1,1,100,0,0
72143,-100,4,1,1,100,0,0
104736,-100,4,1,1,50,0,0
105967,-100,4,1,1,100,0,0

[Colours]
Combo1 : 255,150,0
Combo2 : 5,240,5
Combo3 : 5,5,240
Combo4 : 240,5,5

[HitObjects]
368,192,7498,2,0,B|408:192,2,40
328,128,7851,1,0
280,192,8028,1,0
232,128,8204,1,0
176,192,8381,1,0
128,128,8558,1,4
128,288,8911,6,0,B|168:312|224:312,1,80,8|0
280,312,9264,1,0
360,296,9441,2,0,B|400:280|424:232,1,80,0|8
256,64,9971,1,0
256,304,10324,1,8
256,224,10500,5,0
256,144,10677,2,0,B|288:112|344:104,1,80
408,96,11030,1,8
472,248,11384,5,0
400,280,11560,1,0
384,272,11648,1,0
368,264,11737,1,8
304,216,11913,2,0,B|248:160|160:152,1,160
80,152,12443,1,8
80,152,12620,1,0
80,232,12797,6,0,B|128:232|168:264,1,80
80,152,13150,2,0,B|128:152|168:120,1,80,8|0
208,192,13503,2,0,B|368:192,1,160,0|8
368,192,14210,5,4
256,80,14563,2,0,B|216:40,2,40,8|0|0
312,136,14916,1,0
368,192,15093,2,0,B|352:240|304:264,1,80,0|8
248,280,15446,1,0
176,312,15623,1,0
176,72,15976,1,8
96,72,16152,5,0
56,144,16329,2,0,B|16:128,2,40
48,224,16682,1,8
208,192,17036,2,0,B|272:136|352:120,1,160,0|8
432,128,17565,1,0
416,208,17742,2,0,B|360:264|280:288,1,160,0|8
200,280,18272,1,0
120,264,18449,6,0,B|96:208|144:176,1,80
392,264,18802,2,0,B|416:208|368:176,1,80,8|0
256,192,19155,2,0,B|256:32,1,160,0|8
328,176,19862,6,0,B|448:56,1,160,4|8
360,64,20391,1,0
280,64,20568,1,0
200,64,20745,1,0
200,144,20921,2,0,B|80:264,1,160,8|0
136,320,21451,1,0
192,264,21628,1,8
248,208,21804,1,0
312,256,21981,2,0,B|432:136,1,160,0|8
480,88,22511,5,0
400,80,22688,2,0,B|256:16|88:80,1,320
16,112,23571,1,0
40,192,23747,2,0,B|80:264,1,80,8|0
208,200,24101,2,0,B|160:120,1,80,0|0
296,72,24454,2,0,B|336:144,1,80,8|0
224,232,24807,5,0
216,216,24895,1,0
208,200,24984,1,0
72,248,25160,1,0
80,264,25248,1,0
88,280,25337,1,0
136,344,25514,5,4
296,344,25867,1,8
296,344,26044,1,0
296,264,26220,2,0,B|328:224|312:176,1,80
288,112,26573,1,8
224,64,26750,1,0
144,48,26927,1,0
144,336,27280,1,8
144,256,27457,5,0
176,184,27633,2,0,B|216:168|264:184,1,80
328,208,27986,1,8
464,120,28340,2,0,B|384:128|304:112,1,160,0|8
224,104,28870,1,0
48,264,29046,2,0,B|128:256|208:272,1,160,0|8
288,280,29576,1,0
344,224,29753,6,0,B|400:168,1,80
168,224,30106,2,0,B|112:168,1,80,8|0
256,280,30459,2,0,B|256:104,1,160,0|8
256,120,31166,5,4
104,80,31519,2,0,B|56:48,2,40,8|0|0
184,64,31872,1,0
264,48,32049,2,0,B|304:64|328:104,1,80,0|8
352,176,32402,1,0
368,256,32579,1,0
144,128,32932,1,8
184,192,33109,5,0
144,264,33285,2,0,B|144:320,2,40
104,192,33638,1,8
40,48,33992,2,0,B|208:48,1,160,0|8
280,48,34522,1,0
472,336,34698,2,0,B|304:336,1,160,0|8
232,336,35228,1,0
152,336,35405,6,0,B|120:256,1,80
152,48,35758,2,0,B|120:128,1,80,8|0
352,192,36111,2,0,B|176:192,1,160,0|8
256,336,36818,6,0,B|360:336|360:232,1,160,4|8
424,192,37348,1,0
360,144,37524,2,0,B|360:40|256:40,1,160,0|8
264,120,38054,1,0
264,40,38231,2,0,B|160:40|160:144,1,160,0|8
104,192,38761,1,0
160,248,38937,2,0,B|160:352|264:352,1,160,0|8
336,352,39467,5,0
416,336,39644,2,0,B|320:264|288:128,1,240
280,56,40350,1,0
360,56,40527,1,0
280,56,40704,2,0,B|200:56,1,80,8|0
200,192,41057,2,0,B|280:192,1,80,0|0
280,328,41410,2,0,B|200:328,1,80,8|0
136,192,41763,5,0
136,208,41852,1,0
136,224,41940,1,0
136,56,42117,1,0
136,40,42205,1,0
136,24,42293,1,0
56,40,42470,5,4
32,112,42646,2,0,B|32:200,1,80,0|8
32,272,43000,2,0,B|72:312|128:312,1,80
184,312,43353,2,0,B|280:312,1,80,0|8
344,304,43706,2,0,B|312:216,1,80,0|0
316,228,44236,1,8
256,176,44413,5,0
176,192,44589,2,0,B|120:136,1,80,0|0
336,192,44943,2,0,B|392:136,1,80,8|0
256,296,45296,2,0,B|256:120,1,160,0|8
256,56,45826,1,0
184,96,46002,2,0,B|184:184,1,80
184,256,46356,1,8
184,336,46532,5,0
104,336,46709,2,0,B|104:248,1,80
408,48,47062,2,0,B|408:136,1,80,8|0
256,104,47415,2,0,B|256:272,1,160,0|8
112,192,48122,6,0,B|160:72|296:32,1,240
304,32,48740,1,0
320,32,48828,1,0
256,264,49182,1,8
256,264,49358,1,0
400,192,49535,6,0,B|352:72|216:32,1,240
208,32,50153,1,0
192,32,50241,1,0
256,264,50595,1,8
256,264,50771,1,0
368,304,50948,6,0,B|256:376|120:304,1,240
120,304,51566,1,0
104,296,51654,1,0
256,112,52008,1,8
256,112,52184,1,0
176,112,52361,6,0,B|128:112|96:144,1,80
336,272,52714,2,0,B|384:272|416:240,1,80,8|0
256,192,53067,2,0,B|96:192,1,160,0|8
96,192,53597,1,0
96,112,53774,6,0,B|176:112|256:32|144:32|224:112|312:112,1,240,4|0
328,112,54392,1,0
344,112,54480,1,0
456,320,54834,1,8
456,320,55010,1,0
376,328,55187,6,0,B|240:312|152:208,1,240
152,208,55805,1,0
144,192,55893,1,0
384,192,56247,1,8
384,192,56423,1,0
384,272,56600,6,0,B|304:272|224:352|336:352|256:272|168:272,1,240,0|0
152,272,57218,1,0
136,272,57306,1,0
24,64,57660,1,8
24,64,57836,1,0
104,64,58013,6,0,B|184:64,1,80
408,320,58366,2,0,B|328:320,1,80,8|0
256,280,58719,1,0
256,264,58808,1,0
256,248,58896,1,0
256,232,58984,1,0
256,216,59073,1,0
256,200,59161,1,0
256,184,59249,1,0
256,168,59338,1,0
256,152,59426,5,4
192,104,59603,2,0,B|112:104,1,80,0|8
320,104,59956,2,0,B|400:104,1,80,0|0
320,280,60309,2,0,B|400:280,1,80,0|8
192,280,60662,2,0,B|112:280,1,80,0|0
112,280,61192,1,8
104,200,61369,5,0
104,120,61545,2,0,B|104:72,2,40
104,200,61899,1,8
184,200,62075,1,0
184,280,62252,6,0,B|216:312|272:320,1,80
344,264,62605,2,0,B|376:232|384:176,1,80,8|0
328,104,62958,2,0,B|296:72|240:64,1,80,0|0
168,120,63312,2,0,B|136:152|128:208,1,80,8|0
131,189,63665,1,0
258,67,63842,1,0
380,194,64018,1,8
258,316,64195,1,4
256,104,70024,5,0
256,120,70112,1,0
256,136,70200,1,0
256,152,70288,1,0
256,168,70377,1,0
256,184,70465,1,0
256,200,70553,1,0
256,216,70642,1,0
256,232,70730,1,0
256,248,70818,1,0
256,264,70907,1,0
256,280,70995,1,0
256,192,71083,12,4,72143
368,192,72673,5,0
352,192,72761,1,0
336,192,72850,1,0
152,40,73203,1,8
152,40,73379,1,0
88,88,73556,6,0,B|104:208|240:280,1,240
240,280,74174,1,0
256,288,74263,1,0
488,344,74616,1,8
488,344,74792,1,0
488,264,74969,6,0,B|400:264|400:160|264:160,1,240
256,160,75587,1,0
232,160,75676,1,0
32,32,76029,1,8
32,32,76205,1,0
88,88,76382,6,0,B|88:168,1,80
424,88,76735,2,0,B|424:168,1,80,8|0
256,88,77089,2,0,B|256:256,1,160,0|8
104,192,77795,6,0,B|176:288|320:312,1,240
328,312,78413,1,0
344,312,78502,1,0
256,88,78855,1,8
256,88,79031,1,0
408,192,79208,6,0,B|336:288|192:312,1,240
184,312,79826,1,0
160,312,79915,1,0
256,88,80268,1,8
256,88,80444,1,0
304,152,80621,6,0,B|304:256|256:280|208:256|208:152,1,240
208,136,81239,1,0
208,112,81328,1,0
312,328,81681,1,8
312,328,81857,1,0
368,272,82034,6,0,B|448:232,1,80
144,272,82387,2,0,B|64:232,1,80,8|0
256,352,82741,2,0,B|256:168,1,160,0|8
256,112,83270,1,0
256,32,83447,6,0,B|56:200,1,240,4|0
56,200,84065,1,0
40,216,84154,1,0
256,112,84507,1,8
256,112,84684,1,0
256,32,84860,6,0,B|456:200,1,240
456,200,85478,1,0
472,216,85567,1,0
256,112,85920,1,8
256,112,86097,1,0
256,192,86273,6,0,B|112:216|48:96,1,240
40,88,86891,1,0
32,72,86980,1,0
32,232,87333,2,0,B|112:256,1,80,8|0
184,280,87686,6,0,B|264:280,1,80
184,104,88039,2,0,B|264:104,1,80,8|0
304,224,88393,2,0,B|384:224,1,80
304,160,88746,2,0,B|384:160,1,80,8|0
464,160,89099,6,0,B|392:64|248:80,1,240,4|0
232,80,89717,1,0
216,80,89806,1,0
24,224,90159,1,8
24,224,90336,1,0
24,144,90512,6,0,B|96:48|240:64,1,240,0|0
256,64,91130,1,0
272,64,91219,1,0
464,208,91572,1,8
464,208,91749,1,0
384,208,91925,6,0,B|144:208,1,240
120,208,92543,1,0
104,208,92632,1,0
328,120,92985,1,8
329,120,93162,1,0
408,120,93338,6,0,B|376:48,1,80
104,120,93691,2,0,B|136:48,1,80,8|0
104,264,94045,2,0,B|136:336,1,80,0|0
408,264,94398,2,0,B|376:336,1,80,8|0
296,328,94751,6,0,B|256:256,1,80
232,184,95104,2,0,B|232:96,1,80,8|0
232,88,95369,1,0
232,69,95458,1,0
232,312,95811,1,8
232,312,95988,1,0
312,312,96164,6,0,B|312:224,1,80
312,152,96517,2,0,B|400:152,1,80,8|0
408,152,96782,1,0
427,152,96871,1,0
184,152,97224,1,8
184,152,97401,1,0
104,152,97577,6,0,B|72:184|80:240,1,80
88,304,97930,2,0,B|128:320|176:304,1,80,8|0
184,296,98195,1,0
200,288,98284,1,0
256,56,98637,1,8
256,56,98814,1,0
176,56,98990,6,0,B|96:56,1,80
336,56,99343,2,0,B|416:56,1,80,8|0
224,128,99697,2,0,B|144:128,1,80
288,128,100050,2,0,B|368:128,1,80,8|0
448,128,100403,6,0,B|416:216,1,80
384,272,100757,1,8
336,336,100933,2,0,B|288:320|272:264,1,80
248,208,101286,1,0
216,136,101463,2,0,B|184:112|128:112,1,80,8|0
64,136,101816,5,0
40,208,101993,2,0,B|64:256|120:256,1,80,0|8
184,256,102346,1,0
264,248,102523,2,0,B|312:240|328:192,1,80
352,128,102876,1,8
432,144,103053,5,0
440,160,103141,1,0
448,176,103229,2,0,B|400:256,1,80
360,312,103583,2,0,B|272:312,1,80,8|0
200,312,103936,1,0
120,312,104112,2,0,B|120:360,2,40,0|0|8
120,232,104466,2,0,B|144:192|184:168,1,80
192,168,104731,5,0
208,160,104819,1,0
224,152,104907,1,0
240,144,104996,1,0
256,136,105084,1,0
272,128,105172,1,0
288,120,105260,1,0
304,112,105349,1,0
320,104,105437,1,0
336,96,105525,1,0
352,88,105614,1,0
368,80,105702,1,0
384,72,105790,1,0
400,64,105879,1,0
416,56,105967,1,0
432,48,106055,5,4
472,120,106232,2,0,B|424:192,1,80,0|8
384,256,106585,1,0
320,304,106762,1,0
240,312,106938,2,0,B|200:304|160:264,1,80,0|8
128,208,107292,1,0
112,128,107468,1,0
112,128,107822,1,8
96,48,107998,2,0,B|48:72|48:128,1,80
48,192,108351,1,0
72,264,108528,1,8
136,312,108705,6,0,B|216:296,1,80
376,312,109058,1,0
304,288,109235,1,8
136,72,109411,2,0,B|216:88,1,80
376,72,109764,1,0
304,96,109941,1,8
256,160,110118,2,0,B|256:240,1,80
256,80,110471,1,0
168,192,110648,1,8
344,192,110824,1,4
