osu file format v14

[General]
AudioFilename: cf678756de34c4.mp3
AudioLeadIn: 0
PreviewTime: 111168
Countdown: 0
SampleSet: Soft
StackLeniency: 0.7
Mode: 0
LetterboxInBreaks: 0
WidescreenStoryboard: 0

[Editor]
DistanceSpacing: 1.4
BeatDivisor: 2
GridSize: 4
TimelineZoom: 1

[Metadata]
Title:Summer Love
TitleUnicode:Summer Love
Artist:Trevor Something
ArtistUnicode:Trevor Something
Creator:YellowManul
Version:Normal
Source:
Tags:80s alternative electronic indie dance indie pop new wave shoegaze synthpop synthwave Miami does not exist
BeatmapID:759399
BeatmapSetID:343454

[Difficulty]
HPDrainRate:4
CircleSize:3.5
OverallDifficulty:3
ApproachRate:4
SliderMultiplier:1.1
SliderTickRate:1

[Events]
//Background and Video events
0,0,"looove.jpg",0,0
//Break Periods
2,146924,160960
//Storyboard Layer 0 (Background)
//Storyboard Layer 1 (Fail)
//Storyboard Layer 2 (Pass)
//Storyboard Layer 3 (Foreground)
//Storyboard Sound Samples

[TimingPoints]
22280,555.555555555556,4,2,1,55,1,0
57835,-100,4,2,1,55,0,1
73946,-100,4,2,1,55,0,0
111168,-100,4,2,1,55,0,1
126724,-100,4,2,1,55,0,0
146724,-133.333333333333,4,2,1,55,0,0
164502,-100,4,2,1,55,0,1
180057,-100,4,2,1,55,0,0
200613,-100,4,2,1,25,0,0

[Colours]
Combo1 : 71,79,131
Combo2 : 179,181,87
Combo3 : 143,165,222
Combo4 : 190,148,186
Combo5 : 160,99,109

[HitObjects]
104,172,22280,6,0,L|188:168,1,55,0|0,1:0|0:0,0:0:0:0:
200,104,22835,2,0,P|236:164|224:208,1,110,8|0,0:0|1:0,0:0:0:0:
284,256,23668,1,0,0:0:0:0:
236,316,23946,2,0,L|160:312,1,55,8|0,0:0|0:0,0:0:0:0:
104,296,24502,6,0,P|84:228|108:160,1,110,0|8,1:0|0:0,0:0:0:0:
180,64,25613,2,0,P|200:132|176:200,1,110,0|8,1:0|0:0,0:0:0:0:
248,220,26446,1,2,0:0:0:0:
320,192,26724,6,0,L|468:200,1,110,0|8,1:0|0:0,0:0:0:0:
336,76,27835,2,0,L|312:26,2,55,0|0|8,1:0|0:0|0:0,0:0:0:0:
276,124,28668,2,0,P|196:136|120:96,1,165,0|8,0:0|0:0,0:0:0:0:
64,148,29780,2,0,P|47:226|86:297,1,165,0|8,0:0|0:0,0:0:0:0:
132,356,30891,1,2,0:0:0:0:
200,320,31168,6,0,P|260:328|316:308,1,110,0|8,1:0|0:0,0:0:0:0:
240,176,32280,2,0,L|228:116,2,55,0|0|8,1:0|0:0|0:0,0:0:0:0:
316,168,33113,2,0,P|376:160|468:216,1,165,0|8,0:0|0:0,0:0:0:0:
452,284,34224,2,0,L|336:276,1,110
280,320,35057,1,8,0:0:0:0:
216,280,35335,6,0,P|200:224|232:160,1,110,2|0,0:0|0:0,0:0:0:0:
176,112,36168,1,8,0:0:0:0:
112,68,36446,2,0,L|105:9,2,55,0|0|0,0:0|1:0|0:0,0:0:0:0:
92,144,37280,1,8,0:0:0:0:
64,216,37557,1,0,0:0:0:0:
216,196,38113,6,0,L|224:264,2,55,0|8|0,0:0|0:0|1:0,0:0:0:0:
352,120,39224,2,0,L|344:56,2,55,8|8|8,0:0|0:0|0:0,0:0:0:0:
284,160,40057,6,0,L|276:272,1,110,4|8,0:2|0:0,0:0:0:0:
308,340,40891,1,0,0:0:0:0:
232,332,41168,2,0,P|176:336|120:320,1,110,0|8,1:0|0:0,0:0:0:0:
60,180,42280,6,0,L|184:188,1,110,0|8,1:0|0:0,0:0:0:0:
208,121,43113,1,0,0:0:0:0:
268,76,43391,2,0,P|280:148|248:188,1,110,0|8,1:0|0:0,0:0:0:0:
312,236,44224,6,0,P|364:256|440:244,2,110,2|0|0,0:0|0:0|0:0,0:0:0:0:
184,320,45891,2,0,L|112:328,1,55,0|8,0:0|0:0,0:0:0:0:
80,268,46446,2,0,P|88:216|144:172,2,110,0|0|0,0:0|0:0|0:0,0:0:0:0:
104,340,47835,1,0,1:0:0:0:
208,228,48391,1,8,0:0:0:0:
224,76,48946,6,0,L|348:84,1,110,0|8,1:0|0:0,0:0:0:0:
408,100,49780,2,0,P|420:164|388:224,1,110,0|0,0:0|0:0,0:0:0:0:
328,212,50613,1,8,0:0:0:0:
312,288,50891,2,0,P|360:324|432:316,1,110,0|0,0:0|0:0,0:0:0:0:
484,308,51724,5,8,0:0:0:0:
496,228,52002,2,0,L|480:176,1,55,0|0,0:0|1:0,0:0:0:0:
412,136,52557,1,0,0:0:0:0:
344,100,52835,2,0,L|276:92,1,55,8|2,0:0|0:0,0:0:0:0:
252,24,53391,6,0,P|212:72|228:148,1,110,0|8,1:0|0:0,0:0:0:0:
160,176,54224,2,0,L|84:172,2,55,0|0|0,0:0|1:0|0:0,0:0:0:0:
224,220,55057,2,0,P|240:260|236:296,1,55,8|0,0:0|0:0,0:0:0:0:
300,324,55613,2,0,P|356:332|432:300,1,110,0|8,1:0|0:0,0:0:0:0:
440,248,56446,2,0,L|452:128,2,110
365,227,57835,6,0,P|333:222|293:234,1,55,4|0,0:2|0:0,0:0:0:0:
292,152,58391,2,0,P|324:148|360:132,1,55,8|0,0:0|0:0,0:0:0:0:
316,68,58946,2,0,P|259:70|208:120,1,110,0|8,1:0|0:0,0:0:0:0:
152,64,59780,2,0,P|144:120|184:172,1,110
152,240,60613,6,0,L|80:232,1,55,8|0,0:0|0:0,0:0:0:0:
88,312,61168,2,0,P|132:332|196:324,1,110,0|8,1:0|0:0,0:0:0:0:
248,276,62002,2,0,P|256:216|228:168,1,110,2|0,0:0|0:0,0:0:0:0:
280,112,62835,2,0,L|352:108,1,55,8|0,0:0|0:0,0:0:0:0:
412,120,63391,6,0,P|408:176|432:228,1,110,0|8,1:0|0:0,0:0:0:0:
442,300,64224,2,0,P|386:324|322:312,1,110
276,272,65057,1,8,0:0:0:0:
200,136,65613,2,0,P|256:104|352:140,2,165,0|2|8,1:0|0:0|0:0,0:0:0:0:
124,128,67557,1,0,0:0:0:0:
148,200,67835,6,0,P|88:196|52:156,1,110,0|8,1:0|0:0,0:0:0:0:
56,84,68668,2,0,P|108:48|156:52,1,110,0|0,0:0|0:0,0:0:0:0:
200,112,69502,1,8,0:0:0:0:
256,252,70057,2,0,L|384:244,1,110,0|8,1:0|0:0,0:0:0:0:
428,292,70891,2,0,P|444:236|400:176,1,110,2|0,0:0|0:0,0:0:0:0:
460,124,71724,1,8,0:0:0:0:
304,124,72280,6,0,L|292:64,2,55,0|0|8,1:0|0:0|0:0,0:0:0:0:
256,184,73113,2,0,P|200:192|148:176,1,110,0|0,0:0|0:0,0:0:0:0:
104,112,73946,1,0,1:0:0:0:
81,268,74502,1,0,1:0:0:0:
230,293,75057,1,0,1:0:0:0:
253,143,75613,5,4,1:0:0:0:
404,112,76168,2,0,L|472:100,2,55,8|0|0,0:0|0:0|1:0,0:0:0:0:
452,256,77280,2,0,L|464:328,1,55,8|0,0:0|0:0,0:0:0:0:
400,360,77835,6,0,P|340:360|292:336,1,110,0|8,1:0|0:0,0:0:0:0:
264,268,78668,2,0,L|280:148,1,110,0|0,0:0|0:0,0:0:0:0:
252,88,79502,2,0,L|192:80,1,55,8|2,0:0|0:0,0:0:0:0:
144,24,80057,6,0,P|120:76|148:144,1,110,0|8,1:0|0:0,0:0:0:0:
112,200,80891,2,0,L|168:204,2,55,0|0|0,0:0|1:0|0:0,0:0:0:0:
84,272,81724,2,0,P|104:324|104:340,1,55,8|0,0:0|0:0,0:0:0:0:
176,348,82280,2,0,P|240:348|292:320,1,110,0|8,1:0|0:0,0:0:0:0:
328,268,83113,2,0,P|328:208|300:160,1,110,0|0,0:0|0:0,0:0:0:0:
244,120,83946,2,0,P|272:96|304:92,1,55,8|2,0:0|0:0,0:0:0:0:
360,64,84502,6,0,P|412:88|472:80,1,110,0|8,1:0|0:0,0:0:0:0:
472,160,85335,2,0,L|488:224,2,55,0|0|0,0:0|1:0|0:0,0:0:0:0:
396,180,86168,1,8,0:0:0:0:
320,160,86446,1,0,0:0:0:0:
248,192,86724,6,0,P|244:248|280:312,1,110,0|8,1:0|0:0,0:0:0:0:
200,336,87557,2,0,P|144:340|92:320,1,110,0|0,0:0|0:0,0:0:0:0:
68,248,88391,2,0,L|80:184,1,55,8|2,0:0|0:0,0:0:0:0:
24,140,88946,6,0,P|80:116|156:192,1,165,0|0,1:0|0:0,0:0:0:0:
228,152,90057,2,0,L|236:96,2,55,0|0|8,1:0|0:0|0:0,0:0:0:0:
280,208,90891,2,0,P|288:264|260:320,1,110,0|0,0:0|0:0,0:0:0:0:
332,352,91724,1,8,0:0:0:0:
400,320,92002,2,0,P|384:264|396:208,1,110,0|8,1:0|0:0,0:0:0:0:
428,144,92835,2,0,L|360:124,1,55,8|8,0:0|0:0,0:0:0:0:
300,108,93391,6,0,P|244:100|192:124,1,110,4|8,0:2|0:0,0:0:0:0:
72,212,94502,2,0,L|17:199,2,55,0|0|8,1:0|0:0|0:0,0:0:0:0:
140,248,95335,2,0,L|264:240,1,110,0|0,0:0|0:0,0:0:0:0:
300,184,96168,1,8,0:0:0:0:
356,328,96724,6,0,L|300:320,2,55,0|0|8,1:0|0:0|0:0,0:0:0:0:
420,288,97557,2,0,P|436:236|404:172,2,110,2|0|0,0:0|0:0|0:0,0:0:0:0:
276,236,99224,1,0,0:0:0:0:
332,92,99780,2,0,L|460:80,2,110,0|0|0,0:0|0:0|0:0,0:0:0:0:
180,96,101446,1,0,0:0:0:0:
140,164,101724,2,0,L|160:216,1,55,8|2,0:0|0:0,0:0:0:0:
232,244,102280,6,0,P|292:248|344:216,1,110,0|8,1:0|0:0,0:0:0:0:
308,72,103391,2,0,P|248:68|196:100,1,110,0|8,1:0|0:0,0:0:0:0:
140,132,104224,2,0,L|156:256,1,110,0|0,0:0|0:0,0:0:0:0:
100,296,105057,1,8,0:0:0:0:
252,316,105613,2,0,L|320:332,2,55,0|0|8,1:0|0:0|0:0,0:0:0:0:
276,244,106446,6,0,P|300:192|284:136,1,110,2|0,0:0|0:0,0:0:0:0:
216,120,107280,1,8,0:0:0:0:
144,96,107557,1,0,0:0:0:0:
76,236,108113,2,0,L|132:228,1,55,0|8,0:0|0:0,0:0:0:0:
204,204,108668,5,0,0:0:0:0:
248,352,109224,1,0,0:0:0:0:
368,256,109780,2,0,P|336:252|300:232,1,55,0|0,0:0|1:0,0:0:0:0:
352,176,110335,2,0,P|408:176|452:144,1,110
412,80,111168,6,0,L|284:60,1,110,4|8,0:2|0:0,0:0:0:0:
204,180,112280,2,0,P|212:212|204:240,2,55,0|0|8,1:0|0:0|0:0,0:0:0:0:
236,108,113113,2,0,P|280:152|288:216,1,110
360,232,113946,2,0,L|428:228,1,55,8|0,0:0|0:0,0:0:0:0:
432,304,114502,6,0,L|312:324,1,110,0|8,1:0|0:0,0:0:0:0:
248,308,115335,2,0,P|228:252|256:184,1,110,2|0,0:0|0:0,0:0:0:0:
292,148,116168,1,8,0:0:0:0:
144,112,116724,6,0,L|84:124,2,55,0|0|8,1:0|0:0|0:0,0:0:0:0:
196,56,117557,2,0,L|332:72,1,110,0|0,0:0|0:0,0:0:0:0:
380,80,118391,2,0,P|396:132|372:192,1,110,8|0,0:0|1:0,0:0:0:0:
308,216,119224,1,0,0:0:0:0:
200,328,119780,2,0,P|180:276|200:204,1,110,2|0,0:0|0:0,0:0:0:0:
212,152,120613,2,0,L|156:140,1,55,8|0,0:0|0:0,0:0:0:0:
172,64,121168,6,0,L|300:56,1,110,0|8,1:0|0:0,0:0:0:0:
344,104,122002,2,0,P|360:160|336:232,1,110,0|0,0:0|0:0,0:0:0:0:
376,280,122835,2,0,L|440:272,2,55,8|0|0,0:0|0:0|1:0,0:0:0:0:
320,332,123668,2,0,P|256:340|212:320,1,110,0|2,0:0|0:0,0:0:0:0:
164,264,124502,6,0,L|180:148,1,110,0|8,1:0|0:0,0:0:0:0:
224,92,125335,2,0,L|284:84,2,55,0|0|0,0:0|1:0|0:0,0:0:0:0:
148,84,126168,1,8,0:0:0:0:
256,196,126724,6,0,L|376:200,1,110,0|0,1:0|1:0,0:0:0:0:
436,336,127835,2,0,L|316:332,1,110,0|0,1:0|1:0,0:0:0:0:
256,296,128668,1,10,0:0:0:0:
196,344,128946,6,0,L|64:340,1,110,4|8,1:0|0:0,0:0:0:0:
56,268,129780,2,0,P|28:284|12:304,2,55,0|0|0,0:0|1:0|0:0,0:0:0:0:
116,220,130613,1,8,0:0:0:0:
120,144,130891,2,0,L|260:136,1,110,0|0,0:0|0:0,0:0:0:0:
288,88,131724,1,8,0:0:0:0:
304,164,132002,2,0,P|328:220|320:280,1,110,0|0,0:0|0:0,0:0:0:0:
372,328,132835,2,0,L|456:332,1,55,8|2,0:0|0:0,0:0:0:0:
464,260,133391,6,0,P|448:208|464:148,1,110,0|8,1:0|0:0,0:0:0:0:
436,80,134224,2,0,L|492:68,2,55,0|0|0,0:0|1:0|0:0,0:0:0:0:
364,112,135057,2,0,L|288:128,1,55,8|0,0:0|0:0,0:0:0:0:
260,64,135613,6,0,L|132:76,1,110,0|8,1:0|0:0,0:0:0:0:
144,152,136446,1,0,0:0:0:0:
220,172,136724,2,0,L|280:184,2,55,0|0|8,1:0|0:0|0:0,0:0:0:0:
184,240,137557,1,2,0:0:0:0:
148,308,137835,6,0,P|96:328|36:312,1,110,0|8,1:0|0:0,0:0:0:0:
52,164,138946,2,0,P|40:140|44:112,2,55,0|0|8,1:0|0:0|0:0,0:0:0:0:
120,128,139780,2,0,P|180:112|232:128,1,110
288,80,140613,1,8,0:0:0:0:
300,156,140891,2,0,L|288:280,1,110,0|0,0:0|0:0,0:0:0:0:
348,316,141724,2,0,L|424:324,1,55,8|2,0:0|0:0,0:0:0:0:
468,280,142280,6,0,P|480:224|452:164,1,110,0|8,1:0|0:0,0:0:0:0:
348,72,143391,2,0,L|292:68,2,55,0|0|8,1:0|0:0|0:0,0:0:0:0:
356,148,144224,2,0,P|344:204|372:264,1,110,0|0,0:0|0:0,0:0:0:0:
296,296,145057,1,8,0:0:0:0:
236,248,145335,2,0,L|116:240,1,110,0|8,1:0|0:0,0:0:0:0:
144,164,146168,2,0,L|216:156,1,55,8|8,0:0|0:0,0:0:0:0:
244,96,146724,5,4,0:2:0:0:
256,192,162280,12,4,164502,0:2:0:0:
380,252,165613,6,0,L|312:248,1,55,0|0,1:0|0:0,0:0:0:0:
268,196,166168,1,8,0:0:0:0:
332,148,166446,2,0,P|280:116|216:140,1,110,0|0,0:0|0:0,0:0:0:0:
188,188,167280,2,0,L|132:172,1,55,8|0,0:0|0:0,0:0:0:0:
68,212,167835,2,0,P|64:272|100:328,1,110,0|8,1:0|0:0,0:0:0:0:
164,324,168668,1,2,0:0:0:0:
212,264,168946,6,0,L|336:260,1,110,0|8,1:0|0:0,0:0:0:0:
328,108,170057,2,0,L|212:112,1,110,0|8,1:0|0:0,0:0:0:0:
144,92,170891,1,0,0:0:0:0:
160,168,171168,2,0,P|168:224|208:256,1,110,0|8,1:0|0:0,0:0:0:0:
284,236,172002,2,0,P|324:232|362:251,2,55,0|0|0,0:0|1:0|0:0,0:0:0:0:
312,308,172835,1,8,0:0:0:0:
388,316,173113,2,0,P|424:272|432:220,1,110,2|0,0:0|0:0,0:0:0:0:
496,176,173946,1,8,0:0:0:0:
352,124,174502,6,0,L|360:64,2,55,0|0|8,1:0|0:0|0:0,0:0:0:0:
300,180,175335,2,0,P|236:184|188:168,1,110,0|0,0:0|0:0,0:0:0:0:
140,116,176168,1,8,0:0:0:0:
292,80,176724,2,0,L|284:24,2,55,0|0|8,1:0|0:0|0:0,0:0:0:0:
368,92,177557,2,0,P|384:148|360:212,1,110,2|0,0:0|0:0,0:0:0:0:
288,220,178391,1,8,0:0:0:0:
396,332,178946,6,0,L|408:272,2,55,0|0|8,1:0|0:0|0:0,0:0:0:0:
324,360,179780,1,0,0:0:0:0:
248,344,180057,2,0,P|188:344|132:304,1,110,0|0,1:0|1:0,0:0:0:0:
184,172,181168,2,0,P|244:172|300:212,1,110,0|0,1:0|1:0,0:0:0:0:
356,160,182002,1,10,0:0:0:0:
320,92,182280,6,0,L|244:84,1,55,0|0,1:0|0:0,0:0:0:0:
196,56,182835,2,0,L|120:48,1,55,8|0,0:0|0:0,0:0:0:0:
68,76,183391,2,0,P|60:132|84:192,1,110,0|8,1:0|0:0,0:0:0:0:
144,220,184224,2,0,P|200:228|260:204,1,110
304,160,185057,1,8,0:0:0:0:
344,224,185335,2,0,L|332:340,1,110
396,376,186168,1,8,0:0:0:0:
468,240,186724,6,0,P|480:180|456:120,1,110,0|8,1:0|0:0,0:0:0:0:
416,76,187557,2,0,P|448:60|484:60,2,55,0|0|0,0:0|1:0|0:0,0:0:0:0:
340,68,188391,2,0,P|340:96|352:120,1,55,8|0,0:0|0:0,0:0:0:0:
400,180,188946,2,0,P|344:196|284:156,1,110,0|8,1:0|0:0,0:0:0:0:
236,132,189780,1,0,0:0:0:0:
200,200,190057,2,0,L|184:256,2,55,0|0|8,1:0|0:0|0:0,0:0:0:0:
76,108,191168,6,0,P|104:64|188:56,1,110,0|8,1:0|0:0,0:0:0:0:
304,96,192280,2,0,L|364:88,2,55,0|0|8,1:0|0:0|0:0,0:0:0:0:
268,248,193391,2,0,P|324:240|384:260,1,110,0|8,1:0|0:0,0:0:0:0:
244,336,194502,2,0,P|188:344|128:324,1,110,0|8,1:0|0:0,0:0:0:0:
72,288,195335,1,2,0:0:0:0:
100,216,195613,6,0,L|88:104,1,110,0|8,1:0|0:0,0:0:0:0:
152,64,196446,2,0,L|208:56,2,55,0|0|0,0:0|1:0|0:0,0:0:0:0:
80,32,197280,1,8,0:0:0:0:
16,76,197557,1,0,0:0:0:0:
256,192,197835,12,0,200613,0:0:0:0:
