osu file format v14

[General]
AudioFilename: cf678756de34c4.mp3
AudioLeadIn: 0
PreviewTime: 111168
Countdown: 0
SampleSet: Soft
StackLeniency: 0.7
Mode: 0
LetterboxInBreaks: 0
WidescreenStoryboard: 0

[Editor]
Bookmarks: 200068
DistanceSpacing: 1.9
BeatDivisor: 4
GridSize: 4
TimelineZoom: 1

[Metadata]
Title:Summer Love
TitleUnicode:Summer Love
Artist:Trevor Something
ArtistUnicode:Trevor Something
Creator:YellowManul
Version:Hard
Source:
Tags:80s alternative electronic indie dance indie pop new wave shoegaze synthpop synthwave Miami does not exist
BeatmapID:758871
BeatmapSetID:343454

[Difficulty]
HPDrainRate:6
CircleSize:4
OverallDifficulty:6.5
ApproachRate:7.5
SliderMultiplier:1.4
SliderTickRate:1

[Events]
//Background and Video events
0,0,"looove.jpg",0,0
//Break Periods
//Storyboard Layer 0 (Background)
//Storyboard Layer 1 (Fail)
//Storyboard Layer 2 (Pass)
//Storyboard Layer 3 (Foreground)
//Storyboard Sound Samples

[TimingPoints]
22280,555.555555555556,4,2,1,55,1,0
57835,-100,4,2,1,55,0,1
73391,-100,4,2,1,55,0,0
111168,-100,4,2,1,55,0,1
126724,-100,4,2,1,55,0,0
146724,-133.333333333333,4,2,1,55,0,0
164502,-100,4,2,1,55,0,1
180057,-100,4,2,1,55,0,0
200057,-166.666666666667,4,2,1,55,0,0
200613,-166.666666666667,4,2,1,25,0,0

[Colours]
Combo1 : 71,79,131
Combo2 : 179,181,87
Combo3 : 143,165,222
Combo4 : 190,148,186
Combo5 : 160,99,109

[HitObjects]
192,232,22280,6,0,P|232:228|276:240,1,70,0|0,1:0|0:0,0:0:0:0:
328,308,22835,2,0,L|476:296,1,140,8|0,0:0|1:0,0:0:0:0:
500,204,23668,1,0,0:0:0:0:
370,170,23946,2,0,P|342:189|310:222,1,70,8|0,0:0|0:0,0:0:0:0:
220,188,24502,6,0,P|208:140|204:104,1,70,0|0,1:0|0:0,0:0:0:0:
232,24,25057,1,8,0:0:0:0:
136,4,25335,1,0,0:0:0:0:
108,96,25613,1,0,1:0:0:0:
8,100,25891,1,0,0:0:0:0:
60,184,26168,1,8,0:0:0:0:
120,264,26446,2,0,L|92:284,1,35,2|8,0:0|0:0,0:0:0:0:
108,332,26724,6,0,P|128:344|248:336,1,140,0|8,1:0|0:0,0:0:0:0:
180,264,27557,1,0,0:0:0:0:
284,272,27835,2,0,P|320:296|352:308,1,70,0|0,1:0|0:0,0:0:0:0:
452,228,28391,2,0,P|416:204|384:192,1,70,8|0,0:0|0:0,0:0:0:0:
292,180,28946,6,0,P|292:140|296:104,1,70,0|0,1:0|0:0,0:0:0:0:
376,80,29502,2,0,P|320:24|244:36,1,140,8|0,0:0|1:0,0:0:0:0:
180,72,30335,1,0,0:0:0:0:
196,168,30613,2,0,L|112:160,1,70,8|2,0:0|0:0,0:0:0:0:
88,192,31030,1,8,0:0:0:0:
52,232,31168,6,0,P|12:288|28:364,1,140,0|8,1:0|0:0,0:0:0:0:
112,312,32002,1,0,0:0:0:0:
200,364,32280,2,0,L|272:360,1,70,0|0,1:0|0:0,0:0:0:0:
340,260,32835,2,0,L|264:252,1,70,8|0,0:0|0:0,0:0:0:0:
208,176,33391,5,0,1:0:0:0:
244,92,33668,1,0,0:0:0:0:
336,132,33946,2,0,P|368:132|412:128,1,70,8|0,0:0|0:0,0:0:0:0:
484,68,34502,1,0,1:0:0:0:
448,48,34641,1,0,0:0:0:0:
412,28,34780,1,0,0:0:0:0:
316,44,35057,1,8,0:0:0:0:
244,92,35335,2,0,L|184:92,1,35,2|8,0:0|0:0,0:0:0:0:
172,116,35613,6,0,P|132:124|80:112,1,70,0|0,1:0|0:0,0:0:0:0:
12,156,36168,1,8,0:0:0:0:
24,252,36446,1,0,0:0:0:0:
120,280,36724,2,0,P|104:316|112:356,1,70,0|0,1:0|0:0,0:0:0:0:
196,328,37280,1,8,0:0:0:0:
288,356,37557,1,0,0:0:0:0:
252,264,37835,6,0,L|248:216,1,35,0|8,1:0|0:0,0:0:0:0:
288,200,38113,2,0,L|292:152,1,35,0|0,0:0|1:0,0:0:0:0:
328,136,38391,1,8,0:0:0:0:
236,108,38668,2,0,P|232:76|232:60,1,35,0|8,1:0|0:0,0:0:0:0:
232,24,38946,2,0,P|244:12|268:-4,2,35,0|2|8,0:0|1:2|0:0,0:0:0:0:
140,60,39502,2,0,P|119:29|112:15,2,35,8|8|8,0:0|0:0|0:0,0:0:0:0:
136,108,39918,1,8,0:0:0:0:
104,144,40057,6,0,P|88:180|92:236,1,70,4|0,0:2|0:0,0:0:0:0:
144,292,40613,1,8,0:0:0:0:
216,224,40891,2,0,P|252:220|304:240,2,70,0|0|0,0:0|1:0|0:0,0:0:0:0:
244,320,41724,1,8,0:0:0:0:
360,288,42002,6,0,P|388:228|356:160,1,140
272,116,42835,2,0,L|192:112,1,70,8|0,0:0|0:0,0:0:0:0:
120,56,43391,1,0,1:0:0:0:
104,152,43668,1,0,0:0:0:0:
184,208,43946,1,8,0:0:0:0:
272,116,44224,1,2,0:0:0:0:
272,116,44363,1,8,0:0:0:0:
272,116,44502,6,0,P|284:152|280:184,1,70,0|0,1:0|0:0,0:0:0:0:
388,252,45057,2,0,P|376:216|380:184,1,70,8|0,0:0|0:0,0:0:0:0:
448,124,45613,1,0,1:0:0:0:
472,212,45891,1,0,0:0:0:0:
444,304,46168,2,0,P|408:328|360:320,1,70,8|0,0:0|0:0,0:0:0:0:
276,204,46724,6,0,P|260:240|272:300,1,70,0|0,1:0|0:0,0:0:0:0:
188,336,47280,2,0,L|112:328,1,70,8|0,0:0|0:0,0:0:0:0:
92,236,47835,2,0,L|168:244,1,70,0|0,1:0|0:0,0:0:0:0:
124,152,48391,2,0,L|36:144,1,70,8|2,0:0|0:0,0:0:0:0:
32,104,48807,1,8,0:0:0:0:
60,64,48946,6,0,P|96:40|124:36,1,70,0|0,1:0|0:0,0:0:0:0:
212,76,49502,2,0,P|240:88|284:88,1,70,8|0,0:0|0:0,0:0:0:0:
312,232,50057,2,0,L|324:156,1,70,0|0,1:0|0:0,0:0:0:0:
228,192,50613,1,8,0:0:0:0:
232,288,50891,2,0,P|284:328|356:320,1,140
444,352,51724,5,8,0:0:0:0:
460,256,52002,1,0,0:0:0:0:
412,172,52280,2,0,L|488:168,1,70,0|0,1:0|0:0,0:0:0:0:
444,76,52835,2,0,L|368:80,1,70,8|2,0:0|0:0,0:0:0:0:
324,72,53252,1,8,0:0:0:0:
280,48,53391,6,0,P|244:32|204:32,1,70,0|0,1:0|0:0,0:0:0:0:
156,112,53946,2,0,P|192:128|232:128,1,70,8|0,0:0|0:0,0:0:0:0:
204,228,54502,1,0,1:0:0:0:
108,204,54780,1,0,0:0:0:0:
44,276,55057,1,8,0:0:0:0:
132,312,55335,1,0,0:0:0:0:
228,180,55613,6,0,P|268:180|312:200,1,70,0|0,1:0|0:0,0:0:0:0:
332,280,56168,2,0,P|292:280|248:260,1,70,8|0,0:0|0:0,0:0:0:0:
228,180,56724,2,0,L|216:136,2,35,0|0|0,1:0|0:0|0:0,0:0:0:0:
292,104,57280,1,8,0:0:0:0:
380,120,57557,2,0,L|392:160,1,35,0|8,0:0|0:0,0:0:0:0:
428,184,57835,6,0,P|436:220|424:260,1,70,4|0,0:2|0:0,0:0:0:0:
344,312,58391,2,0,L|272:316,1,70,8|0,0:0|0:0,0:0:0:0:
188,360,58946,2,0,P|188:320|180:272,1,70,0|0,1:0|0:0,0:0:0:0:
188,192,59502,1,8,0:0:0:0:
288,236,59780,1,0,0:0:0:0:
376,196,60057,6,0,P|384:168|368:48,1,140,0|8,1:0|0:0,0:0:0:0:
280,28,60891,1,0,0:0:0:0:
188,60,61168,2,0,P|172:64|140:64,2,35,0|0|0,1:0|0:0|0:0,0:0:0:0:
220,152,61724,2,0,P|188:180|160:196,1,70,8|2,0:0|0:0,0:0:0:0:
116,208,62141,1,8,0:0:0:0:
76,232,62280,6,0,P|56:272|84:364,1,140,0|8,1:0|0:0,0:0:0:0:
176,364,63113,1,0,0:0:0:0:
252,304,63391,2,0,P|288:296|328:300,1,70,0|0,1:0|0:0,0:0:0:0:
380,224,63946,2,0,P|348:204|308:204,1,70,8|0,0:0|0:0,0:0:0:0:
203,206,64502,6,0,P|155:182|135:82,1,140,0|8,1:0|0:0,0:0:0:0:
188,28,65335,1,0,0:0:0:0:
280,64,65613,2,0,L|352:56,1,70,0|0,1:0|0:0,0:0:0:0:
416,148,66168,2,0,L|340:136,1,70,8|2,0:0|0:0,0:0:0:0:
308,168,66585,1,8,0:0:0:0:
260,180,66724,6,0,P|224:176|184:156,1,70,0|0,1:0|0:0,0:0:0:0:
116,100,67280,1,8,0:0:0:0:
96,196,67557,1,0,0:0:0:0:
116,100,67835,2,0,L|40:92,1,70,0|0,1:0|0:0,0:0:0:0:
96,196,68391,1,8,0:0:0:0:
188,168,68668,1,0,0:0:0:0:
272,44,68946,6,0,P|300:36|424:52,1,140,0|8,1:0|0:0,0:0:0:0:
491,102,69780,1,0,0:0:0:0:
436,268,70057,1,0,1:0:0:0:
404,260,70196,1,0,0:0:0:0:
372,252,70335,1,0,0:0:0:0:
296,312,70613,1,8,0:0:0:0:
268,216,70891,1,2,0:0:0:0:
236,228,71030,1,8,0:0:0:0:
200,228,71168,6,0,P|184:196|184:152,1,70,0|0,1:0|0:0,0:0:0:0:
232,56,71724,2,0,P|248:88|248:132,1,70,8|0,0:0|0:0,0:0:0:0:
92,64,72280,1,0,1:0:0:0:
24,136,72557,1,0,0:0:0:0:
120,160,72835,1,8,0:0:0:0:
92,64,73113,1,0,0:0:0:0:
216,184,73391,6,0,P|232:256|208:316,1,140,0|0,1:0|1:0,0:0:0:0:
112,308,74224,1,0,0:0:0:0:
112,308,74502,2,0,P|96:236|120:176,1,140,0|0,1:0|1:0,0:0:0:0:
180,84,75335,1,10,0:0:0:0:
212,72,75474,1,8,0:0:0:0:
248,76,75613,6,0,P|284:80|328:112,1,70,4|0,1:0|0:0,0:0:0:0:
324,192,76168,2,0,P|288:188|244:156,1,70,8|0,0:0|0:0,0:0:0:0:
408,156,76724,2,0,P|420:192|412:224,1,70,0|0,1:0|0:0,0:0:0:0:
400,324,77280,2,0,P|364:324|328:344,1,70,8|0,0:0|0:0,0:0:0:0:
272,264,77835,6,0,P|204:268|136:220,1,140,0|8,1:0|0:0,0:0:0:0:
168,136,78668,2,0,P|236:132|304:180,1,140,0|0,0:0|0:0,0:0:0:0:
272,264,79502,2,0,L|260:336,1,70,8|2,0:0|0:0,0:0:0:0:
220,340,79918,1,8,0:0:0:0:
180,344,80057,6,0,P|140:336|108:316,1,70,0|0,1:0|0:0,0:0:0:0:
108,236,80613,2,0,P|148:244|180:264,1,70,8|0,0:0|0:0,0:0:0:0:
132,140,81168,2,0,P|120:104|128:64,1,70,0|0,1:0|0:0,0:0:0:0:
224,64,81724,2,0,P|236:100|228:140,1,70,8|0,0:0|0:0,0:0:0:0:
296,212,82280,6,0,P|364:224|428:184,1,140,0|8,1:0|0:0,0:0:0:0:
348,124,83113,1,0,0:0:0:0:
348,124,83391,1,0,1:0:0:0:
296,212,83668,2,0,P|288:248|296:288,1,70,0|8,0:0|0:0,0:0:0:0:
212,340,84224,1,2,0:0:0:0:
180,332,84363,1,8,0:0:0:0:
152,324,84502,5,0,1:0:0:0:
88,244,84780,1,0,0:0:0:0:
148,164,85057,2,0,L|228:156,1,70,8|0,0:0|0:0,0:0:0:0:
68,28,85613,2,0,P|64:68|76:104,1,70,0|0,1:0|0:0,0:0:0:0:
252,88,86168,2,0,L|328:80,1,70,8|0,0:0|0:0,0:0:0:0:
404,132,86724,6,0,P|420:172|392:272,1,140,0|8,1:0|0:0,0:0:0:0:
328,324,87557,2,0,P|308:288|344:188,1,140
236,172,88391,1,8,0:0:0:0:
280,84,88668,1,2,0:0:0:0:
248,76,88807,1,8,0:0:0:0:
212,80,88946,6,0,P|176:92|152:120,1,70,0|0,1:0|0:0,0:0:0:0:
76,168,89502,2,0,P|88:204|120:228,1,70,8|0,0:0|0:0,0:0:0:0:
236,312,90057,2,0,P|224:276|192:252,1,70,0|0,1:0|0:0,0:0:0:0:
256,176,90613,2,0,L|332:172,1,70,8|0,0:0|0:0,0:0:0:0:
360,172,91030,1,0,0:0:0:0:
392,180,91168,6,0,L|400:220,1,35,0|8,1:0|0:0,0:0:0:0:
472,264,91446,2,0,L|464:308,1,35,0|0,0:0|1:0,0:0:0:0:
400,344,91724,1,8,0:0:0:0:
236,312,92002,1,0,1:0:0:0:
236,312,92141,2,0,L|228:228,1,70,8|2,0:0|1:2,0:0:0:0:
192,212,92557,1,8,0:0:0:0:
116,272,92835,5,8,0:0:0:0:
100,240,92974,1,8,0:0:0:0:
100,204,93113,1,8,0:0:0:0:
108,172,93252,1,8,0:0:0:0:
124,140,93391,6,0,P|136:104|128:72,1,70,4|0,0:2|0:0,0:0:0:0:
224,52,93946,2,0,L|300:60,1,70,8|0,0:0|0:0,0:0:0:0:
292,212,94502,2,0,L|280:136,2,70,0|0|8,1:0|0:0|0:0,0:0:0:0:
388,232,95335,1,0,0:0:0:0:
280,304,95613,6,0,L|192:296,1,70,0|0,1:0|0:0,0:0:0:0:
210,297,96030,1,0,0:0:0:0:
210,297,96168,1,8,0:0:0:0:
124,248,96446,1,0,0:0:0:0:
192,80,96724,1,0,1:0:0:0:
112,140,97002,1,0,0:0:0:0:
88,44,97280,1,8,0:0:0:0:
204,180,97557,1,2,0:0:0:0:
204,180,97696,1,8,0:0:0:0:
204,180,97835,6,0,L|296:176,1,70,0|0,1:0|0:0,0:0:0:0:
328,260,98391,2,0,L|252:256,1,70,8|0,0:0|0:0,0:0:0:0:
124,328,98946,2,0,L|108:360,2,35,0|0|0,1:0|0:0|0:0,0:0:0:0:
52,260,99502,1,8,0:0:0:0:
120,192,99780,1,0,0:0:0:0:
192,124,100057,6,0,L|272:132,1,70,0|0,1:0|0:0,0:0:0:0:
304,220,100613,2,0,L|224:212,1,70,8|0,0:0|0:0,0:0:0:0:
300,316,101168,2,0,P|340:312|372:292,1,70,0|0,1:0|0:0,0:0:0:0:
460,320,101724,2,0,L|464:240,1,70,8|2,0:0|0:0,0:0:0:0:
436,208,102141,1,8,0:0:0:0:
404,172,102280,6,0,P|396:140|400:104,1,70,0|0,1:0|0:0,0:0:0:0:
312,64,102835,2,0,L|228:60,1,70,8|0,0:0|0:0,0:0:0:0:
184,208,103391,2,0,L|192:132,2,70,0|0|8,1:0|0:0|0:0,0:0:0:0:
100,256,104224,1,0,0:0:0:0:
280,336,104502,6,0,P|296:304|264:196,1,140,0|8,1:0|0:0,0:0:0:0:
332,128,105335,1,0,0:0:0:0:
400,200,105613,1,0,1:0:0:0:
468,128,105891,1,0,0:0:0:0:
396,60,106168,1,8,0:0:0:0:
332,128,106446,1,2,0:0:0:0:
332,128,106585,1,8,0:0:0:0:
332,128,106724,6,0,L|256:124,1,70,0|0,1:0|0:0,0:0:0:0:
192,196,107280,2,0,L|264:200,1,70,8|0,0:0|0:0,0:0:0:0:
316,280,107835,1,0,1:0:0:0:
348,292,107974,1,0,0:0:0:0:
380,304,108113,1,0,0:0:0:0:
248,344,108391,2,0,L|176:340,1,70,8|0,0:0|0:0,0:0:0:0:
76,172,108946,6,0,P|64:248|112:316,1,140,0|8,1:0|0:0,0:0:0:0:
160,228,109780,1,0,0:0:0:0:
176,132,110057,2,0,L|184:84,2,35,0|0|0,1:0|0:0|0:0,0:0:0:0:
252,192,110613,1,8,0:0:0:0:
312,328,110891,1,0,0:0:0:0:
312,328,111030,1,8,0:0:0:0:
312,328,111168,6,0,L|392:324,1,70,4|0,0:2|0:0,0:0:0:0:
428,236,111724,2,0,P|356:228|344:232,1,70,8|0,0:0|0:0,0:0:0:0:
356,128,112280,2,0,P|320:136|288:160,2,70,0|0|8,1:0|0:0|0:0,0:0:0:0:
284,60,113113,2,0,P|216:76|148:52,1,140,0|0,0:0|0:0,0:0:0:0:
72,112,113946,1,8,0:0:0:0:
136,184,114224,1,0,0:0:0:0:
232,160,114502,5,0,1:0:0:0:
232,160,114780,1,0,0:0:0:0:
204,256,115057,1,8,0:0:0:0:
44,200,115335,1,2,0:0:0:0:
44,200,115474,1,8,0:0:0:0:
44,200,115613,2,0,P|36:268|68:336,1,140,0|8,1:0|0:0,0:0:0:0:
204,256,116446,5,0,0:0:0:0:
172,348,116724,1,0,1:0:0:0:
268,336,117002,1,0,0:0:0:0:
204,256,117280,1,8,0:0:0:0:
292,136,117557,2,0,P|324:168|320:276,1,140,0|0,0:0|0:0,0:0:0:0:
329,258,118252,1,0,0:0:0:0:
329,258,118391,1,8,0:0:0:0:
428,240,118668,5,0,0:0:0:0:
404,336,118946,1,0,1:0:0:0:
428,240,119224,1,0,0:0:0:0:
452,144,119502,1,8,0:0:0:0:
396,64,119780,1,2,0:0:0:0:
396,64,119918,1,8,0:0:0:0:
396,64,120057,6,0,L|312:68,1,70,0|0,1:0|0:0,0:0:0:0:
336,168,120613,2,0,L|260:160,1,70,8|0,0:0|0:0,0:0:0:0:
164,248,121168,2,0,P|200:240|232:244,1,70,0|0,1:0|0:0,0:0:0:0:
184,336,121724,2,0,P|136:336|108:320,1,70,8|0,0:0|0:0,0:0:0:0:
64,104,122280,6,0,P|40:172|76:244,1,140,0|8,1:0|0:0,0:0:0:0:
136,168,123113,1,0,0:0:0:0:
156,72,123391,1,0,1:0:0:0:
228,140,123668,1,0,0:0:0:0:
136,168,123946,1,8,0:0:0:0:
204,236,124224,1,2,0:0:0:0:
232,256,124363,1,8,0:0:0:0:
268,264,124502,6,0,P|308:264|344:256,1,70,0|0,1:0|0:0,0:0:0:0:
380,172,125057,2,0,P|340:172|304:180,1,70,8|0,0:0|0:0,0:0:0:0:
300,80,125613,2,0,P|312:44|308:8,2,70,0|0|8,1:0|0:0|0:0,0:0:0:0:
204,104,126446,1,0,0:0:0:0:
108,128,126724,5,0,1:0:0:0:
180,308,127280,1,0,1:0:0:0:
108,128,127835,1,0,1:0:0:0:
180,308,128391,1,0,1:0:0:0:
208,216,128668,1,10,0:0:0:0:
240,232,128807,1,8,0:0:0:0:
272,240,128946,6,0,P|324:240|352:232,1,70,4|0,1:0|0:0,0:0:0:0:
412,304,129502,1,8,0:0:0:0:
448,212,129780,1,0,0:0:0:0:
360,168,130057,2,0,L|344:128,1,35,0|0,1:0|0:0,0:0:0:0:
320,92,130335,2,0,L|228:88,1,70,0|8,0:0|0:0,0:0:0:0:
200,184,130891,6,0,P|128:192|64:152,1,140,0|0,0:0|0:0,0:0:0:0:
156,48,131724,1,8,0:0:0:0:
156,48,132002,2,0,P|204:96|208:176,1,140,0|0,0:0|0:0,0:0:0:0:
232,260,132835,1,8,0:0:0:0:
256,356,133113,1,2,0:0:0:0:
208,348,133252,1,8,0:0:0:0:
160,336,133391,6,0,P|84:340|24:292,1,140,0|8,1:0|0:0,0:0:0:0:
116,240,134224,1,0,0:0:0:0:
64,128,134502,2,0,L|32:112,2,35,0|0|0,1:0|0:0|0:0,0:0:0:0:
160,152,135057,2,0,L|240:148,1,70,8|0,0:0|0:0,0:0:0:0:
288,74,135613,6,0,P|324:142|308:202,1,140,0|8,1:0|0:0,0:0:0:0:
240,264,136446,1,0,0:0:0:0:
316,328,136724,2,0,L|360:340,2,35,0|0|0,1:0|0:0|0:0,0:0:0:0:
388,260,137280,1,8,0:0:0:0:
348,172,137557,1,2,0:0:0:0:
348,172,137696,1,8,0:0:0:0:
348,172,137835,6,0,P|396:164|428:172,1,70,0|0,1:0|0:0,0:0:0:0:
464,80,138391,2,0,L|384:64,1,70,8|0,0:0|0:0,0:0:0:0:
300,84,138946,2,0,L|260:92,2,35,0|0|0,1:0|0:0|0:0,0:0:0:0:
212,40,139502,2,0,P|172:32|140:40,1,70,8|0,0:0|0:0,0:0:0:0:
72,104,140057,6,0,P|76:172|152:232,1,140,0|8,1:0|0:0,0:0:0:0:
216,188,140891,1,0,0:0:0:0:
200,284,141168,1,0,1:0:0:0:
232,296,141307,1,0,0:0:0:0:
264,308,141446,1,0,0:0:0:0:
360,248,141724,1,8,0:0:0:0:
300,152,142002,1,2,0:0:0:0:
300,152,142141,1,8,0:0:0:0:
300,152,142280,6,0,P|304:112|296:80,1,70,0|0,1:0|0:0,0:0:0:0:
208,40,142835,2,0,P|204:76|212:112,1,70,8|0,0:0|0:0,0:0:0:0:
140,176,143391,2,0,P|152:212|148:244,1,70,0|0,1:0|0:0,0:0:0:0:
80,316,143946,1,8,0:0:0:0:
4,256,144224,1,0,0:0:0:0:
80,316,144502,5,0,1:0:0:0:
80,316,144641,2,0,P|120:328|172:324,1,70,8|0,0:0|1:0,0:0:0:0:
188,300,145057,2,0,P|228:296|256:308,1,70,8|0,0:0|1:0,0:0:0:0:
300,288,145474,1,8,0:0:0:0:
388,248,145752,1,2,1:2:0:0:
388,248,145891,1,8,0:0:0:0:
304,200,146168,5,8,0:0:0:0:
296,164,146307,1,8,0:0:0:0:
296,128,146446,1,8,0:0:0:0:
308,96,146585,1,8,0:0:0:0:
328,68,146724,6,0,P|264:56|208:76,1,105.000004005432,4|0,0:2|0:0,0:0:0:0:
152,100,147557,1,0,1:0:0:0:
212,156,147835,1,8,0:0:0:0:
132,180,148113,2,0,L|124:224,2,26.2500010013581,0|0|0,0:0|0:0|0:0,0:0:0:0:
196,236,148668,1,0,1:0:0:0:
184,276,148807,1,0,1:0:0:0:
176,316,148946,6,0,P|216:316|268:272,1,105.000004005432,4|0,0:0|0:0,0:0:0:0:
316,212,149780,1,0,1:0:0:0:
316,212,150057,2,0,L|424:208,1,105.000004005432,8|0,0:0|0:0,0:0:0:0:
400,128,150891,1,0,1:0:0:0:
364,108,151030,1,0,1:0:0:0:
324,104,151168,6,0,P|284:104|232:144,1,105.000004005432,0|0,1:0|0:0,0:0:0:0:
156,104,152002,1,0,1:0:0:0:
148,188,152280,1,8,0:0:0:0:
184,264,152557,2,0,L|136:272,2,26.2500010013581,0|0|0,0:0|0:0|0:0,0:0:0:0:
364,320,153113,1,0,1:0:0:0:
324,332,153252,1,0,1:0:0:0:
284,316,153391,6,0,P|272:268|288:212,1,105.000004005432,0|0,1:0|0:0,0:0:0:0:
332,144,154224,2,0,L|372:136,2,26.2500010013581,0|0|8,1:0|1:0|0:0,0:0:0:0:
264,96,154780,2,0,L|236:84,2,26.2500010013581,0|0|8,1:0|1:0|0:0,0:0:0:0:
172,160,155335,1,8,0:0:0:0:
112,100,155613,6,0,P|88:148|96:200,1,105.000004005432,4|0,0:2|0:0,0:0:0:0:
156,252,156446,1,0,1:0:0:0:
236,224,156724,2,0,P|240:264|228:292,1,52.5000020027161,8|0,0:0|0:0,0:0:0:0:
316,300,157280,2,0,L|376:296,1,52.5000020027161,0|0,0:0|1:0,0:0:0:0:
396,280,157696,1,0,1:0:0:0:
420,260,157835,6,0,P|424:212|388:152,1,105.000004005432,4|0,0:0|0:0,0:0:0:0:
448,92,158668,1,0,1:0:0:0:
356,84,158946,1,8,0:0:0:0:
272,132,159224,2,0,L|216:120,1,52.5000020027161
200,208,159780,1,0,1:0:0:0:
216,236,159918,1,0,1:0:0:0:
220,268,160057,5,0,1:0:0:0:
96,252,160474,1,0,1:0:0:0:
96,252,160613,2,0,L|80:176,1,52.5000020027161,8|0,0:0|1:0,0:0:0:0:
108,164,161030,1,8,0:0:0:0:
128,93,161307,2,0,L|107:51,2,26.2500010013581,0|8|0,1:0|0:0|0:0,0:0:0:0:
161,108,161724,2,0,L|228:104,1,52.5000020027161,2|8,1:2|0:0,0:0:0:0:
283,128,162141,1,0,0:0:0:0:
283,128,162280,6,0,L|287:172,2,26.2500010013581,8|0|0,2:0|0:0|1:0,0:0:0:0:
343,228,162835,2,0,L|335:268,2,26.2500010013581,8|0|0,0:0|0:0|1:0,0:0:0:0:
424,148,163391,6,0,L|428:128,2,13.125000500679,8|8|8,0:0|0:0|0:0,0:0:0:0:
451,171,163668,2,0,L|460:209,1,26.2500010013581,8|8,0:0|0:0,0:0:0:0:
475,228,163946,2,0,L|477:278,1,26.2500010013581,8|8,0:0|0:0,0:0:0:0:
460,288,164224,2,0,L|444:324,1,26.2500010013581,8|8,0:0|0:0,0:0:0:0:
408,340,164502,6,0,P|374:349|329:344,1,70,4|0,0:2|0:0,0:0:0:0:
284,256,165057,2,0,L|292:172,1,70,8|0,0:0|0:0,0:0:0:0:
220,116,165613,1,0,1:0:0:0:
176,204,165891,1,0,0:0:0:0:
220,116,166168,1,8,0:0:0:0:
124,284,166446,6,0,P|72:288|60:200,1,140,0|0,0:0|0:0,0:0:0:0:
47,215,167141,1,0,0:0:0:0:
47,215,167280,1,8,0:0:0:0:
76,124,167557,1,0,0:0:0:0:
220,116,167835,6,0,P|260:104|300:112,1,70,0|0,1:0|0:0,0:0:0:0:
264,204,168391,1,8,0:0:0:0:
356,168,168668,1,2,0:0:0:0:
356,168,168807,1,8,0:0:0:0:
356,168,168946,5,0,1:0:0:0:
336,264,169224,1,0,0:0:0:0:
428,232,169502,2,0,P|464:236|508:224,1,70,8|0,0:0|0:0,0:0:0:0:
356,168,170057,2,0,P|320:164|280:172,1,70,0|0,1:0|0:0,0:0:0:0:
267,259,170613,2,0,P|303:267|351:259,1,70,8|0,0:0|0:0,0:0:0:0:
212,196,171168,6,0,P|188:232|220:332,1,140,0|8,1:0|0:0,0:0:0:0:
108,340,172002,1,0,0:0:0:0:
64,252,172280,1,0,1:0:0:0:
80,156,172557,1,0,0:0:0:0:
128,72,172835,1,8,0:0:0:0:
180,156,173113,2,0,L|224:160,1,35,2|8,0:0|0:0,0:0:0:0:
252,128,173391,6,0,P|292:128|332:112,1,70,0|0,1:0|0:0,0:0:0:0:
364,204,173946,2,0,P|352:236|364:284,1,70,8|0,0:0|0:0,0:0:0:0:
440,324,174502,2,0,P|476:328|508:320,2,70,0|0|8,1:0|0:0|0:0,0:0:0:0:
464,240,175335,2,0,P|472:172|424:112,1,140,0|0,0:0|0:0,0:0:0:0:
431,116,176030,1,0,0:0:0:0:
431,116,176168,5,8,0:0:0:0:
336,132,176446,1,0,0:0:0:0:
368,40,176724,1,0,1:0:0:0:
272,56,177002,1,0,0:0:0:0:
232,148,177280,1,8,0:0:0:0:
116,76,177557,2,0,L|80:68,1,35,2|8,0:0|0:0,0:0:0:0:
52,116,177835,6,0,P|48:152|64:192,1,70,0|0,1:0|0:0,0:0:0:0:
136,240,178391,2,0,P|148:280|144:312,1,70,8|0,0:0|0:0,0:0:0:0:
44,288,178946,1,0,1:0:0:0:
136,240,179224,1,0,0:0:0:0:
184,152,179502,2,0,L|276:160,1,70,8|0,0:0|0:0,0:0:0:0:
348,248,180057,5,0,1:0:0:0:
372,264,180613,1,0,1:0:0:0:
396,276,181168,1,0,1:0:0:0:
420,288,181724,1,0,1:0:0:0:
352,356,182002,1,10,0:0:0:0:
304,344,182141,1,8,0:0:0:0:
260,320,182280,6,0,P|244:280|244:248,1,70,0|0,1:0|0:0,0:0:0:0:
264,156,182835,2,0,L|344:152,1,70,8|0,0:0|0:0,0:0:0:0:
200,68,183391,2,0,L|212:28,2,35,0|0|0,1:0|0:0|0:0,0:0:0:0:
112,112,183946,1,8,0:0:0:0:
176,316,184224,6,0,P|148:248|168:180,1,140,0|0,0:0|0:0,0:0:0:0:
248,244,185057,1,8,0:0:0:0:
320,176,185335,2,0,P|348:232|328:304,1,140,0|0,0:0|0:0,0:0:0:0:
428,324,186168,1,8,0:0:0:0:
468,234,186446,1,2,0:0:0:0:
457,186,186585,1,8,0:0:0:0:
424,148,186724,6,0,L|344:137,1,70,0|0,1:0|0:0,0:0:0:0:
384,44,187280,2,0,L|469:57,1,70,8|0,0:0|0:0,0:0:0:0:
316,104,187835,2,0,P|248:112|188:72,1,140,0|8,1:0|0:0,0:0:0:0:
108,124,188668,1,0,0:0:0:0:
108,124,188946,6,0,P|104:160|120:204,1,70,0|0,1:0|0:0,0:0:0:0:
208,220,189502,2,0,P|216:260|208:296,1,70,8|0,0:0|0:0,0:0:0:0:
300,248,190057,2,0,P|360:208|448:224,1,140,0|8,1:0|0:0,0:0:0:0:
484,292,190891,1,2,0:0:0:0:
460,336,191030,1,8,0:0:0:0:
416,356,191168,6,0,P|380:364|340:356,1,70,0|0,1:0|0:0,0:0:0:0:
256,324,191724,2,0,L|168:316,1,70,8|0,0:0|0:0,0:0:0:0:
76,188,192280,2,0,L|112:172,2,35,0|0|0,1:0|0:0|0:0,0:0:0:0:
72,92,192835,2,0,P|124:84|152:96,1,70,8|0,0:0|0:0,0:0:0:0:
244,92,193391,6,0,P|256:164|216:232,1,140,0|8,1:0|0:0,0:0:0:0:
168,144,194224,2,0,P|156:72|196:4,1,140,0|0,0:0|0:0,0:0:0:0:
308,40,195057,1,8,0:0:0:0:
388,96,195335,1,2,0:0:0:0:
376,144,195474,1,8,0:0:0:0:
364,192,195613,6,0,L|380:272,1,70,0|0,1:0|0:0,0:0:0:0:
292,360,196168,2,0,L|276:280,1,70,8|0,0:0|0:0,0:0:0:0:
216,228,196724,1,0,1:0:0:0:
216,228,196863,1,0,0:0:0:0:
216,228,197002,1,0,0:0:0:0:
264,144,197280,1,8,0:0:0:0:
168,140,197557,1,0,0:0:0:0:
48,228,197835,6,0,L|88:232,1,35,0|8,1:0|0:0,0:0:0:0:
156,296,198252,2,0,L|212:304,1,35,0|8,1:0|0:0,0:0:0:0:
280,264,198668,2,0,L|340:272,1,35,0|8,1:0|0:0,0:0:0:0:
388,200,199085,2,0,L|332:188,1,35,2|8,1:2|0:0,0:0:0:0:
348,96,199502,2,0,L|328:64,1,35,8|8,0:0|0:0,0:0:0:0:
284,84,199780,2,0,L|248:60,1,35,8|8,0:0|0:0,0:0:0:0:
224,64,200057,6,0,P|184:68|140:52,1,83.9999974365235,4|0,0:2|0:0,0:0:0:0:
