osu file format v14

[General]
AudioFilename: Trevor Something - Sega Genesis.mp3
AudioLeadIn: 0
PreviewTime: 82830
Countdown: 0
SampleSet: Soft
StackLeniency: 0.7
Mode: 0
LetterboxInBreaks: 0
EpilepsyWarning: 1
WidescreenStoryboard: 0

[Editor]
Bookmarks: 35842,42348,48131,53914,59698,65481,71264,77047,82830,88613,94396,103071,111746,152228,186926
DistanceSpacing: 1.2
BeatDivisor: 4
GridSize: 4
TimelineZoom: 1.4

[Metadata]
Title:Sega Genesis
TitleUnicode:Sega Genesis
Artist:Trevor Something
ArtistUnicode:Trevor Something
Creator:Bakari
Version:VHS
Source:
Tags:Does Not Exist Megadrive Natsu synthpop new retro 80s synthwave cyberpunk
BeatmapID:685103
BeatmapSetID:306004

[Difficulty]
HPDrainRate:6.5
CircleSize:4.5
OverallDifficulty:6.5
ApproachRate:8
SliderMultiplier:3
SliderTickRate:4

[Events]
//Background and Video events
0,0,"l.png",0,0
//Break Periods
2,152337,157261
//Storyboard Layer 0 (Background)
//Storyboard Layer 1 (Fail)
//Storyboard Layer 2 (Pass)
//Storyboard Layer 3 (Foreground)
//Storyboard Sound Samples

[TimingPoints]
13433,722.89156626506,4,2,1,75,1,0
35119,-100,4,2,1,5,0,0
35842,-100,4,2,1,75,0,0
36294,-100,4,2,1,30,0,0
36384,-100,4,2,1,75,0,0
36565,-100,4,2,2,75,0,0
36655,-100,4,2,1,75,0,0
42348,-100,4,2,2,75,0,0
42439,-100,4,2,1,75,0,0
59698,-100,4,2,2,75,0,0
59788,-100,4,2,1,75,0,0
65481,-100,4,2,2,75,0,0
65571,-100,4,2,1,75,0,0
81475,-100,4,2,1,50,0,0
81565,-100,4,2,1,75,0,0
82198,-100,4,2,1,50,0,0
82288,-100,4,2,1,75,0,0
82830,-100,4,2,2,75,0,1
82920,-100,4,2,1,60,0,1
88613,-100,4,2,2,75,0,1
88704,-100,4,2,1,75,0,1
105963,-100,4,2,2,75,0,0
106053,-100,4,2,1,75,0,0
111746,-100,4,2,2,75,0,0
111836,-100,4,2,1,75,0,0
129095,-100,4,2,2,75,0,0
129186,-100,4,2,1,75,0,0
134878,-100,4,2,2,75,0,0
134969,-100,4,2,1,75,0,0
150872,-100,4,2,1,50,0,0
150962,-100,4,2,1,75,0,0
151595,-100,4,2,1,50,0,0
151685,-100,4,2,1,75,0,0
158011,-100,4,2,2,75,0,1
158101,-100,4,2,1,75,0,1
163794,-100,4,2,2,75,0,1
163884,-100,4,2,1,75,0,1
181143,-100,4,2,2,75,0,0
181234,-100,4,2,1,75,0,0
186926,-100,4,2,2,75,0,0
187017,-100,4,2,1,75,0,0
192710,-100,4,2,2,75,0,0
192800,-100,4,2,1,75,0,0
198493,-100,4,2,2,75,0,0
198583,-100,4,2,1,75,0,0
204276,-100,4,2,2,5,0,0

[Colours]
Combo1 : 222,135,135
Combo2 : 134,158,164
Combo3 : 179,126,117
Combo4 : 98,138,213
SliderBorder : 120,120,120
SliderTrackOverride : 118,41,138

[HitObjects]
256,192,30782,12,0,35120,0:0:0:0:
68,152,35842,6,0,L|60:108,2,37.5,12|8|4,0:0|0:0|0:3,0:0:0:0:
144,204,36204,2,0,L|136:252,2,37.5,8|8|4,0:0|0:2|0:3,0:0:0:0:
240,104,36565,6,0,P|280:96|388:96,1,150,4|2,0:1|0:0,0:0:0:0:
464,148,37107,1,0,0:0:0:0:
380,248,37288,2,0,L|384:328,1,75,8|0,0:0|0:0,0:0:0:0:
308,368,37649,2,0,L|304:284,1,75,2|2,0:0|0:0,0:0:0:0:
260,212,38011,2,0,B|228:240|216:272|216:272|140:268,1,150,4|2,0:3|0:0,0:0:0:0:
32,128,38734,2,0,B|64:100|76:68|76:68|152:72,1,150,12|2,0:0|0:0,0:0:0:0:
220,132,39276,1,2,0:0:0:0:
302,172,39457,6,0,P|274:207|161:201,1,150,4|2,0:3|0:0,0:0:0:0:
128,136,39999,1,0,0:0:0:0:
28,216,40179,2,0,P|24:252|32:292,1,75,12|0,0:0|0:0,0:0:0:0:
158,335,40541,1,2,0:0:0:0:
116,250,40722,1,2,0:0:0:0:
78,166,40902,2,0,B|121:149|162:171|162:171|234:150,1,150,4|2,0:1|0:0,0:0:0:0:
308,128,41445,1,4,0:3:0:0:
392,96,41625,2,0,L|396:20,2,75,10|0|4,0:0|0:0|0:0,0:0:0:0:
448,168,42167,1,10,0:0:0:0:
368,192,42348,6,0,B|348:212|344:248|344:248|344:344,1,150,4|2,0:1|0:0,0:0:0:0:
168,335,43071,2,0,B|168:248|168:248|164:212|144:192,1,150,8|2,0:0|0:0,0:0:0:0:
56,164,43613,1,2,0:0:0:0:
88,248,43794,1,4,0:3:0:0:
256,188,44155,1,2,0:0:0:0:
424,248,44517,1,8,0:0:0:0:
336,264,44698,1,2,0:0:0:0:
368,180,44878,2,0,P|400:164|440:160,1,75,2|2,0:0|0:0,0:0:0:0:
480,80,45240,6,0,B|440:64|400:80|400:80|324:72,1,150,4|2,0:1|0:0,0:0:0:0:
256,24,45782,1,0,0:0:0:0:
179,72,45963,2,0,B|112:80|112:80|72:64|32:80,1,150,8|2,0:0|0:0,0:0:0:0:
70,164,46505,1,0,0:0:0:0:
132,232,46686,2,0,P|117:272|115:309,1,75,4|0,0:3|0:0,0:0:0:0:
204,288,47047,2,0,P|216:248|216:208,1,75,2|4,0:0|0:3,0:0:0:0:
184,132,47408,2,0,B|172:96|172:96|184:56,1,75,10|4,0:0|0:3,0:0:0:0:
329,60,47770,2,0,B|340:96|340:96|328:132,1,75,10|4,0:0|0:3,0:0:0:0:
256,184,48131,6,0,L|256:20,1,150,4|2,0:1|0:0,0:0:0:0:
368,176,48854,2,0,P|360:216|340:248,1,75,8|0,0:0|0:0,0:0:0:0:
384,329,49216,2,0,P|420:333|460:321,1,75,2|2,0:0|0:0,0:0:0:0:
411,249,49577,2,0,L|296:344,1,150,4|2,0:3|0:0,0:0:0:0:
204,336,50119,1,0,0:0:0:0:
180,248,50300,2,0,L|295:153,1,150,12|2,0:0|0:0,0:0:0:0:
368,100,50842,1,0,0:0:0:0:
448,52,51023,6,0,P|472:100|460:200,1,150,4|2,0:3|0:0,0:0:0:0:
324,80,51746,2,0,P|368:108|392:140,1,75,12|0,0:0|0:0,0:0:0:0:
312,262,52107,1,2,0:0:0:0:
301,173,52288,1,2,0:0:0:0:
312,262,52469,2,0,P|264:262|168:194,1,150,4|2,0:1|0:0,0:0:0:0:
162,83,53011,1,4,0:3:0:0:
104,152,53192,2,0,P|67:175|30:188,1,75,10|0,0:0|0:0,0:0:0:0:
12,100,53553,2,0,P|46:74|82:58,1,75,4|8,0:0|0:0,0:0:0:0:
162,83,53914,6,0,B|184:116|184:160|184:160|264:184,1,150,4|2,0:1|0:0,0:0:0:0:
424,136,54637,2,0,B|402:103|402:59|402:59|322:35,1,150,8|2,0:0|0:0,0:0:0:0:
308,124,55179,1,2,0:0:0:0:
336,208,55360,2,0,L|324:364,1,150,4|2,0:3|0:0,0:0:0:0:
244,316,55902,1,0,0:0:0:0:
164,272,56083,1,8,0:0:0:0:
416,160,56445,1,2,0:0:0:0:
496,204,56625,1,2,0:0:0:0:
412,246,56806,6,0,P|356:226|340:118,1,150,4|2,0:1|0:0,0:0:0:0:
384,76,57348,1,0,0:0:0:0:
416,160,57529,1,8,0:0:0:0:
260,248,57890,1,2,0:0:0:0:
96,160,58252,1,4,0:3:0:0:
116,340,58613,1,2,0:0:0:0:
40,288,58794,1,4,0:3:0:0:
128,329,58975,2,0,L|136:380,2,37.5,12|8|4,0:0|0:0|0:3,0:0:0:0:
48,278,59336,2,0,L|56:335,2,37.5,8|0|4,0:0|0:0|0:3,0:0:0:0:
4,200,59698,6,0,P|48:196|116:88,1,150,4|2,0:1|0:0,0:0:0:0:
112,32,60240,1,0,0:0:0:0:
192,72,60420,2,0,L|356:56,1,150,8|2,0:0|0:0,0:0:0:0:
480,172,61143,2,0,L|316:188,1,150,4|2,0:3|0:0,0:0:0:0:
160,244,61866,2,0,P|172:268|212:308,1,75,12|0,0:0|0:0,0:0:0:0:
292,324,62228,1,2,0:0:0:0:
204,168,62589,6,0,P|144:156|72:220,1,150,4|2,0:3|0:0,0:0:0:0:
88,296,63131,1,0,0:0:0:0:
176,320,63312,2,0,P|220:296|236:264,2,75,12|0|2,0:0|0:0|0:0,0:0:0:0:
24,224,64035,2,0,L|8:376,1,150,4|2,0:1|0:0,0:0:0:0:
94,350,64577,1,4,0:3:0:0:
176,320,64758,1,10,0:0:0:0:
240,200,64939,1,0,0:0:0:0:
324,236,65119,2,0,L|398:232,1,75,4|8,0:0|0:0,0:0:0:0:
448,156,65481,6,0,P|420:132|292:136,1,150,4|2,0:1|0:0,0:0:0:0:
200,259,66204,2,0,P|127:266|64:228,1,150,8|2,0:0|0:0,0:0:0:0:
120,160,66746,1,2,0:0:0:0:
246,177,66926,2,0,P|282:161|310:129,1,75,4|0,0:3|0:0,0:0:0:0:
352,56,67288,1,2,0:0:0:0:
420,224,67649,1,8,0:0:0:0:
292,352,68011,2,0,L|200:344,1,75,2|2,0:0|0:0,0:0:0:0:
184,260,68372,6,0,L|348:248,1,150,4|2,0:1|0:0,0:0:0:0:
352,160,68914,1,0,0:0:0:0:
380,72,69095,1,8,0:0:0:0:
179,111,69457,2,0,P|158:97|129:51,1,75,2|2,0:0|0:0,0:0:0:0:
40,64,69818,2,0,P|25:97|20:145,1,75,4|0,0:3|0:0,0:0:0:0:
76,204,70179,1,2,0:0:0:0:
56,292,70360,1,4,0:3:0:0:
175,269,70541,2,0,P|176:305|163:349,1,75,10|4,0:0|0:3,0:0:0:0:
246,202,70902,2,0,P|270:241|274:289,1,75,10|4,0:0|0:3,0:0:0:0:
260,360,71264,6,0,L|432:348,1,150,4|2,0:1|0:0,0:0:0:0:
468,180,71987,2,0,P|444:160|424:116,1,75,8|0,0:0|0:0,0:0:0:0:
416,32,72348,1,2,0:0:0:0:
300,168,72710,1,4,0:3:0:0:
132,60,73071,2,0,P|96:56|56:60,1,75,2|0,0:0|0:0,0:0:0:0:
20,140,73432,2,0,P|64:144|100:136,1,75,12|0,0:0|0:0,0:0:0:0:
156,204,73794,2,0,P|140:240|136:280,1,75,2|0,0:0|0:0,0:0:0:0:
200,340,74155,6,0,P|221:303|227:268,1,75,4|0,0:3|0:0,0:0:0:0:
240,184,74517,1,2,0:0:0:0:
308,244,74698,1,0,0:0:0:0:
388,284,74878,2,0,L|376:124,1,150,12|2,0:0|0:0,0:0:0:0:
208,72,75601,2,0,P|188:84|136:96,1,75,4|0,0:1|0:0,0:0:0:0:
104,180,75963,2,0,P|156:196|256:184,1,150,2|10,0:0|0:0,0:0:0:0:
420,252,76686,2,0,P|424:288|416:332,1,75,4|8,0:0|0:0,0:0:0:0:
340,368,77047,5,4,0:1:0:0:
284,196,77408,1,2,0:0:0:0:
132,288,77770,2,0,P|104:284|56:288,1,75,8|0,0:0|0:0,0:0:0:0:
4,216,78131,2,0,P|0:176|8:136,1,75,2|2,0:0|0:0,0:0:0:0:
60,68,78493,1,4,0:3:0:0:
224,140,78854,1,2,0:0:0:0:
441,41,79216,2,0,P|457:74|465:121,1,75,12|0,0:0|0:0,0:0:0:0:
400,176,79577,2,0,P|384:143|376:96,1,75,2|2,0:0|0:0,0:0:0:0:
308,44,79939,6,0,P|288:88|276:196,1,150,4|2,0:1|0:0,0:0:0:0:
335,313,80481,1,0,0:0:0:0:
252,276,80661,1,12,0:0:0:0:
432,296,81023,1,2,0:0:0:0:
380,124,81384,2,0,L|380:76,2,37.5,8|8|4,0:0|0:0|0:3,0:0:0:0:
308,196,81746,1,4,0:1:0:0:
220,128,81926,1,4,0:3:0:0:
192,248,82107,2,0,L|196:296,2,37.5,12|8|4,0:0|0:0|0:3,0:0:0:0:
56,198,82469,2,0,L|51:143,2,37.5,8|0|10,0:0|0:0|0:0,0:0:0:0:
68,240,82740,1,8,0:0:0:0:
96,280,82830,6,0,L|168:124,1,150,4|2,0:1|0:0,0:0:0:0:
344,112,83553,2,0,P|348:144|340:188,1,75,8|0,0:0|0:0,0:0:0:0:
268,236,83914,1,0,0:0:0:0:
404,352,84276,1,4,0:3:0:0:
436,176,84637,1,2,0:0:0:0:
352,208,84818,1,0,0:0:0:0:
268,236,84999,2,0,P|232:196|228:92,1,150,12|0,0:0|0:0,0:0:0:0:
404,108,85722,6,0,P|440:148|444:252,1,150,4|2,0:3|0:0,0:0:0:0:
376,292,86264,1,0,0:0:0:0:
268,236,86445,2,0,P|260:268|260:320,1,75,8|0,0:0|0:0,0:0:0:0:
184,360,86806,2,0,P|144:344|120:316,1,75
84,240,87167,2,0,P|120:192|156:256,1,150,0|2,0:1|0:0,0:0:0:0:
40,112,87890,2,0,P|80:80|184:92,1,150,12|4,0:0|0:0,0:0:0:0:
236,148,88432,1,2,0:0:0:0:
316,192,88613,6,0,L|476:180,1,150,4|2,0:1|0:0,0:0:0:0:
400,120,89155,1,0,0:0:0:0:
339,260,89336,2,0,P|307:262|258:238,1,75,8|0,0:0|0:0,0:0:0:0:
188,292,89698,2,0,P|176:336|180:368,1,75,0|0,0:0|0:0,0:0:0:0:
264,336,90059,2,0,L|176:192,1,150,4|2,0:3|0:0,0:0:0:0:
276,224,90601,1,0,0:0:0:0:
114,247,90782,2,0,L|74:171,1,75,12|0,0:0|0:0,0:0:0:0:
161,71,91143,1,0,0:0:0:0:
180,160,91324,1,0,0:0:0:0:
200,248,91505,6,0,L|184:336,1,75,4|0,0:3|0:0,0:0:0:0:
276,308,91866,2,0,P|324:296|424:344,2,150,2|12|0,0:0|0:0|0:0,0:0:0:0:
204,364,92770,1,0,0:0:0:0:
80,304,92951,2,0,L|96:120,1,150,4|2,0:3|0:0,0:0:0:0:
264,100,93673,2,0,L|260:196,1,75,8|0,0:0|0:0,0:0:0:0:
344,216,94035,1,0,0:0:0:0:
340,128,94216,1,0,0:0:0:0:
340,40,94396,6,0,P|384:56|424:152,1,150,4|2,0:3|0:0,0:0:0:0:
344,304,95119,2,0,P|300:288|260:192,1,150,8|2,0:0|0:0,0:0:0:0:
276,112,95661,1,0,0:0:0:0:
167,159,95842,2,0,P|139:143|107:103,1,75
20,116,96204,2,0,P|8:160|8:208,1,75
48,268,96565,2,0,L|124:264,1,75,8|0,0:0|0:0,0:0:0:0:
173,340,96926,2,0,P|129:352|93:348,1,75,2|0,0:0|0:0,0:0:0:0:
122,264,97288,6,0,L|282:272,1,150,4|2,0:3|0:0,0:0:0:0:
328,200,97830,1,0,0:0:0:0:
276,124,98011,1,8,0:0:0:0:
420,144,98192,1,0,0:0:0:0:
404,232,98372,2,0,L|416:320,1,75,0|0,0:0|0:0,0:0:0:0:
352,372,98734,2,0,P|316:356|264:264,1,150,4|2,0:3|0:0,0:0:0:0:
96,192,99457,2,0,P|88:216|84:272,1,75,8|0,0:0|0:0,0:0:0:0:
180,336,99818,1,2,0:0:0:0:
172,248,99999,1,0,0:0:0:0:
168,160,100179,6,0,P|217:175|256:264,1,150,4|0,0:3|0:0,0:0:0:0:
252,348,100722,1,0,0:0:0:0:
367,320,100902,2,0,L|447:328,1,75,8|0,0:0|0:0,0:0:0:0:
484,204,101264,1,2,0:0:0:0:
396,220,101445,1,0,0:0:0:0:
308,228,101625,2,0,B|305:183|334:152|334:152|308:87,1,150,4|2,0:3|0:0,0:0:0:0:
276,5,102167,1,0,0:0:0:0:
192,35,102348,2,0,B|194:79|165:110|165:110|191:175,1,150,8|0,0:0|0:0,0:0:0:0:
228,256,102890,1,0,0:0:0:0:
144,210,103071,6,0,P|176:178|275:174,1,150,0|2,0:0|0:0,0:0:0:0:
327,253,103613,1,0,0:0:0:0:
280,332,103794,1,8,0:0:0:0:
405,304,103975,1,0,0:0:0:0:
327,253,104155,2,0,P|319:201|323:161,1,75,2|0,0:0|0:0,0:0:0:0:
372,108,104517,6,0,L|408:100,2,37.5,12|8|8,0:0|0:0|0:0,0:0:0:0:
284,100,104878,2,0,P|244:68|228:44,1,75,12|8,0:0|0:0,0:0:0:0:
204,136,105240,2,0,P|168:140|124:132,1,75,12|8,0:0|0:0,0:0:0:0:
156,220,105601,2,0,P|136:232|112:240,2,37.5,12|8|10,0:0|0:0|0:0,0:0:0:0:
192,248,105872,1,8,0:0:0:0:
224,280,105963,6,0,L|376:224,1,150,4|2,0:1|0:0,0:0:0:0:
408,52,106686,2,0,P|380:48|332:56,1,75,8|0,0:0|0:0,0:0:0:0:
272,120,107047,2,0,L|196:148,1,75,2|2,0:0|0:0,0:0:0:0:
120,108,107408,1,4,0:3:0:0:
56,276,107770,1,2,0:0:0:0:
232,248,108131,1,12,0:0:0:0:
344,304,108312,1,0,0:0:0:0:
312,220,108493,2,0,P|308:196|316:144,1,75,2|2,0:0|0:0,0:0:0:0:
348,64,108854,5,4,0:3:0:0:
180,128,109216,1,2,0:0:0:0:
228,52,109396,1,0,0:0:0:0:
268,132,109577,2,0,P|248:184|155:213,1,150,12|2,0:0|0:0,0:0:0:0:
96,160,110119,1,2,0:0:0:0:
16,204,110300,2,0,P|8:240|12:288,2,75,4|0|2,0:1|0:0|0:0,0:0:0:0:
96,248,110842,1,4,0:3:0:0:
156,314,111023,2,0,P|184:322|304:270,1,150,10|4,0:0|0:0,0:0:0:0:
320,196,111565,1,10,0:0:0:0:
236,232,111746,6,0,P|264:268|379:267,1,150,4|2,0:1|0:0,0:0:0:0:
408,200,112288,1,0,0:0:0:0:
320,196,112469,1,8,0:0:0:0:
336,376,112830,1,2,0:0:0:0:
256,336,113011,1,2,0:0:0:0:
164,340,113192,2,0,P|116:340|48:244,1,150,4|2,0:3|0:0,0:0:0:0:
92,192,113734,1,0,0:0:0:0:
120,108,113914,2,0,P|124:80|116:28,1,75,8|2,0:0|0:0,0:0:0:0:
10,85,114276,2,0,P|6:113|14:165,1,75,2|2,0:0|0:0,0:0:0:0:
92,192,114637,5,4,0:1:0:0:
240,296,114999,2,0,P|232:324|200:368,1,75,2|0,0:0|0:0,0:0:0:0:
83,353,115360,1,8,0:0:0:0:
152,296,115541,1,0,0:0:0:0:
64,272,115722,2,0,P|32:285|4:320,1,75,2|2,0:0|0:0,0:0:0:0:
152,296,116083,2,0,P|152:246|72:178,1,150,4|2,0:3|0:0,0:0:0:0:
0,212,116625,1,4,0:3:0:0:
19,98,116806,2,0,P|15:62|3:18,1,75,10|4,0:0|0:3,0:0:0:0:
129,108,117167,2,0,P|150:63|156:24,1,75,10|4,0:0|0:3,0:0:0:0:
212,176,117529,6,0,P|272:168|328:84,1,150,4|2,0:1|0:0,0:0:0:0:
296,16,118071,1,0,0:0:0:0:
228,76,118252,1,8,0:0:0:0:
293,239,118613,1,2,0:0:0:0:
292,328,118794,1,2,0:0:0:0:
376,292,118975,2,0,P|390:231|344:152,1,150,4|2,0:3|0:0,0:0:0:0:
256,124,119517,1,0,0:0:0:0:
168,108,119698,2,0,P|144:80|136:40,1,75,12|0,0:0|0:0,0:0:0:0:
220,40,120059,1,2,0:0:0:0:
256,124,120240,1,2,0:0:0:0:
192,188,120420,6,0,B|164:236|164:236|172:332,1,150,4|2,0:3|0:0,0:0:0:0:
256,368,120963,1,0,0:0:0:0:
340,330,121143,2,0,B|348:236|348:236|320:188,1,150,12|2,0:0|0:0,0:0:0:0:
256,248,121686,1,2,0:0:0:0:
192,188,121866,1,4,0:1:0:0:
28,260,122228,2,0,P|16:228|16:184,1,75,2|4,0:0|0:3,0:0:0:0:
100,216,122589,2,0,P|112:248|112:292,1,75,10|0,0:0|0:0,0:0:0:0:
44,348,122951,1,4,0:0:0:0:
132,364,123131,1,8,0:0:0:0:
220,380,123312,6,0,B|232:344|200:304|200:304|212:232,1,150,4|2,0:1|0:0,0:0:0:0:
232,148,123854,1,0,0:0:0:0:
320,136,124035,2,0,B|332:172|300:212|300:212|292:288,1,150,8|2,0:0|0:0,0:0:0:0:
332,360,124577,1,2,0:0:0:0:
384,284,124758,1,4,0:3:0:0:
212,232,125119,2,0,P|179:216|151:185,1,75,2|0,0:0|0:0,0:0:0:0:
232,148,125481,2,0,P|236:108|260:72,1,75,8|0,0:0|0:0,0:0:0:0:
320,136,125842,2,0,P|355:128|394:135,1,75,2|2,0:0|0:0,0:0:0:0:
476,176,126204,6,0,L|460:24,1,150,4|2,0:1|0:0,0:0:0:0:
380,68,126746,1,0,0:0:0:0:
320,136,126926,2,0,P|300:104|292:60,1,75,8|0,0:0|0:0,0:0:0:0:
208,32,127288,2,0,P|180:52|152:88,1,75,2|2,0:0|0:0,0:0:0:0:
136,172,127649,1,4,0:3:0:0:
320,135,128011,2,0,P|324:168|320:212,1,75,2|4,0:0|0:3,0:0:0:0:
260,276,128372,2,0,L|220:284,2,37.5,12|8|4,0:0|0:0|0:3,0:0:0:0:
373,294,128734,1,8,0:0:0:0:
300,348,128914,1,4,0:3:0:0:
320,209,129095,6,0,P|366:193|456:237,1,150,4|2,0:1|0:0,0:0:0:0:
460,324,129637,1,0,0:0:0:0:
373,294,129818,1,8,0:0:0:0:
356,116,130179,1,2,0:0:0:0:
212,224,130541,2,0,P|144:192|128:112,1,150,4|2,0:3|0:0,0:0:0:0:
180,52,131083,1,0,0:0:0:0:
204,140,131264,2,0,P|152:192|72:180,1,150,12|2,0:0|0:0,0:0:0:0:
36,108,131806,1,2,0:0:0:0:
0,236,131987,6,0,P|8:284|88:356,1,150,4|2,0:3|0:0,0:0:0:0:
168,348,132529,1,0,0:0:0:0:
116,276,132710,1,12,0:0:0:0:
116,108,133071,1,2,0:0:0:0:
168,36,133252,1,2,0:0:0:0:
77,31,133433,2,0,P|19:76|0:148,1,150,4|2,0:1|0:0,0:0:0:0:
80,192,133975,1,4,0:3:0:0:
164,220,134155,2,0,L|316:228,1,150,10|4,0:0|0:0,0:0:0:0:
396,192,134698,1,8,0:0:0:0:
344,120,134878,6,0,L|192:112,1,150,4|2,0:1|0:0,0:0:0:0:
84,252,135601,2,0,P|108:284|148:304,1,75,8|0,0:0|0:0,0:0:0:0:
224,292,135963,1,2,0:0:0:0:
148,128,136324,2,0,P|100:116|-12:144,2,150,4|2|8,0:3|0:0|0:0,0:0:0:0:
208,196,137228,1,0,0:0:0:0:
244,116,137408,2,0,L|240:32,1,75,2|2,0:0|0:0,0:0:0:0:
356,11,137770,6,0,P|356:47|336:87,1,75,4|0,0:1|0:0,0:0:0:0:
340,172,138131,2,0,P|376:180|420:172,1,75,2|0,0:0|0:0,0:0:0:0:
488,228,138493,2,0,P|488:264|468:304,1,75,8|0,0:0|0:0,0:0:0:0:
400,352,138854,2,0,P|363:357|326:349,1,75,2|2,0:0|0:0,0:0:0:0:
248,304,139216,2,0,L|168:316,1,75,4|0,0:3|0:0,0:0:0:0:
111,211,139577,2,0,P|147:199|195:203,1,75,2|4,0:0|0:3,0:0:0:0:
272,224,139939,1,10,0:0:0:0:
244,140,140119,1,4,0:3:0:0:
352,155,140300,2,0,L|368:79,1,75,10|4,0:0|0:3,0:0:0:0:
436,140,140661,6,0,P|428:192|348:244,1,150,4|2,0:1|0:0,0:0:0:0:
296,172,141204,1,0,0:0:0:0:
212,200,141384,2,0,P|197:225|187:272,1,75,8|0,0:0|0:0,0:0:0:0:
212,356,141746,1,2,0:0:0:0:
32,372,142107,2,0,L|44:212,1,150,4|2,0:3|0:0,0:0:0:0:
12,136,142649,1,0,0:0:0:0:
92,100,142830,2,0,P|116:112|152:156,1,75,12|0,0:0|0:0,0:0:0:0:
176,232,143192,1,2,0:0:0:0:
244,176,143372,1,2,0:0:0:0:
316,120,143553,6,0,B|348:160|328:209|328:209|387:247,1,150,4|2,0:3|0:0,0:0:0:0:
376,328,144095,1,0,0:0:0:0:
285,318,144276,2,0,B|256:270|256:270|203:274|175:231,1,150,12|2,0:0|0:0,0:0:0:0:
224,56,144999,2,0,P|192:96|144:32,1,150,4|2,0:1|0:0,0:0:0:0:
288,144,145722,2,0,P|244:176|76:148,1,225,10|8,0:0|0:0,0:0:0:0:
8,184,146445,6,0,P|0:224|56:332,1,150,4|2,0:1|0:0,0:0:0:0:
128,348,146987,1,0,0:0:0:0:
232,276,147167,2,0,P|240:240|236:196,1,75,8|0,0:0|0:0,0:0:0:0:
168,144,147529,1,2,0:0:0:0:
148,232,147710,1,2,0:0:0:0:
164,320,147890,2,0,P|200:352|296:328,2,150,4|2|12,0:3|0:0|0:0,0:0:0:0:
148,232,148794,1,0,0:0:0:0:
84,296,148975,1,2,0:0:0:0:
228,188,149336,6,0,P|188:152|84:168,1,150,4|2,0:1|0:0,0:0:0:0:
172,324,150059,2,0,P|208:308|240:276,1,75,12|0,0:0|0:0,0:0:0:0:
312,240,150420,2,0,L|392:232,1,75,2|0,0:0|0:0,0:0:0:0:
408,144,150782,2,0,L|445:138,2,37.5,8|8|4,0:0|0:0|0:3,0:0:0:0:
324,112,151143,1,4,0:1:0:0:
240,84,151324,1,4,0:3:0:0:
160,44,151505,2,0,L|116:52,2,37.5,12|8|4,0:0|0:0|0:3,0:0:0:0:
164,136,151866,1,8,0:0:0:0:
104,204,152047,2,0,P|84:208|56:204,1,37.5,10|8,0:0|0:0,0:0:0:0:
264,284,158011,6,0,L|272:104,1,150,4|2,0:1|0:0,0:0:0:0:
344,84,158553,1,0,0:0:0:0:
428,120,158734,2,0,B|408:152|364:168|364:168|360:240,1,150,8|0,0:0|0:0,0:0:0:0:
183,224,159457,2,0,B|187:155|187:155|145:134|129:100,1,150,4|2,0:3|0:0,0:0:0:0:
212,64,159999,1,0,0:0:0:0:
296,28,160179,2,0,B|312:68|292:104|292:104|268:144|292:180,1,150,12|0,0:0|0:0,0:0:0:0:
348,240,160722,1,0,0:0:0:0:
328,328,160902,6,0,P|256:348|184:328,1,150,4|2,0:3|0:0,0:0:0:0:
128,260,161445,1,0,0:0:0:0:
208,220,161625,2,0,P|220:164|152:104,1,150,8|0,0:0|0:0,0:0:0:0:
72,128,162167,1,0,0:0:0:0:
144,184,162348,2,0,L|324:168,1,150,0|2,0:1|0:0,0:0:0:0:
376,204,162890,1,0,0:0:0:0:
360,292,163071,2,0,L|180:308,1,150,12|4,0:0|0:0,0:0:0:0:
292,144,163794,6,0,P|344:108|448:124,1,150,4|2,0:1|0:0,0:0:0:0:
476,188,164336,1,0,0:0:0:0:
436,268,164517,2,0,L|432:360,1,75,8|0,0:0|0:0,0:0:0:0:
344,364,164878,2,0,P|324:332|312:284,1,75,0|0,0:0|0:0,0:0:0:0:
256,228,165240,2,0,P|192:204|112:244,1,150,4|2,0:3|0:0,0:0:0:0:
112,324,165782,1,0,0:0:0:0:
192,284,165963,2,0,P|201:217|136:149,1,150,12|0,0:0|0:0,0:0:0:0:
64,168,166505,1,0,0:0:0:0:
40,256,166686,5,4,0:3:0:0:
184,364,167047,2,0,P|224:360|260:336,1,75,2|0,0:0|0:0,0:0:0:0:
288,260,167408,2,0,P|296:224|416:180,1,150,12|0,0:0|0:0,0:0:0:0:
460,228,167951,1,0,0:0:0:0:
373,256,168131,2,0,L|237:164,1,150,4|2,0:3|0:0,0:0:0:0:
72,200,168854,2,0,P|88:232|120:260,1,75,8|0,0:0|0:0,0:0:0:0:
224,240,169216,1,0,0:0:0:0:
160,180,169396,1,0,0:0:0:0:
96,120,169577,6,0,B|128:88|171:94|171:94|212:32,1,150,4|2,0:3|0:0,0:0:0:0:
296,16,170119,1,0,0:0:0:0:
360,80,170300,2,0,B|328:112|285:106|285:106|244:168,1,150,8|2,0:0|0:0,0:0:0:0:
160,180,170842,1,0,0:0:0:0:
204,260,171023,2,0,B|296:260|296:260|324:276|336:324,1,150,0|0,0:0|0:0,0:0:0:0:
248,344,171565,1,0,0:0:0:0:
160,340,171746,2,0,L|80:340,1,75,8|0,0:0|0:0,0:0:0:0:
40,264,172107,1,2,0:0:0:0:
132,108,172469,5,4,0:3:0:0:
308,144,172830,2,0,L|392:144,1,75,2|0,0:0|0:0,0:0:0:0:
460,96,173192,2,0,B|440:72|416:60|416:60|316:60,1,150,8|0,0:0|0:0,0:0:0:0:
236,88,173734,1,0,0:0:0:0:
224,176,173914,2,0,P|252:215|364:216,2,150,4|2|8,0:3|0:0|0:0,0:0:0:0:
308,144,174818,1,0,0:0:0:0:
396,156,174999,1,2,0:0:0:0:
468,104,175179,1,0,0:0:0:0:
380,80,175360,6,0,L|416:248,1,150,4|0,0:3|0:0,0:0:0:0:
340,280,175902,1,0,0:0:0:0:
264,328,176083,2,0,L|228:160,1,150,8|2,0:0|0:0,0:0:0:0:
160,124,176625,1,0,0:0:0:0:
144,212,176806,1,4,0:3:0:0:
220,48,177167,2,0,P|184:32|136:32,1,75,2|0,0:0|0:0,0:0:0:0:
80,88,177529,1,8,0:0:0:0:
232,188,177890,2,0,P|232:224|216:268,1,75,0|0,0:0|0:0,0:0:0:0:
140,304,178252,6,0,P|196:348|284:324,1,150,0|2,0:0|0:0,0:0:0:0:
312,256,178794,1,0,0:0:0:0:
356,336,178975,1,8,0:0:0:0:
460,188,179336,1,2,0:0:0:0:
332,64,179698,2,0,P|328:32|332:8,2,37.5,12|8|8,0:0|0:0|0:0,0:0:0:0:
400,124,180059,1,12,0:0:0:0:
316,152,180240,1,8,0:0:0:0:
228,176,180420,6,0,L|140:168,1,75,12|8,0:0|0:0,0:0:0:0:
128,256,180782,2,0,L|176:252,2,37.5,12|8|10,0:0|0:0|0:0,0:0:0:0:
84,264,181053,1,8,0:0:0:0:
40,276,181143,6,0,P|12:232|16:120,1,150,4|0,0:1|1:0,0:0:0:0:
72,72,181686,1,2,0:0:0:0:
152,116,181866,2,0,B|168:92|164:48|164:48|260:28,1,150,8|4,0:0|1:2,0:0:0:0:
328,16,182408,1,2,0:0:0:0:
320,104,182589,2,0,B|304:128|308:172|308:172|212:192,1,150,4|0,0:3|1:0,0:0:0:0:
140,204,183131,1,2,0:0:0:0:
192,276,183312,1,8,0:0:0:0:
364,232,183673,1,0,1:0:0:0:
236,104,184035,6,0,P|248:68|272:36,1,75,4|2,0:1|0:0,0:0:0:0:
328,108,184396,2,0,P|316:144|292:176,1,75,0|2,1:0|0:0,0:0:0:0:
204,192,184758,1,8,0:0:0:0:
136,132,184939,1,2,0:0:0:0:
56,176,185119,2,0,P|40:200|36:248,1,75,4|0,1:2|0:0,0:0:0:0:
100,308,185481,2,0,L|252:292,1,150,4|0,0:1|1:0,0:0:0:0:
328,128,186204,2,0,L|176:144,1,150,8|0,0:0|1:0,0:0:0:0:
140,224,186746,1,0,0:0:0:0:
228,212,186926,6,0,P|256:164|224:68,1,150,4|0,0:1|1:0,0:0:0:0:
144,60,187469,1,2,0:0:0:0:
104,141,187649,2,0,P|144:149|188:137,1,75,8|2,0:0|0:0,0:0:0:0:
229,213,188011,2,0,P|224:248|200:288,1,75,0|0,1:0|0:0,0:0:0:0:
124,324,188372,1,4,0:1:0:0:
300,292,188734,1,2,1:2:0:0:
136,216,189095,1,10,0:0:0:0:
228,372,189457,1,6,1:2:0:0:
212,284,189637,1,2,0:0:0:0:
252,204,189818,6,4,L|256:112,1,75,4|2,0:3|0:0,0:0:0:0:
332,80,190179,2,0,L|328:172,1,75,0|2,1:0|0:0,0:0:0:0:
404,204,190541,2,0,L|408:112,1,75,12|2,0:0|0:0,0:0:0:0:
484,80,190902,2,0,L|480:172,1,75,0|0,1:0|0:0,0:0:0:0:
475,270,191264,2,0,P|447:290|331:266,1,150,4|0,0:1|1:0,0:0:0:0:
312,188,191806,1,2,0:0:0:0:
184,248,191987,2,0,P|176:288|176:324,1,75,8|2,0:0|0:0,0:0:0:0:
256,360,192348,1,4,1:0:0:0:
232,180,192710,6,0,P|190:168|102:230,2,150,4|0|8,0:1|1:0|0:0,0:0:0:0:
268,264,193613,1,2,0:0:0:0:
184,248,193794,1,0,1:0:0:0:
56,120,194155,2,0,P|56:88|68:48,1,75,4|0,0:1|0:0,0:0:0:0:
152,16,194517,1,0,1:0:0:0:
212,84,194698,1,2,0:0:0:0:
272,152,194878,2,0,L|364:144,1,75,8|2,0:0|0:0,0:0:0:0:
428,184,195240,1,0,1:0:0:0:
260,244,195601,5,4,0:1:0:0:
296,68,195963,1,0,1:0:0:0:
428,184,196324,1,8,0:0:0:0:
252,152,196686,1,0,1:0:0:0:
120,272,197047,1,4,1:0:0:0:
40,228,197228,1,0,1:0:0:0:
60,140,197408,2,0,L|136:180,1,75,2|0,0:0|0:0,0:0:0:0:
196,228,197770,2,0,P|208:264|200:312,1,75,8|2,0:0|0:0,0:0:0:0:
140,360,198131,1,0,1:0:0:0:
308,292,198493,6,0,L|472:304,1,150,4|0,0:1|1:0,0:0:0:0:
420,220,199035,1,2,0:0:0:0:
384,136,199216,2,0,P|380:100|456:24,1,150,8|0,0:0|1:0,0:0:0:0:
468,112,199758,1,0,0:0:0:0:
508,192,199939,2,0,L|500:284,1,75,4|2,0:1|0:0,0:0:0:0:
414,296,200300,2,0,L|422:204,1,75,0|2,1:0|0:0,0:0:0:0:
336,191,200661,2,0,L|328:283,1,75,8|2,0:0|0:0,0:0:0:0:
242,295,201023,2,0,L|248:208,1,75,0|0,1:0|0:0,0:0:0:0:
176,168,201384,5,4,0:1:0:0:
168,348,201746,1,0,1:0:0:0:
242,295,201926,1,2,0:0:0:0:
332,292,202107,2,0,P|356:304|392:348,1,75,8|2,0:0|0:0,0:0:0:0:
304,376,202469,1,0,1:0:0:0:
272,200,202830,6,0,P|252:192|220:192,2,37.5,12|8|8,0:0|0:0|0:0,0:0:0:0:
364,208,203192,2,0,P|388:188|412:144,2,75,8|12|8,0:0|0:0|0:0,0:0:0:0:
320,128,203734,1,8,0:0:0:0:
336,40,203914,2,0,P|308:40|280:48,2,37.5,12|8|12,0:0|0:0|0:0,0:0:0:0:
256,192,204276,12,0,207167,0:0:0:0:
