osu file format v14

[General]
AudioFilename: Trevor Something - Sega Genesis.mp3
AudioLeadIn: 0
PreviewTime: 82830
Countdown: 0
SampleSet: Soft
StackLeniency: 0.7
Mode: 0
LetterboxInBreaks: 0
EpilepsyWarning: 1
WidescreenStoryboard: 0

[Editor]
Bookmarks: 35842,42348,48131,53914,59698,65481,71264,77047,82830,88613,94396,103071,111746,152228,186926
DistanceSpacing: 1.1
BeatDivisor: 4
GridSize: 4
TimelineZoom: 0.9999999

[Metadata]
Title:Sega Genesis
TitleUnicode:Sega Genesis
Artist:Trevor Something
ArtistUnicode:Trevor Something
Creator:Bakari
Version:Natsu's Advanced
Source:
Tags:Does Not Exist Megadrive Natsu synthpop new retro 80s synthwave cyberpunk
BeatmapID:733621
BeatmapSetID:306004

[Difficulty]
HPDrainRate:4
CircleSize:3.5
OverallDifficulty:4
ApproachRate:5
SliderMultiplier:2.4
SliderTickRate:4

[Events]
//Background and Video events
0,0,"l.png",0,0
//Break Periods
2,152246,156811
//Storyboard Layer 0 (Background)
//Storyboard Layer 1 (Fail)
//Storyboard Layer 2 (Pass)
//Storyboard Layer 3 (Foreground)
//Storyboard Sound Samples

[TimingPoints]
13433,722.89156626506,4,2,1,75,1,0
35119,-100,4,2,1,5,0,0
35842,-100,4,2,1,75,0,0
82830,-100,4,2,2,75,0,1
82920,-100,4,2,1,60,0,1
88613,-100,4,2,2,75,0,1
88704,-100,4,2,1,75,0,1
105963,-100,4,2,2,75,0,0
106053,-100,4,2,1,75,0,0
111746,-100,4,2,2,75,0,0
111836,-100,4,2,1,75,0,0
129095,-100,4,2,2,75,0,0
129186,-100,4,2,1,75,0,0
134878,-100,4,2,2,75,0,0
134969,-100,4,2,1,75,0,0
158011,-100,4,2,2,75,0,1
158101,-100,4,2,1,75,0,1
163794,-100,4,2,2,75,0,1
163884,-100,4,2,1,75,0,1
181143,-100,4,2,2,75,0,0
181234,-100,4,2,1,75,0,0
186926,-100,4,2,2,75,0,0
187017,-100,4,2,1,75,0,0
192710,-100,4,2,2,75,0,0
192800,-100,4,2,1,75,0,0
198493,-100,4,2,2,75,0,0
198583,-100,4,2,1,75,0,0
204276,-100,4,2,2,5,0,0

[Colours]
Combo1 : 222,135,135
Combo2 : 134,158,164
Combo3 : 179,126,117
Combo4 : 98,138,213
SliderBorder : 120,120,120
SliderTrackOverride : 118,41,138

[HitObjects]
256,192,30782,12,0,35120,0:0:0:0:
200,280,35842,6,0,L|256:252,1,60,12|4,0:0|0:3,0:0:0:0:
320,296,36204,2,0,L|376:264,1,60,8|4,0:0|0:3,0:0:0:0:
444,232,36565,6,0,P|456:172|432:120,1,120,4|2,0:1|0:0,0:0:0:0:
316,60,37288,2,0,P|304:120|328:172,1,120,8|2,0:0|0:0,0:0:0:0:
444,232,38011,2,0,P|467:285|455:343,1,120,4|2,0:3|0:0,0:0:0:0:
339,283,38734,2,0,P|315:229|327:171,1,120,12|2,0:0|0:0,0:0:0:0:
420,76,39457,6,0,P|372:40|300:48,1,120,4|2,0:3|0:0,0:0:0:0:
256,96,39999,1,0,0:0:0:0:
197,41,40179,2,0,P|138:40|92:76,1,120,12|2,0:0|0:0,0:0:0:0:
60,204,40902,2,0,L|56:324,1,120,4|2,0:1|0:0,0:0:0:0:
176,272,41625,2,0,P|256:240|340:276,1,180,10|10,0:0|0:0,0:0:0:0:
380,340,42348,6,0,P|412:292|392:220,1,120,4|2,0:1|0:0,0:0:0:0:
308,140,43071,2,0,L|184:128,1,120,8|2,0:0|0:0,0:0:0:0:
72,192,43794,1,4,0:3:0:0:
80,60,44155,1,2,0:0:0:0:
188,128,44517,2,0,P|208:192|188:256,1,120,8|2,0:0|0:0,0:0:0:0:
324,256,45240,6,0,P|304:192|324:128,1,120,4|2,0:1|0:0,0:0:0:0:
340,68,45782,1,0,0:0:0:0:
416,56,45963,2,0,P|436:120|416:184,1,120,8|2,0:0|0:0,0:0:0:0:
324,256,46686,2,0,L|324:328,2,60,4|0|2,0:3|0:0|0:0,0:0:0:0:
196,224,47408,2,0,L|196:152,1,60,10|4,0:0|0:3,0:0:0:0:
116,160,47770,2,0,L|116:88,1,60,10|4,0:0|0:3,0:0:0:0:
64,44,48131,6,0,P|116:24|176:52,1,120,4|2,0:1|0:0,0:0:0:0:
256,152,48854,2,0,P|309:175|364:156,1,120,8|2,0:0|0:0,0:0:0:0:
480,92,49577,2,0,L|492:212,1,120,4|2,0:3|0:0,0:0:0:0:
376,275,50300,2,0,L|364:155,1,120,12|2,0:0|0:0,0:0:0:0:
264,68,51023,6,0,L|200:52,2,60,4|0|2,0:3|0:0|0:0,0:0:0:0:
364,155,51746,2,0,L|428:139,2,60,12|0|2,0:0|0:0|0:0,0:0:0:0:
236,192,52469,2,0,B|192:200|192:200|104:156,1,120,4|2,0:1|0:0,0:0:0:0:
64,48,53192,2,0,B|108:40|108:40|196:84,1,120,10|4,0:0|0:0,0:0:0:0:
236,192,53914,6,0,P|292:208|360:180,1,120,4|2,0:1|0:0,0:0:0:0:
344,56,54637,2,0,P|288:40|220:68,1,120,8|2,0:0|0:0,0:0:0:0:
192,128,55179,1,2,0:0:0:0:
236,192,55360,2,0,P|248:252|224:324,1,120,4|2,0:3|0:0,0:0:0:0:
100,308,56083,2,0,P|85:250|97:192,1,120,8|2,0:0|0:0,0:0:0:0:
152,72,56806,6,0,P|92:60|24:88,2,120,4|2|8,0:1|0:0|0:0,0:0:0:0:
256,152,57890,1,2,0:0:0:0:
360,72,58252,2,0,P|420:60|488:88,1,120,4|2,0:3|0:0,0:0:0:0:
484,208,58975,2,0,L|470:266,1,60,12|4,0:0|0:3,0:0:0:0:
392,256,59336,2,0,L|378:314,1,60,8|4,0:0|0:3,0:0:0:0:
312,356,59698,6,0,P|256:372|200:352,1,120,4|2,0:1|0:0,0:0:0:0:
184,196,60420,2,0,P|200:144|180:64,1,120,8|2,0:0|0:0,0:0:0:0:
323,80,61143,2,0,P|311:138|328:196,1,120,4|2,0:3|0:0,0:0:0:0:
436,276,61866,2,0,P|404:316|320:324,1,120,12|2,0:0|0:0,0:0:0:0:
220,276,62589,6,0,L|188:156,1,120,4|2,0:3|0:0,0:0:0:0:
80,88,63312,2,0,L|60:20,2,60,12|0|2,0:0|0:0|0:0,0:0:0:0:
36,212,64035,2,0,L|66:327,1,120,4|2,0:1|0:0,0:0:0:0:
192,364,64758,1,10,0:0:0:0:
264,256,65119,1,4,0:0:0:0:
389,307,65481,6,0,P|440:284|460:216,2,120,4|2|8,0:1|0:0|0:0,0:0:0:0:
260,332,66565,1,2,0:0:0:0:
192,220,66926,2,0,L|168:96,1,120,4|2,0:3|0:0,0:0:0:0:
68,20,67649,1,8,0:0:0:0:
52,152,68011,1,2,0:0:0:0:
173,90,68372,6,0,P|224:64|288:72,1,120,4|2,0:1|0:0,0:0:0:0:
312,200,69095,2,0,P|261:226|197:218,1,120,8|2,0:0|0:0,0:0:0:0:
96,140,69818,2,0,P|70:191|78:255,1,120,4|2,0:3|0:0,0:0:0:0:
168,344,70541,2,0,L|244:344,1,60,10|4,0:0|0:3,0:0:0:0:
256,272,70902,2,0,L|332:272,1,60,10|4,0:0|0:3,0:0:0:0:
396,272,71264,6,0,P|412:216|392:148,1,120,4|2,0:1|0:0,0:0:0:0:
300,68,71987,2,0,P|284:124|304:192,1,120,8|2,0:0|0:0,0:0:0:0:
396,272,72710,1,4,0:3:0:0:
272,312,73071,1,2,0:0:0:0:
172,224,73432,2,0,P|152:172|164:104,1,120,12|2,0:0|0:0,0:0:0:0:
280,52,74155,6,0,B|372:36|372:36|356:76,1,120,4|2,0:3|0:0,0:0:0:0:
300,176,74878,2,0,B|290:200|290:200|382:184,1,120,12|2,0:0|0:0,0:0:0:0:
480,92,75601,1,4,0:1:0:0:
492,224,75963,2,0,B|473:315|473:315|442:286,1,120,2|10,0:0|0:0,0:0:0:0:
382,184,76686,1,4,0:0:0:0:
332,60,77047,6,0,P|276:44|256:104,1,120,4|2,0:1|0:0,0:0:0:0:
204,212,77770,2,0,B|192:264|168:288|168:288|196:328,1,120,8|2,0:0|0:0,0:0:0:0:
324,316,78493,2,0,B|344:288|344:288|320:264|308:212,1,120,4|2,0:3|0:0,0:0:0:0:
256,92,79216,2,0,P|196:76|136:108,1,120,12|2,0:0|0:0,0:0:0:0:
88,220,79939,6,0,L|60:352,1,120,4|2,0:1|0:0,0:0:0:0:
192,372,80661,2,0,L|220:240,1,120,12|2,0:0|0:0,0:0:0:0:
256,128,81384,2,0,P|284:124|320:128,2,60,8|4|4,0:0|0:3|0:1,0:0:0:0:
132,172,82107,2,0,L|120:236,1,60,12|4,0:0|0:3,0:0:0:0:
44,224,82469,2,0,L|32:288,1,60,8|10,0:0|0:0,0:0:0:0:
60,356,82830,6,0,P|112:372|180:352,1,120,4|2,0:1|0:0,0:0:0:0:
256,252,83553,2,0,P|313:235|370:251,1,120,8|0,0:0|0:0,0:0:0:0:
428,372,84276,1,4,0:3:0:0:
500,264,84637,1,2,0:0:0:0:
370,251,84999,2,0,P|352:196|376:120,1,120,12|0,0:0|0:0,0:0:0:0:
428,20,85722,6,0,P|380:4|308:16,1,120,4|2,0:3|0:0,0:0:0:0:
196,76,86445,2,0,P|176:124|192:192,1,120,8|0,0:0|0:0,0:0:0:0:
322,188,87167,2,0,P|336:131|316:76,1,120,0|2,0:1|0:0,0:0:0:0:
448,76,87890,2,0,P|427:131|441:188,1,120,12|4,0:0|0:0,0:0:0:0:
440,320,88613,6,0,P|384:296|328:324,1,120,4|2,0:1|0:0,0:0:0:0:
212,368,89336,1,8,0:0:0:0:
256,244,89698,1,0,0:0:0:0:
204,124,90059,2,0,P|168:72|192:28,1,120,4|2,0:3|0:0,0:0:0:0:
319,27,90782,2,0,P|343:79|308:124,1,120,12|0,0:0|0:0,0:0:0:0:
256,244,91505,6,0,L|228:368,1,120,4|2,0:3|0:0,0:0:0:0:
360,344,92228,2,0,L|388:220,1,120,12|0,0:0|0:0,0:0:0:0:
472,128,92951,2,0,P|420:100|360:104,1,120,4|2,0:3|0:0,0:0:0:0:
256,184,93673,1,8,0:0:0:0:
256,184,94035,1,0,0:0:0:0:
151,103,94396,6,0,P|92:99|40:128,1,120,4|2,0:3|0:0,0:0:0:0:
40,256,95119,2,0,P|92:284|151:280,1,120,8|2,0:0|0:0,0:0:0:0:
216,236,95661,1,0,0:0:0:0:
260,172,95842,2,0,B|288:156|288:156|384:164,1,120,0|0,0:0|0:0,0:0:0:0:
444,276,96565,2,0,L|516:280,2,60,8|0|2,0:0|0:0|0:0,0:0:0:0:
328,340,97288,6,0,P|268:356|208:328,1,120,4|2,0:3|0:0,0:0:0:0:
184,264,97830,1,0,0:0:0:0:
188,184,98011,2,0,P|204:128|188:64,1,120,8|0,0:0|0:0,0:0:0:0:
321,68,98734,2,0,P|307:126|324:184,1,120,4|2,0:3|0:0,0:0:0:0:
360,252,99276,1,0,0:0:0:0:
440,252,99457,2,0,P|453:194|437:136,1,120,8|2,0:0|0:0,0:0:0:0:
321,68,100179,6,0,B|268:44|268:44|192:60,1,120,4|0,0:3|0:0,0:0:0:0:
96,128,100902,1,8,0:0:0:0:
96,128,101083,2,0,L|80:200,2,60,0|2|0,0:0|0:0|0:0,0:0:0:0:
168,160,101625,2,0,L|140:288,1,120,4|2,0:3|0:0,0:0:0:0:
256,348,102348,2,0,B|308:372|348:348|348:348|336:316,1,120,8|0,0:0|0:0,0:0:0:0:
288,204,103071,6,0,B|279:181|279:181|319:157|371:181,1,120,0|2,0:0|0:0,0:0:0:0:
468,272,103794,1,8,0:0:0:0:
488,140,104155,1,2,0:0:0:0:
384,56,104517,2,0,L|316:40,2,60,12|8|12,0:0|0:0|0:0,0:0:0:0:
488,140,105240,2,0,L|512:204,1,60,12|8,0:0|0:0,0:0:0:0:
448,248,105601,2,0,L|472:312,1,60,12|10,0:0|0:0,0:0:0:0:
404,348,105963,6,0,P|348:328|280:352,1,120,4|2,0:1|0:0,0:0:0:0:
160,368,106686,1,8,0:0:0:0:
204,244,107047,1,2,0:0:0:0:
272,132,107408,2,0,P|244:84|196:128,1,120,4|2,0:3|0:0,0:0:0:0:
204,244,108131,2,0,L|180:316,2,60,12|0|2,0:0|0:0|0:0,0:0:0:0:
272,132,108854,5,4,0:3:0:0:
392,192,109216,1,2,0:0:0:0:
444,312,109577,2,0,P|392:328|328:304,1,120,12|2,0:0|0:0,0:0:0:0:
256,200,110300,1,4,0:1:0:0:
180,92,110661,2,0,L|172:24,1,60,2|4,0:0|0:3,0:0:0:0:
252,44,111023,2,0,P|328:64|412:12,1,180,10|10,0:0|0:0,0:0:0:0:
468,68,111746,6,0,L|472:208,1,120,4|2,0:1|0:0,0:0:0:0:
444,316,112469,1,8,0:0:0:0:
320,364,112830,1,2,0:0:0:0:
216,284,113192,2,0,B|192:260|188:228|188:228|188:148,1,120,4|2,0:3|0:0,0:0:0:0:
220,100,113734,1,0,0:0:0:0:
296,100,113914,2,0,B|320:124|324:156|324:156|324:236,1,120,8|2,0:0|0:0,0:0:0:0:
216,284,114637,5,4,0:1:0:0:
104,356,114999,1,2,0:0:0:0:
124,224,115360,2,0,L|112:96,1,120,8|2,0:0|0:0,0:0:0:0:
224,36,116083,2,0,L|236:164,1,120,4|2,0:3|0:0,0:0:0:0:
360,192,116806,2,0,L|368:256,1,60,10|4,0:0|0:3,0:0:0:0:
296,288,117167,2,0,L|288:224,1,60,10|4,0:0|0:3,0:0:0:0:
212,220,117529,6,0,L|224:364,1,120,4|2,0:1|0:0,0:0:0:0:
96,376,118252,1,8,0:0:0:0:
20,268,118613,1,2,0:0:0:0:
112,176,118975,2,0,P|128:124|104:48,1,120,4|2,0:3|0:0,0:0:0:0:
244,52,119698,2,0,L|368:40,1,120,12|2,0:0|0:0,0:0:0:0:
452,136,120420,6,0,L|328:148,1,120,4|2,0:3|0:0,0:0:0:0:
200,164,121143,2,0,P|188:228|212:288,1,120,12|2,0:0|0:0,0:0:0:0:
312,356,121866,1,4,0:1:0:0:
436,308,122228,2,0,L|500:308,2,60,2|4|10,0:0|0:3|0:0,0:0:0:0:
312,356,122951,2,0,L|252:356,1,60,4|8,0:0|0:0,0:0:0:0:
172,352,123312,6,0,B|134:344|134:344|106:372|58:364,1,120,4|2,0:1|0:0,0:0:0:0:
60,232,124035,2,0,B|108:224|136:252|136:252|173:244,1,120,8|2,0:0|0:0,0:0:0:0:
296,192,124758,1,4,0:3:0:0:
372,84,125119,2,0,P|428:68|492:96,2,120,2|8|2,0:0|0:0|0:0,0:0:0:0:
300,112,126023,1,2,0:0:0:0:
296,192,126204,6,0,P|240:208|176:180,1,120,4|2,0:1|0:0,0:0:0:0:
88,96,126926,2,0,L|72:228,1,120,8|2,0:0|0:0,0:0:0:0:
56,348,127649,1,4,0:3:0:0:
180,304,128011,2,0,L|244:284,1,60,2|4,0:0|0:3,0:0:0:0:
292,344,128372,2,0,L|356:324,1,60,12|4,0:0|0:3,0:0:0:0:
420,364,128734,2,0,L|484:344,1,60,8|4,0:0|0:3,0:0:0:0:
476,268,129095,6,0,P|456:208|468:136,1,120,4|2,0:1|0:0,0:0:0:0:
496,24,129818,1,8,0:0:0:0:
368,60,130179,1,2,0:0:0:0:
332,188,130541,2,0,B|320:232|344:276|344:276|316:300,1,120,4|2,0:3|0:0,0:0:0:0:
256,336,131083,1,0,0:0:0:0:
189,294,131264,2,0,B|168:276|168:276|192:232|180:188,1,120,12|2,0:0|0:0,0:0:0:0:
76,108,131987,6,0,P|116:64|184:56,1,120,4|2,0:3|0:0,0:0:0:0:
256,156,132710,1,12,0:0:0:0:
256,156,133071,1,2,0:0:0:0:
338,53,133432,2,0,P|396:64|436:108,1,120,4|2,0:1|0:0,0:0:0:0:
436,240,134155,2,0,B|368:284|368:284|332:256,1,120,10|4,0:0|0:0,0:0:0:0:
256,156,134878,6,0,B|225:132|225:132|157:176,1,120,4|2,0:1|0:0,0:0:0:0:
28,204,135601,2,0,P|39:261|88:294,1,120,8|2,0:0|0:0,0:0:0:0:
220,288,136324,2,0,P|276:272|340:288,2,120,4|2|8,0:3|0:0|0:0,0:0:0:0:
88,294,137408,1,2,0:0:0:0:
164,188,137770,6,0,P|188:140|184:56,1,120,4|2,0:1|0:0,0:0:0:0:
256,32,138312,1,0,0:0:0:0:
322,74,138493,2,0,P|322:134|348:188,1,120,8|2,0:0|0:0,0:0:0:0:
412,304,139216,2,0,P|356:324|288:300,1,120,4|2,0:3|0:0,0:0:0:0:
228,196,139939,2,0,L|204:116,1,60,10|4,0:0|0:3,0:0:0:0:
136,164,140300,2,0,L|112:84,1,60,10|4,0:0|0:3,0:0:0:0:
100,32,140661,6,0,P|52:64|44:124,1,120,4|2,0:1|0:0,0:0:0:0:
108,240,141384,2,0,P|165:242|207:198,1,120,8|2,0:0|0:0,0:0:0:0:
248,76,142107,2,0,P|288:34|346:36,1,120,4|2,0:3|0:0,0:0:0:0:
452,116,142830,2,0,L|512:116,2,60,12|0|2,0:0|0:0|0:0,0:0:0:0:
344,192,143553,6,0,B|336:236|356:272|356:272|308:292,1,120,4|2,0:3|0:0,0:0:0:0:
256,332,144095,1,0,0:0:0:0:
190,286,144276,2,0,B|156:272|156:272|176:236|168:192,1,120,12|2,0:0|0:0,0:0:0:0:
144,60,144999,2,0,P|84:76|52:128,1,120,4|2,0:1|0:0,0:0:0:0:
53,256,145722,2,0,B|77:307|77:307|117:256|190:286,1,180,10|8,0:0|0:0,0:0:0:0:
240,348,146445,6,0,P|268:296|240:224,1,120,4|2,0:1|0:0,0:0:0:0:
140,172,147167,1,8,0:0:0:0:
256,112,147529,1,2,0:0:0:0:
372,172,147890,2,0,P|428:188|488:160,2,120,4|2|12,0:3|0:0|0:0,0:0:0:0:
256,112,148975,1,2,0:0:0:0:
140,172,149336,6,0,P|84:188|24:160,1,120,4|2,0:1|0:0,0:0:0:0:
92,48,150059,2,0,P|146:25|202:41,1,120,12|2,0:0|0:0,0:0:0:0:
256,160,150782,2,0,L|256:228,2,60,8|4|4,0:0|0:3|0:1,0:0:0:0:
364,84,151505,2,0,L|364:152,1,60,12|4,0:0|0:3,0:0:0:0:
444,144,151866,2,0,L|444:212,1,60,8|10,0:0|0:0,0:0:0:0:
316,348,158011,6,0,P|332:296|312:228,1,120,4|2,0:1|0:0,0:0:0:0:
212,152,158734,2,0,P|195:95|211:38,1,120,8|0,0:0|0:0,0:0:0:0:
328,96,159457,1,4,0:3:0:0:
320,228,159818,1,2,0:0:0:0:
212,152,160180,2,0,P|152:136|88:156,1,120,12|0,0:0|0:0,0:0:0:0:
96,284,160902,6,0,P|153:298|210:282,1,120,4|2,0:3|0:0,0:0:0:0:
328,220,161626,2,0,P|308:268|324:336,1,120,8|0,0:0|0:0,0:0:0:0:
388,376,162167,1,0,0:0:0:0:
452,328,162348,2,0,P|466:271|446:216,1,120,0|2,0:1|0:0,0:0:0:0:
368,108,163071,2,0,B|340:92|340:92|232:100,1,120,12|4,0:0|0:0,0:0:0:0:
160,196,163794,6,0,B|188:212|188:212|296:204,1,120,4|2,0:1|0:0,0:0:0:0:
368,108,164517,1,8,0:0:0:0:
392,236,164879,1,0,0:0:0:0:
448,356,165240,2,0,P|400:376|336:356,1,120,4|2,0:3|0:0,0:0:0:0:
256,252,165963,2,0,P|200:232|145:253,1,120,12|0,0:0|0:0,0:0:0:0:
48,340,166686,6,0,L|16:216,1,120,4|2,0:3|0:0,0:0:0:0:
115,136,167408,2,0,L|144:252,1,120,12|0,0:0|0:0,0:0:0:0:
272,292,168131,2,0,L|242:175,1,120,4|2,0:3|0:0,0:0:0:0:
208,48,168854,1,8,0:0:0:0:
336,84,169216,1,0,0:0:0:0:
242,175,169577,6,0,P|184:188|128:156,1,120,4|2,0:3|0:0,0:0:0:0:
208,48,170300,2,0,P|266:35|322:67,1,120,8|2,0:0|0:0,0:0:0:0:
376,116,170842,1,0,0:0:0:0:
424,176,171023,2,0,P|364:192|310:157,1,120
188,128,171746,2,0,L|120:128,2,60,8|0|2,0:0|0:0|0:0,0:0:0:0:
316,165,172469,6,0,P|328:228|324:288,1,120,4|2,0:3|0:0,0:0:0:0:
256,324,173011,1,0,0:0:0:0:
188,283,173192,2,0,P|186:223|196:160,1,120,8|0,0:0|0:0,0:0:0:0:
156,40,173914,2,0,P|100:24|28:32,1,120,4|2,0:3|0:0,0:0:0:0:
78,152,174637,2,0,P|134:168|206:160,1,120,8|2,0:0|0:0,0:0:0:0:
328,156,175360,6,0,P|360:216|372:296,1,120,4|0,0:3|0:0,0:0:0:0:
256,324,176083,1,8,0:0:0:0:
256,324,176264,2,0,L|192:332,2,60,0|2|0,0:0|0:0|0:0,0:0:0:0:
240,248,176806,2,0,L|96:268,1,120,4|2,0:3|0:0,0:0:0:0:
20,180,177529,2,0,L|138:163,1,120,8|0,0:0|0:0,0:0:0:0:
268,140,178252,6,0,P|284:76|268:24,1,120,0|2,0:0|0:0,0:0:0:0:
152,84,178975,1,8,0:0:0:0:
152,84,179336,1,2,0:0:0:0:
160,216,179698,2,0,L|140:288,2,60,12|8|12,0:0|0:0|0:0,0:0:0:0:
276,156,180420,2,0,L|259:213,1,60,12|8,0:0|0:0,0:0:0:0:
332,244,180782,2,0,L|348:186,1,60,12|10,0:0|0:0,0:0:0:0:
364,108,181144,6,0,P|316:60|256:60,1,120,4|0,0:1|1:0,0:0:0:0:
144,108,181866,2,0,B|120:192|120:192|128:228,1,120,8|4,0:0|1:2,0:0:0:0:
236,300,182589,2,0,B|268:295|268:295|339:244,1,120,4|0,0:3|1:0,0:0:0:0:
444,164,183312,1,8,0:0:0:0:
444,164,183673,1,0,1:0:0:0:
348,72,184035,6,0,L|324:16,2,60,4|2|0,0:1|0:0|1:0,0:0:0:0:
256,168,184758,2,0,L|280:224,2,60,8|2|4,0:0|0:0|1:2,0:0:0:0:
132,120,185481,2,0,L|108:64,2,60,4|0|0,0:1|0:0|1:0,0:0:0:0:
256,168,186204,2,0,P|312:180|376:160,1,120,8|0,0:0|1:0,0:0:0:0:
352,32,186926,6,0,P|296:20|232:40,1,120,4|0,0:1|1:0,0:0:0:0:
132,120,187649,1,8,0:0:0:0:
80,240,188011,1,0,1:0:0:0:
208,204,188372,1,4,0:1:0:0:
164,328,188734,1,2,1:2:0:0:
288,288,189095,2,0,P|344:272|412:304,1,120,10|6,0:0|1:2,0:0:0:0:
460,344,189637,1,2,0:0:0:0:
484,268,189818,6,4,L|496:140,1,120,4|0,0:3|1:0,0:0:0:0:
448,24,190541,1,12,0:0:0:0:
364,124,190902,1,0,1:0:0:0:
256,44,191264,2,0,P|196:32|128:56,1,120,4|0,0:1|1:0,0:0:0:0:
100,116,191806,1,2,0:0:0:0:
68,188,191987,2,0,P|60:248|76:324,1,120,8|4,0:0|1:0,0:0:0:0:
200,292,192710,6,0,P|259:282|318:290,2,120,4|0|8,0:1|1:0|0:0,0:0:0:0:
69,306,193794,1,0,1:0:0:0:
128,188,194155,2,0,L|128:112,2,60,4|0|0,0:1|0:0|1:0,0:0:0:0:
236,116,194878,2,0,L|236:40,2,60,8|2|0,0:0|0:0|1:0,0:0:0:0:
216,248,195601,5,4,0:1:0:0:
336,192,195963,1,0,1:0:0:0:
236,116,196324,2,0,P|180:128|108:108,1,120,8|0,0:0|1:0,0:0:0:0:
16,32,197047,2,0,L|8:160,1,120,4|2,1:0|0:0,0:0:0:0:
48,280,197770,1,8,0:0:0:0:
152,196,198131,1,0,1:0:0:0:
228,304,198493,6,0,P|288:316|356:284,1,120,4|0,0:1|1:0,0:0:0:0:
412,184,199216,2,0,P|352:172|284:204,1,120,8|0,0:0|1:0,0:0:0:0:
228,304,199939,1,4,0:1:0:0:
152,196,200300,1,0,1:0:0:0:
76,88,200661,2,0,P|128:64|188:76,1,120,8|0,0:0|1:0,0:0:0:0:
256,188,201384,5,4,0:1:0:0:
256,188,201746,1,0,1:0:0:0:
324,300,202107,2,0,P|381:312|435:287,1,120,8|0,0:0|1:0,0:0:0:0:
468,160,202830,2,0,L|484:88,1,60,12|8,0:0|0:0,0:0:0:0:
408,68,203192,2,0,L|394:126,1,60,8|12,0:0|0:0,0:0:0:0:
316,120,203553,2,0,L|332:48,1,60,8|8,0:0|0:0,0:0:0:0:
256,28,203915,2,0,L|242:86,1,60,12|12,0:0|0:0,0:0:0:0:
256,192,204276,12,0,207167,0:0:0:0:
