osu file format v14

[General]
AudioFilename: Audio.mp3
AudioLeadIn: 0
PreviewTime: 175476
Countdown: 0
SampleSet: Soft
StackLeniency: 0.7
Mode: 3
LetterboxInBreaks: 0
SpecialStyle: 0
WidescreenStoryboard: 1

[Editor]
Bookmarks: 14340,27294,56158,67067,76840,101840,116385,141612,151385,176158,183658,191385,207522,223431
DistanceSpacing: 0.8
BeatDivisor: 4
GridSize: 32
TimelineZoom: 1.4

[Metadata]
Title:CRAZY FOR YOU
TitleUnicode:クレージー FOR YOU
Artist:Tree Palm
ArtistUnicode:Tree Palm
Creator:Jesuren
Version:Hard
Source:
Tags:FAMoss さいとうまりな Marina Saito 多田慎也 Tada Shinya Electronic Pop J-Pop Trap Future Funk Groovy Japanese JesusMD24
BeatmapID:2320001
BeatmapSetID:1110188

[Difficulty]
HPDrainRate:7.5
CircleSize:4
OverallDifficulty:7
ApproachRate:5
SliderMultiplier:1.4
SliderTickRate:1

[Events]
//Background and Video events
0,0,"Background - CRAZY FOR YOU.jpg",0,0
//Break Periods
//Storyboard Layer 0 (Background)
//Storyboard Layer 1 (Fail)
//Storyboard Layer 2 (Pass)
//Storyboard Layer 3 (Foreground)
//Storyboard Sound Samples

[TimingPoints]
22,454.545454545455,4,2,1,60,1,0
76840,-100,4,2,1,60,0,1
89112,-100,4,2,1,40,0,0
91385,-100,4,2,1,60,0,1
101840,-100,4,2,1,40,0,0
151385,-100,4,2,1,60,0,1
163658,-100,4,2,1,40,0,0
165931,-100,4,2,1,60,0,1
176158,-100,4,2,1,40,0,0
182976,-100,4,2,1,30,0,0
185476,-100,4,2,1,40,0,0
187294,-100,4,2,1,50,0,0
191385,-100,4,2,1,60,0,1
207522,-100,4,2,1,60,0,0
209112,-100,4,2,1,30,0,0
223431,-100,4,2,1,60,0,0

[HitObjects]
320,192,14340,5,2,0:0:0:0:
64,192,14340,128,0,15249:0:0:0:0:
448,192,14340,1,4,0:0:0:0:
320,192,14794,1,0,0:0:0:0:
192,192,15022,1,8,0:0:0:0:
320,192,15022,1,2,0:0:0:0:
320,192,15249,128,0,15362:0:0:0:0:
64,192,15476,1,2,0:0:0:0:
320,192,15703,1,0,0:0:0:0:
448,192,15931,1,2,0:0:0:0:
192,192,15931,1,8,0:0:0:0:
64,192,16158,128,0,16385:0:0:0:0:
448,192,16385,1,2,0:0:0:0:
192,192,16385,128,0,16612:0:0:0:0:
64,192,16612,128,0,16726:0:0:0:0:
192,192,16840,1,2,0:0:0:0:
320,192,16840,1,8,0:0:0:0:
448,192,17067,128,0,17749:0:0:0:0:
64,192,17294,1,2,0:0:0:0:
192,192,17522,1,0,0:0:0:0:
64,192,17749,1,2,0:0:0:0:
192,192,17749,1,8,0:0:0:0:
320,192,17976,128,0,19112:0:0:0:0:
448,192,18203,1,2,0:0:0:0:
192,192,18431,1,0,0:0:0:0:
448,192,18658,1,2,0:0:0:0:
64,192,18658,1,8,0:0:0:0:
192,192,18885,1,0,0:0:0:0:
64,192,19112,1,2,0:0:0:0:
192,192,19340,128,0,19453:0:0:0:0:
64,192,19567,1,2,0:0:0:0:
448,192,19567,128,8,19794:0:0:0:0:
192,192,19794,128,0,20476:0:0:0:0:
64,192,20022,1,2,0:0:0:0:
448,192,20249,1,0,0:0:0:0:
64,192,20476,1,2,0:0:0:0:
448,192,20476,1,8,0:0:0:0:
320,192,20703,1,0,0:0:0:0:
64,192,20931,128,2,21158:0:0:0:0:
448,192,21158,1,0,0:0:0:0:
192,192,21158,128,8,21272:0:0:0:0:
320,192,21385,1,8,0:0:0:0:
64,192,21385,1,2,0:0:0:0:
320,192,21612,128,0,22067:0:0:0:70:LR_Snare Drum.wav
64,192,21840,1,2,0:0:0:0:
448,192,22067,1,0,0:0:0:0:
192,192,22294,1,8,0:0:0:0:
64,192,22294,1,2,0:0:0:0:
448,192,22522,128,0,22976:0:0:0:0:
64,192,22749,1,2,0:0:0:0:
320,192,22976,128,0,23090:0:0:0:0:
448,192,23203,1,8,0:0:0:0:
192,192,23203,128,2,23431:0:0:0:0:
320,192,23431,128,0,25249:0:0:0:0:
64,192,23658,1,2,0:0:0:0:
448,192,23885,1,0,0:0:0:0:
64,192,24112,1,8,0:0:0:0:
192,192,24112,1,2,0:0:0:0:
448,192,24340,1,0,0:0:0:0:
64,192,24567,1,2,0:0:0:0:
192,192,24794,1,0,0:0:0:0:
448,192,25022,1,8,0:0:0:0:
64,192,25022,1,2,0:0:0:0:
192,192,25249,128,0,25362:0:0:0:0:
448,192,25476,128,2,25703:0:0:0:0:
320,192,25476,128,0,25703:0:0:0:0:
64,192,25703,1,0,0:0:0:0:
192,192,25931,128,8,26158:0:0:0:0:
64,192,25931,128,2,26158:0:0:0:0:
448,192,26158,1,0,0:0:0:0:
320,192,26385,128,2,26612:0:0:0:0:
448,192,26385,128,0,26612:0:0:0:0:
64,192,26612,1,0,0:0:0:0:
320,192,26840,1,8,0:0:0:0:
64,192,26840,1,2,0:0:0:0:
448,192,26953,1,0,0:0:0:70:tom01.wav
320,192,27067,1,0,0:0:0:70:tom02.wav
448,192,27181,1,0,0:0:0:70:LR_Snare Drum.wav
192,192,27294,1,2,0:0:0:0:
64,192,27294,1,0,0:0:0:0:
320,192,27522,1,0,0:0:0:0:
64,192,27749,1,8,0:0:0:0:
448,192,27749,1,2,0:0:0:0:
192,192,27976,1,0,0:0:0:0:
448,192,28203,1,2,0:0:0:0:
64,192,28431,1,0,0:0:0:0:
448,192,28658,1,8,0:0:0:0:
192,192,28658,1,2,0:0:0:0:
64,192,28885,128,0,29567:0:0:0:0:
320,192,29112,1,2,0:0:0:0:
448,192,29340,1,0,0:0:0:0:
320,192,29567,1,8,0:0:0:0:
192,192,29567,1,2,0:0:0:0:
64,192,29794,1,0,0:0:0:0:
192,192,30022,1,2,0:0:0:0:
448,192,30249,1,8,0:0:0:0:
64,192,30249,1,0,0:0:0:0:
192,192,30476,1,8,0:0:0:0:
320,192,30476,1,2,0:0:0:0:
448,192,30703,1,0,0:0:0:0:
64,192,30931,1,2,0:0:0:0:
320,192,31158,1,0,0:0:0:0:
192,192,31385,1,8,0:0:0:0:
448,192,31385,1,2,0:0:0:0:
320,192,31612,1,0,0:0:0:0:
64,192,31840,1,2,0:0:0:0:
448,192,32067,1,0,0:0:0:0:
320,192,32294,1,8,0:0:0:0:
192,192,32294,1,2,0:0:0:0:
448,192,32522,128,0,32749:0:0:0:0:
192,192,32749,1,2,0:0:0:0:
320,192,32976,1,0,0:0:0:0:
64,192,32976,128,8,33203:0:0:0:0:
448,192,33203,1,8,0:0:0:0:
320,192,33203,1,2,0:0:0:0:
64,192,33431,1,8,0:0:0:0:
320,192,33431,1,0,0:0:0:0:
192,192,33658,1,2,0:0:0:0:
448,192,33885,1,8,0:0:0:0:
320,192,33885,1,0,0:0:0:0:
320,192,34112,1,8,0:0:0:0:
448,192,34112,1,2,0:0:0:0:
64,192,34340,1,0,0:0:0:0:
320,192,34567,1,2,0:0:0:0:
192,192,34794,1,0,0:0:0:0:
64,192,35022,1,8,0:0:0:0:
448,192,35022,1,2,0:0:0:0:
320,192,35249,1,0,0:0:0:0:
192,192,35476,1,2,0:0:0:0:
448,192,35703,1,0,0:0:0:0:
192,192,35931,1,8,0:0:0:0:
64,192,35931,1,2,0:0:0:0:
320,192,36158,128,0,36840:0:0:0:0:
64,192,36385,1,2,0:0:0:0:
192,192,36612,1,0,0:0:0:0:
64,192,36840,1,2,0:0:0:0:
448,192,36840,1,8,0:0:0:0:
320,192,37067,1,0,0:0:0:0:
192,192,37294,1,2,0:0:0:0:
64,192,37522,1,8,0:0:0:0:
448,192,37522,1,0,0:0:0:0:
448,192,37749,1,2,0:0:0:0:
320,192,37749,1,8,0:0:0:0:
192,192,37976,1,0,0:0:0:0:
448,192,38203,1,2,0:0:0:0:
64,192,38431,1,0,0:0:0:0:
192,192,38658,1,2,0:0:0:0:
320,192,38658,1,8,0:0:0:0:
64,192,38885,1,0,0:0:0:0:
448,192,39112,1,2,0:0:0:0:
64,192,39340,1,0,0:0:0:0:
192,192,39567,1,2,0:0:0:0:
448,192,39567,1,8,0:0:0:0:
64,192,39794,128,0,40022:0:0:0:0:
320,192,40022,1,2,0:0:0:0:
448,192,40249,1,8,0:0:0:0:
192,192,40249,128,0,40476:0:0:0:0:
64,192,40476,1,8,0:0:0:0:
320,192,40476,1,2,0:0:0:0:
320,192,40703,128,0,40931:0:0:0:0:
448,192,40703,1,8,0:0:0:0:
64,192,40931,1,2,0:0:0:0:
448,192,41158,1,0,0:0:0:70:LR_Snare Drum.wav
320,192,41272,1,0,0:0:0:70:LR_Snare Drum.wav
64,192,41385,1,2,0:0:0:0:
192,192,41385,1,8,0:0:0:0:
448,192,41612,1,8,0:0:0:0:
192,192,41612,128,0,42067:0:0:0:70:LR_Snare Drum.wav
320,192,41840,1,2,0:0:0:0:
448,192,42067,128,0,42294:0:0:0:0:
64,192,42294,1,2,0:0:0:0:
320,192,42294,128,8,42522:0:0:0:0:
64,192,42522,128,0,42749:0:0:0:0:
448,192,42749,1,0,0:0:0:0:
192,192,42749,128,2,42976:0:0:0:0:
64,192,42976,128,0,43203:0:0:0:0:
448,192,43203,1,2,0:0:0:0:
192,192,43203,128,8,43431:0:0:0:0:
320,192,43431,128,0,44112:0:0:0:0:
448,192,43658,1,2,0:0:0:0:
64,192,43885,1,0,0:0:0:0:
448,192,44112,1,8,0:0:0:0:
192,192,44112,1,2,0:0:0:0:
64,192,44226,1,0,0:0:0:0:
192,192,44340,1,0,0:0:0:0:
320,192,44567,1,2,0:0:0:0:
448,192,44567,1,0,0:0:0:0:
192,192,44681,1,0,0:0:0:0:
320,192,44794,1,8,0:0:0:0:
448,192,45022,1,8,0:0:0:0:
64,192,45022,1,2,0:0:0:0:
320,192,45249,128,0,45476:0:0:0:0:
448,192,45476,1,2,0:0:0:0:
64,192,45476,128,0,45703:0:0:0:0:
192,192,45703,128,0,45931:0:0:0:0:
64,192,45931,1,8,0:0:0:0:
448,192,45931,128,2,46158:0:0:0:0:
192,192,46158,128,0,46385:0:0:0:0:
64,192,46385,1,2,0:0:0:0:
320,192,46385,128,0,46612:0:0:0:0:
192,192,46612,128,0,46840:0:0:0:0:
320,192,46840,1,8,0:0:0:0:
64,192,46840,128,2,47067:0:0:0:0:
448,192,47067,128,0,47522:0:0:0:0:
192,192,47294,1,2,0:0:0:0:
192,192,47522,128,0,47749:0:0:0:0:
64,192,47522,1,8,0:0:0:0:
320,192,47749,1,8,0:0:0:0:
448,192,47749,1,2,0:0:0:0:
64,192,47976,1,8,0:0:0:0:
320,192,47976,1,0,0:0:0:0:
448,192,48203,128,2,48431:0:0:0:0:
320,192,48431,1,8,0:0:0:0:
64,192,48431,128,0,48658:0:0:0:0:
448,192,48658,1,8,0:0:0:0:
320,192,48658,1,2,0:0:0:0:
448,192,48885,1,4,0:0:0:0:
64,192,48885,1,0,0:0:0:0:
192,192,48885,1,0,0:0:0:0:
320,192,49112,1,2,0:0:0:0:
192,192,49112,1,0,0:0:0:0:
64,192,49340,128,0,49567:0:0:0:0:
448,192,49567,1,2,0:0:0:0:
192,192,49567,128,8,49794:0:0:0:0:
320,192,49794,128,0,50022:0:0:0:0:
448,192,50022,1,0,0:0:0:0:
64,192,50022,128,2,50249:0:0:0:0:
320,192,50249,128,0,50476:0:0:0:0:
448,192,50476,1,8,0:0:0:0:
192,192,50476,128,2,50703:0:0:0:0:
320,192,50703,128,0,51385:0:0:0:0:
64,192,50931,1,2,0:0:0:0:
448,192,51158,1,0,0:0:0:0:
64,192,51385,1,2,0:0:0:0:
192,192,51385,1,8,0:0:0:0:
192,192,51612,1,0,0:0:0:0:
64,192,51840,1,0,0:0:0:0:
448,192,51840,1,2,0:0:0:0:
320,192,52067,1,8,0:0:0:0:
192,192,52067,1,0,0:0:0:0:
192,192,52294,1,2,0:0:0:0:
64,192,52294,1,8,0:0:0:0:
320,192,52522,128,0,52749:0:0:0:0:
64,192,52749,1,2,0:0:0:0:
448,192,52749,1,0,0:0:0:0:
192,192,52976,128,0,53203:0:0:0:0:
320,192,53203,1,2,0:0:0:0:
448,192,53203,128,8,53431:0:0:0:0:
192,192,53431,128,0,53658:0:0:0:0:
448,192,53658,1,2,0:0:0:0:
64,192,53658,128,0,54112:0:0:0:0:
320,192,53885,1,0,0:0:0:0:
192,192,54112,128,8,54340:0:0:0:0:
448,192,54112,1,2,0:0:0:0:
320,192,54340,128,0,54794:0:0:0:0:
448,192,54567,1,2,0:0:0:0:
64,192,54794,1,8,0:0:0:0:
192,192,54794,1,0,0:0:0:0:
320,192,55022,1,8,0:0:0:0:
448,192,55022,1,2,0:0:0:0:
64,192,55249,1,0,0:0:0:0:
192,192,55249,1,8,0:0:0:0:
192,192,55476,1,0,0:0:0:0:
448,192,55476,128,2,55703:0:0:0:0:
64,192,55703,1,8,0:0:0:0:
192,192,55817,1,8,0:0:0:0:
320,192,55931,1,8,0:0:0:0:
448,192,55931,1,2,0:0:0:0:
320,192,56158,1,4,0:0:0:0:
192,192,56158,1,0,0:0:0:0:
448,192,56158,1,0,0:0:0:0:
64,192,56385,128,0,56840:1:0:0:0:
320,192,56612,1,0,1:0:0:0:
448,192,56840,128,0,57067:0:0:0:30:LR_Snare Drum 3.wav
320,192,57067,1,0,1:0:0:0:
448,192,57294,1,8,0:0:0:0:
64,192,57294,1,0,1:0:0:0:
320,192,57408,1,0,1:0:0:0:
192,192,57522,1,0,1:0:0:0:
448,192,57635,1,0,1:0:0:0:
64,192,57749,1,0,0:0:0:30:LR_Snare Drum 3.wav
320,192,57976,1,2,0:0:0:0:
192,192,58203,1,0,1:0:0:0:
64,192,58431,1,2,0:0:0:0:
192,192,58658,1,0,0:0:0:30:LR_Snare Drum 3.wav
448,192,58772,1,0,1:0:0:0:
320,192,58885,1,2,0:0:0:0:
64,192,58999,1,0,1:0:0:0:
448,192,59112,128,0,59340:1:0:0:0:
192,192,59340,1,0,1:0:0:0:
64,192,59567,1,8,0:0:0:0:
320,192,59567,1,0,1:0:0:0:
448,192,59794,1,0,1:0:0:0:
192,192,60022,128,2,60476:0:0:0:0:
64,192,60249,1,0,1:0:0:0:
448,192,60476,1,0,0:0:0:40:LR_Snare Drum 3.wav
192,192,60703,1,0,1:0:0:0:
320,192,60931,1,8,0:0:0:0:
64,192,60931,1,0,1:0:0:0:
192,192,61044,1,0,1:0:0:0:
448,192,61158,1,0,1:0:0:0:
64,192,61272,1,0,1:0:0:0:
320,192,61385,1,0,0:0:0:40:LR_Snare Drum 3.wav
192,192,61612,1,2,0:0:0:0:
320,192,61840,1,0,1:0:0:0:
192,192,62067,1,2,0:0:0:0:
64,192,62294,1,0,0:0:0:40:LR_Snare Drum 3.wav
448,192,62408,1,0,1:0:0:0:
192,192,62522,1,2,0:0:0:0:
64,192,62635,1,0,1:0:0:0:
448,192,62749,128,0,62976:1:0:0:0:
64,192,62976,1,0,1:0:0:0:
192,192,63203,1,8,0:0:0:0:
448,192,63203,1,0,1:0:0:0:
320,192,63317,1,0,1:0:0:0:
64,192,63431,1,0,1:0:0:0:
192,192,63544,1,0,1:0:0:0:
448,192,63658,128,2,64112:0:0:0:0:
320,192,63885,1,0,1:0:0:0:
64,192,64112,1,0,0:0:0:50:LR_Snare Drum 3.wav
192,192,64340,1,0,1:0:0:0:
320,192,64567,1,8,0:0:0:0:
64,192,64567,1,0,1:0:0:0:
448,192,64681,1,0,1:0:0:0:
192,192,64794,1,0,1:0:0:0:
64,192,64908,1,0,1:0:0:0:
448,192,65022,1,0,0:0:0:50:LR_Snare Drum 3.wav
320,192,65249,1,2,0:0:0:0:
64,192,65476,1,0,1:0:0:0:
320,192,65703,1,2,0:0:0:0:
448,192,65931,1,0,0:0:0:50:LR_Snare Drum 3.wav
64,192,66044,1,0,1:0:0:0:
320,192,66158,1,2,0:0:0:0:
192,192,66272,1,0,1:0:0:0:
64,192,66385,128,0,66612:1:0:0:0:
448,192,66612,1,8,0:0:0:0:
320,192,66612,1,0,0:0:0:0:
448,192,66840,1,8,0:0:0:0:
320,192,66840,1,0,0:0:0:70:LR_Snare Drum 3.wav
320,192,67067,1,2,0:0:0:0:
64,192,67067,128,0,67522:0:0:0:0:
192,192,67294,1,0,0:0:0:0:
448,192,67522,1,0,0:0:0:0:
320,192,67749,1,2,0:0:0:0:
64,192,67749,1,8,0:0:0:0:
192,192,67976,1,0,0:0:0:0:
448,192,68203,1,2,0:0:0:0:
320,192,68203,1,0,0:0:0:0:
192,192,68431,1,2,0:0:0:0:
64,192,68431,1,8,0:0:0:0:
192,192,68658,1,2,0:0:0:0:
64,192,68658,1,8,0:0:0:0:
192,192,68885,1,2,0:0:0:0:
448,192,68885,128,0,69340:0:0:0:0:
64,192,69112,1,0,0:0:0:0:
320,192,69340,1,0,0:0:0:0:
448,192,69567,1,2,0:0:0:0:
64,192,69567,1,8,0:0:0:0:
192,192,69794,1,0,0:0:0:0:
448,192,70022,1,2,0:0:0:0:
64,192,70022,1,0,0:0:0:0:
192,192,70249,1,8,0:0:0:0:
320,192,70249,1,2,0:0:0:0:
192,192,70476,1,8,0:0:0:0:
320,192,70476,1,2,0:0:0:0:
64,192,70703,128,2,71158:0:0:0:0:
448,192,70703,1,0,0:0:0:0:
192,192,70931,1,0,0:0:0:0:
320,192,71158,128,0,71612:0:0:0:0:
192,192,71385,1,8,0:0:0:0:
448,192,71385,1,2,0:0:0:0:
64,192,71612,128,0,72067:0:0:0:0:
192,192,71840,1,2,0:0:0:0:
448,192,72067,128,0,72522:0:0:0:0:
320,192,72294,1,8,0:0:0:0:
64,192,72294,1,2,0:0:0:0:
192,192,72522,128,0,73658:0:0:0:0:
448,192,72749,1,2,0:0:0:0:
320,192,72976,1,0,0:0:0:0:
448,192,73203,1,2,0:0:0:0:
64,192,73203,1,8,0:0:0:0:
320,192,73431,1,0,0:0:0:0:
64,192,73658,1,2,0:0:0:0:
448,192,73658,1,0,0:0:0:0:
192,192,73885,1,0,0:0:0:0:
64,192,74112,1,2,0:0:0:0:
320,192,74112,1,8,0:0:0:0:
448,192,74340,1,8,0:0:0:0:
320,192,74340,1,2,0:0:0:0:
64,192,74453,1,2,0:0:0:0:
192,192,74453,1,8,0:0:0:0:
448,192,74681,1,8,0:0:0:0:
192,192,74681,1,2,0:0:0:0:
64,192,74794,1,2,0:0:0:0:
320,192,74794,1,8,0:0:0:0:
64,192,75022,128,8,75249:0:0:0:0:
320,192,75022,128,2,75249:0:0:0:0:
448,192,75022,128,4,75249:0:0:0:0:
320,192,75476,1,2,0:0:0:0:
192,192,75476,1,0,0:0:0:0:
320,192,75703,1,2,0:0:0:0:
192,192,75703,1,0,0:0:0:0:
320,192,76158,128,0,76840:0:0:0:0:
192,192,76840,1,8,0:0:0:0:
64,192,76840,1,2,0:0:0:0:
448,192,76840,1,4,0:0:0:0:
192,192,77067,128,0,77181:0:0:0:0:
320,192,77294,1,2,0:0:0:0:
64,192,77294,1,0,0:0:0:0:
320,192,77522,1,0,0:0:0:0:
192,192,77749,1,8,0:0:0:0:
448,192,77749,1,2,0:0:0:0:
320,192,77862,1,0,0:0:0:0:
64,192,77976,1,0,0:0:0:0:
320,192,78090,1,0,0:0:0:0:
192,192,78203,1,2,0:0:0:0:
448,192,78203,128,0,78431:0:0:0:0:
64,192,78431,128,0,78658:0:0:0:0:
448,192,78658,128,8,78885:0:0:0:0:
192,192,78658,1,2,0:0:0:0:
64,192,78885,128,0,79112:0:0:0:0:
320,192,79112,1,2,0:0:0:0:
448,192,79112,1,0,0:0:0:0:
320,192,79340,1,8,0:0:0:0:
192,192,79567,1,8,0:0:0:0:
64,192,79567,1,2,0:0:0:0:
448,192,79681,1,0,0:0:0:0:
192,192,79794,1,0,0:0:0:0:
448,192,79908,1,0,0:0:0:0:
64,192,80022,1,2,0:0:0:0:
320,192,80022,128,0,80249:0:0:0:0:
192,192,80249,1,0,0:0:0:0:
64,192,80476,1,8,0:0:0:0:
320,192,80476,128,2,80703:0:0:0:0:
192,192,80703,1,0,0:0:0:0:
64,192,80931,1,2,0:0:0:0:
448,192,80931,1,0,0:0:0:0:
448,192,81158,1,0,0:0:0:0:
192,192,81385,1,8,0:0:0:0:
64,192,81385,1,2,0:0:0:0:
448,192,81499,1,0,0:0:0:0:
320,192,81612,1,0,0:0:0:0:
192,192,81726,1,0,0:0:0:0:
64,192,81840,1,0,0:0:0:0:
448,192,81840,128,2,82067:0:0:0:0:
192,192,82067,128,0,82294:0:0:0:0:
448,192,82294,128,2,82522:0:0:0:0:
320,192,82294,1,8,0:0:0:0:
192,192,82522,128,0,82749:0:0:0:0:
320,192,82749,1,2,0:0:0:0:
64,192,82749,1,0,0:0:0:0:
64,192,82976,1,0,0:0:0:0:
448,192,83203,1,8,0:0:0:0:
320,192,83203,1,2,0:0:0:0:
192,192,83317,1,0,0:0:0:0:
320,192,83431,1,0,0:0:0:0:
192,192,83544,1,0,0:0:0:0:
64,192,83658,128,2,83885:0:0:0:0:
320,192,83658,1,0,0:0:0:0:
192,192,83885,1,0,0:0:0:0:
64,192,84112,128,8,84340:0:0:0:0:
320,192,84112,1,2,0:0:0:0:
448,192,84340,1,0,0:0:0:0:
320,192,84453,1,0,0:0:0:0:
192,192,84567,1,2,0:0:0:0:
64,192,84567,1,0,0:0:0:0:
448,192,84794,128,0,85022:0:0:0:0:
320,192,85022,1,2,0:0:0:0:
192,192,85022,1,8,0:0:0:0:
448,192,85249,128,0,85476:0:0:0:0:
192,192,85476,1,2,0:0:0:0:
64,192,85476,1,0,0:0:0:0:
320,192,85703,1,0,0:0:0:0:
64,192,85931,1,2,0:0:0:0:
448,192,85931,1,8,0:0:0:0:
192,192,86158,128,0,86840:0:0:0:0:
64,192,86385,1,2,0:0:0:0:
320,192,86385,1,0,0:0:0:0:
448,192,86612,1,8,0:0:0:0:
448,192,86840,1,2,0:0:0:0:
64,192,86840,1,8,0:0:0:0:
320,192,87067,1,0,0:0:0:0:
64,192,87294,1,2,0:0:0:0:
448,192,87294,128,0,87522:0:0:0:0:
192,192,87522,1,0,0:0:0:0:
64,192,87749,1,2,0:0:0:0:
448,192,87749,128,8,87976:0:0:0:0:
192,192,87976,1,0,0:0:0:0:
64,192,88203,1,2,0:0:0:0:
448,192,88203,128,0,88431:0:0:0:0:
320,192,88431,1,0,0:0:0:0:
64,192,88658,1,2,0:0:0:0:
192,192,88658,1,8,0:0:0:0:
448,192,88885,1,0,0:0:0:0:
192,192,89112,128,2,89567:0:0:0:0:
64,192,89567,1,2,0:0:0:0:
320,192,89567,128,8,90022:0:0:0:0:
448,192,90022,128,2,90476:0:0:0:0:
64,192,90022,1,0,0:0:0:0:
192,192,90249,1,2,0:0:0:0:
64,192,90249,1,8,0:0:0:0:
320,192,90476,1,2,0:0:0:0:
192,192,90476,1,8,0:0:0:0:
448,192,90703,128,0,91385:0:0:0:0:
192,192,91385,1,8,0:0:0:0:
320,192,91385,1,4,0:0:0:0:
64,192,91385,1,2,0:0:0:0:
320,192,91612,128,0,91840:0:0:0:0:
448,192,91840,1,2,0:0:0:0:
192,192,91840,128,0,92067:0:0:0:0:
320,192,92067,1,0,0:0:0:0:
192,192,92181,1,0,0:0:0:0:
448,192,92294,1,2,0:0:0:0:
64,192,92294,1,8,0:0:0:0:
320,192,92522,1,0,0:0:0:0:
192,192,92749,1,2,0:0:0:0:
448,192,92749,128,0,92976:0:0:0:0:
64,192,92976,128,0,93203:0:0:0:0:
192,192,93203,1,2,0:0:0:0:
448,192,93203,128,8,93431:0:0:0:0:
64,192,93431,128,0,93658:0:0:0:0:
448,192,93658,1,2,0:0:0:0:
320,192,93658,1,0,0:0:0:0:
320,192,93885,1,0,0:0:0:0:
64,192,94112,1,2,0:0:0:0:
448,192,94112,1,8,0:0:0:0:
192,192,94226,1,0,0:0:0:0:
448,192,94340,1,0,0:0:0:0:
192,192,94453,1,0,0:0:0:0:
64,192,94567,128,2,94794:0:0:0:0:
320,192,94567,1,0,0:0:0:0:
192,192,94794,1,0,0:0:0:0:
320,192,95022,1,2,0:0:0:0:
64,192,95022,128,8,95249:0:0:0:0:
192,192,95249,1,0,0:0:0:0:
448,192,95476,1,2,0:0:0:0:
64,192,95476,1,0,0:0:0:0:
320,192,95703,1,0,0:0:0:0:
192,192,95931,1,2,0:0:0:0:
320,192,95931,1,8,0:0:0:0:
320,192,96158,1,0,0:0:0:0:
448,192,96385,1,2,0:0:0:0:
64,192,96385,1,0,0:0:0:0:
192,192,96612,1,0,0:0:0:0:
64,192,96726,1,0,0:0:0:0:
320,192,96840,1,2,0:0:0:0:
448,192,96840,1,8,0:0:0:0:
64,192,97067,1,0,0:0:0:0:
448,192,97181,1,0,0:0:0:0:
192,192,97294,1,2,0:0:0:0:
320,192,97294,1,0,0:0:0:0:
448,192,97522,1,8,0:0:0:0:
64,192,97522,1,0,0:0:0:0:
320,192,97749,1,8,0:0:0:0:
448,192,97749,1,2,0:0:0:0:
64,192,97976,128,0,98203:0:0:0:0:
448,192,98203,1,2,0:0:0:0:
192,192,98203,1,0,0:0:0:0:
320,192,98431,1,0,0:0:0:0:
320,192,98658,1,8,0:0:0:0:
64,192,98658,1,2,0:0:0:0:
448,192,98885,128,0,99340:0:0:0:0:
64,192,99112,1,2,0:0:0:0:
192,192,99340,128,0,99567:0:0:0:0:
448,192,99567,1,2,0:0:0:0:
64,192,99567,1,8,0:0:0:0:
320,192,99794,128,0,100249:0:0:0:0:
64,192,100022,1,2,0:0:0:0:
448,192,100249,128,0,100476:0:0:0:0:
64,192,100476,1,8,0:0:0:0:
192,192,100476,1,2,0:0:0:0:
192,192,100703,128,0,101158:0:0:0:0:
448,192,100931,1,2,0:0:0:0:
64,192,101158,128,0,101385:0:0:0:0:
448,192,101385,1,2,0:0:0:0:
192,192,101385,128,8,101612:0:0:0:0:
320,192,101612,128,0,101840:0:0:0:70:LR_Snare Drum 3.wav
192,192,101840,1,2,0:0:0:0:
64,192,101840,1,4,0:0:0:0:
448,192,101840,1,0,0:0:0:0:
64,192,102294,1,8,0:0:0:0:
320,192,102294,1,2,0:0:0:0:
448,192,102522,1,0,0:0:0:0:
320,192,102635,1,0,0:0:0:0:
192,192,102749,1,2,0:0:0:0:
320,192,102976,1,0,0:0:0:0:
64,192,103090,1,0,0:0:0:0:
448,192,103203,1,8,0:0:0:0:
192,192,103203,1,2,0:0:0:0:
64,192,103431,1,0,0:0:0:0:
192,192,103544,1,0,0:0:0:0:
320,192,103658,1,2,0:0:0:0:
64,192,103885,1,0,0:0:0:0:
448,192,103999,1,0,0:0:0:0:
320,192,104112,1,8,0:0:0:0:
192,192,104112,1,2,0:0:0:0:
64,192,104340,1,0,0:0:0:0:
448,192,104453,1,0,0:0:0:0:
192,192,104567,1,2,0:0:0:0:
320,192,104794,1,8,0:0:0:0:
64,192,104908,1,0,0:0:0:0:
448,192,105022,1,8,0:0:0:0:
320,192,105022,1,2,0:0:0:0:
192,192,105249,1,0,0:0:0:70:LR_Snare Drum.wav
320,192,105476,1,2,0:0:0:0:
448,192,105476,1,0,0:0:0:0:
192,192,105703,1,0,0:0:0:0:
448,192,105931,1,8,0:0:0:0:
64,192,105931,1,2,0:0:0:0:
192,192,106158,1,0,0:0:0:0:
64,192,106272,1,0,0:0:0:0:
448,192,106385,1,2,0:0:0:0:
320,192,106612,1,0,0:0:0:0:
448,192,106726,1,0,0:0:0:0:
64,192,106840,1,2,0:0:0:0:
192,192,106840,1,8,0:0:0:0:
320,192,107067,128,0,107294:0:0:0:0:
64,192,107294,1,2,0:0:0:0:
192,192,107522,128,8,107749:0:0:0:0:
448,192,107522,1,0,0:0:0:0:
320,192,107749,1,2,0:0:0:0:
64,192,107749,1,8,0:0:0:0:
448,192,107976,128,8,108203:0:0:0:0:
64,192,108090,1,0,0:0:0:0:
320,192,108203,1,2,0:0:0:0:
192,192,108431,1,8,0:0:0:0:
448,192,108544,1,0,0:0:0:0:
192,192,108658,1,2,0:0:0:0:
64,192,108658,1,8,0:0:0:0:
320,192,108885,1,0,0:0:0:70:LR_Snare Drum.wav
64,192,109112,1,2,0:0:0:0:
192,192,109340,128,0,109453:0:0:0:0:
64,192,109453,128,0,109567:0:0:0:0:
448,192,109567,1,8,0:0:0:0:
320,192,109567,128,2,109794:0:0:0:0:
64,192,109794,1,0,0:0:0:0:
448,192,109908,1,0,0:0:0:0:
64,192,110022,1,2,0:0:0:0:
448,192,110249,1,0,0:0:0:0:
192,192,110362,1,0,0:0:0:0:
64,192,110476,1,2,0:0:0:0:
320,192,110476,1,8,0:0:0:0:
448,192,110703,128,0,110931:0:0:0:0:
64,192,110931,1,0,0:0:0:0:
320,192,110931,128,2,111158:0:0:0:0:
192,192,111158,128,0,111385:0:0:0:0:
64,192,111385,1,8,0:0:0:0:
320,192,111385,128,2,111612:0:0:0:0:
192,192,111612,128,0,111840:0:0:0:0:
448,192,111726,1,0,0:0:0:0:
64,192,111840,1,2,0:0:0:0:
192,192,112067,1,8,0:0:0:0:
448,192,112181,1,0,0:0:0:0:
192,192,112294,1,2,0:0:0:0:
64,192,112294,1,8,0:0:0:0:
320,192,112522,128,0,112976:0:0:0:70:LR_Snare Drum.wav
192,192,112749,1,2,0:0:0:0:
448,192,112749,1,0,0:0:0:0:
64,192,112976,128,0,113431:0:0:0:0:
448,192,113203,1,8,0:0:0:0:
320,192,113203,1,2,0:0:0:0:
192,192,113431,1,0,0:0:0:0:
448,192,113544,1,0,0:0:0:0:
320,192,113658,1,2,0:0:0:0:
192,192,113885,1,0,0:0:0:0:
448,192,113999,1,0,0:0:0:0:
320,192,114112,1,8,0:0:0:0:
64,192,114112,1,2,0:0:0:0:
448,192,114340,1,0,0:0:0:70:LR_Snare Drum.wav
64,192,114567,1,2,0:0:0:0:
448,192,114794,128,0,115476:0:0:0:0:
320,192,115022,1,8,0:0:0:0:
64,192,115022,1,2,0:0:0:0:
192,192,115249,1,0,0:0:0:0:
320,192,115476,1,2,0:0:0:0:
448,192,115703,1,0,0:0:0:70:tom01.wav
64,192,115817,1,0,0:0:0:70:tom01.wav
448,192,115931,1,0,0:0:0:70:tom02.wav
192,192,116044,1,0,0:0:0:70:tom02.wav
320,192,116158,1,0,0:0:0:70:tom03.wav
192,192,116272,1,0,0:0:0:70:tom03.wav
64,192,116385,1,4,0:0:0:0:
320,192,116612,1,8,0:0:0:0:
320,192,116840,1,8,0:0:0:0:
64,192,117067,1,0,0:0:0:0:
192,192,117181,1,0,0:0:0:0:
448,192,117294,1,0,0:0:0:0:
64,192,117522,1,0,0:0:0:0:
192,192,117635,1,0,0:0:0:0:
448,192,117749,1,0,0:0:0:0:
320,192,117976,1,0,0:0:0:0:
448,192,118090,1,0,0:0:0:0:
64,192,118203,1,0,0:0:0:0:
448,192,118431,1,0,0:0:0:0:
320,192,118544,1,0,0:0:0:0:
192,192,118658,1,0,0:0:0:0:
448,192,118885,1,0,0:0:0:0:
320,192,118999,1,0,0:0:0:0:
64,192,119112,1,0,0:0:0:0:
192,192,119340,1,8,0:0:0:0:
192,192,119567,1,8,0:0:0:0:
64,192,119794,1,0,0:0:0:0:
192,192,119908,1,0,0:0:0:0:
320,192,120022,1,2,0:0:0:0:
64,192,120135,1,0,0:0:0:0:
448,192,120249,1,0,0:0:0:0:
192,192,120362,1,0,0:0:0:0:
320,192,120476,1,8,0:0:0:0:
64,192,120476,1,2,0:0:0:0:
448,192,120590,1,0,0:0:0:0:
192,192,120703,1,0,0:0:0:0:
320,192,120817,1,0,0:0:0:0:
448,192,120931,1,2,0:0:0:0:
64,192,121044,1,0,0:0:0:0:
320,192,121158,1,0,0:0:0:0:
192,192,121272,1,0,0:0:0:0:
64,192,121385,1,8,0:0:0:0:
448,192,121385,1,2,0:0:0:0:
320,192,121499,1,0,0:0:0:0:
192,192,121612,1,0,0:0:0:0:
448,192,121726,1,0,0:0:0:0:
320,192,121840,1,2,0:0:0:0:
64,192,121953,1,0,0:0:0:0:
448,192,122067,1,8,0:0:0:0:
192,192,122181,1,0,0:0:0:0:
64,192,122294,1,8,0:0:0:0:
320,192,122294,1,2,0:0:0:0:
64,192,122522,1,8,0:0:0:0:
448,192,122635,1,0,0:0:0:0:
320,192,122749,1,2,0:0:0:0:
64,192,122862,1,0,0:0:0:0:
448,192,122976,1,8,0:0:0:0:
192,192,123090,1,0,0:0:0:0:
64,192,123203,1,8,0:0:0:0:
448,192,123203,1,2,0:0:0:0:
192,192,123431,1,0,0:0:0:0:
448,192,123658,1,2,0:0:0:0:
320,192,123658,1,0,0:0:0:0:
320,192,123885,1,0,0:0:0:0:
64,192,124112,1,8,0:0:0:0:
448,192,124112,1,2,0:0:0:0:
192,192,124226,1,0,0:0:0:0:
64,192,124340,1,0,0:0:0:0:
448,192,124453,1,0,0:0:0:0:
192,192,124567,1,2,0:0:0:0:
64,192,124567,1,0,0:0:0:0:
192,192,124794,1,0,0:0:0:0:
448,192,125022,1,8,0:0:0:0:
64,192,125022,1,2,0:0:0:0:
320,192,125249,128,0,125703:0:0:0:0:
64,192,125476,1,2,0:0:0:0:
448,192,125703,1,0,0:0:0:0:
320,192,125931,1,8,0:0:0:0:
64,192,125931,1,2,0:0:0:0:
448,192,126044,1,0,0:0:0:0:
192,192,126158,1,0,0:0:0:0:
320,192,126272,1,0,0:0:0:0:
192,192,126385,1,2,0:0:0:0:
64,192,126385,1,0,0:0:0:0:
64,192,126612,1,8,0:0:0:0:
448,192,126612,1,0,0:0:0:0:
448,192,126840,1,8,0:0:0:0:
192,192,126840,1,2,0:0:0:0:
64,192,127067,1,0,0:0:0:0:
448,192,127294,1,2,0:0:0:0:
320,192,127294,1,0,0:0:0:0:
192,192,127522,1,0,0:0:0:0:
64,192,127749,1,8,0:0:0:0:
320,192,127749,1,2,0:0:0:0:
192,192,127862,1,0,0:0:0:0:
448,192,127976,1,0,0:0:0:0:
64,192,128090,1,0,0:0:0:0:
320,192,128203,1,2,0:0:0:0:
448,192,128203,1,0,0:0:0:0:
320,192,128431,1,0,0:0:0:0:
448,192,128658,1,8,0:0:0:0:
64,192,128658,1,2,0:0:0:0:
64,192,128885,128,0,129340:0:0:0:0:
192,192,129112,1,2,0:0:0:0:
448,192,129340,1,8,0:0:0:0:
320,192,129453,1,0,0:0:0:0:
192,192,129567,1,2,0:0:0:0:
64,192,129567,1,8,0:0:0:0:
64,192,129794,1,8,0:0:0:0:
320,192,129908,1,0,0:0:0:0:
192,192,130022,128,2,130249:0:0:0:0:
448,192,130022,1,0,0:0:0:0:
64,192,130249,1,8,0:0:0:0:
320,192,130249,128,0,130476:0:0:0:0:
448,192,130476,1,2,0:0:0:0:
64,192,130476,1,8,0:0:0:0:
64,192,130703,1,0,0:0:0:70:LR_Snare Drum.wav
192,192,130703,1,0,0:0:0:0:
320,192,130703,128,4,131158:0:0:0:0:
448,192,130931,1,2,0:0:0:0:
64,192,131158,128,0,131385:0:0:0:0:
320,192,131385,1,8,0:0:0:0:
448,192,131385,128,2,131612:0:0:0:0:
192,192,131612,128,0,131840:0:0:0:0:
64,192,131840,1,2,0:0:0:0:
320,192,131840,128,0,132067:0:0:0:0:
192,192,132067,128,0,132294:0:0:0:0:
448,192,132294,128,2,132522:0:0:0:0:
64,192,132294,1,8,0:0:0:0:
320,192,132522,128,0,133431:0:0:0:0:
64,192,132749,1,2,0:0:0:0:
192,192,132976,1,0,0:0:0:0:
448,192,133203,1,2,0:0:0:0:
64,192,133203,1,8,0:0:0:0:
192,192,133431,1,0,0:0:0:0:
448,192,133544,1,0,0:0:0:0:
320,192,133658,1,2,0:0:0:0:
64,192,133658,1,0,0:0:0:0:
192,192,133885,1,8,0:0:0:0:
448,192,133885,1,0,0:0:0:0:
64,192,134112,1,2,0:0:0:0:
192,192,134112,1,8,0:0:0:0:
448,192,134340,128,0,134794:0:0:0:0:
64,192,134567,1,2,0:0:0:0:
192,192,134794,128,0,135022:0:0:0:0:
448,192,135022,1,2,0:0:0:0:
64,192,135022,128,8,135249:0:0:0:0:
192,192,135249,128,0,135476:0:0:0:0:
448,192,135476,128,0,135703:0:0:0:0:
64,192,135476,1,2,0:0:0:0:
320,192,135703,128,0,135931:0:0:0:0:
448,192,135931,1,2,0:0:0:0:
192,192,135931,128,8,136158:0:0:0:0:
320,192,136158,128,0,137067:0:0:0:0:
448,192,136385,1,2,0:0:0:0:
192,192,136612,1,8,0:0:0:0:
64,192,136840,1,8,0:0:0:0:
448,192,136840,1,2,0:0:0:0:
192,192,137067,1,8,0:0:0:0:
448,192,137181,1,0,0:0:0:0:
320,192,137294,1,2,0:0:0:0:
64,192,137294,1,0,0:0:0:0:
192,192,137522,1,8,0:0:0:0:
448,192,137522,1,0,0:0:0:0:
64,192,137749,1,8,0:0:0:0:
448,192,137749,1,2,0:0:0:0:
320,192,137976,128,0,138431:0:0:0:0:
64,192,138203,1,2,0:0:0:0:
192,192,138203,1,0,0:0:0:0:
64,192,138431,128,0,138658:0:0:0:0:
320,192,138658,1,8,0:0:0:0:
448,192,138658,128,2,138885:0:0:0:0:
192,192,138885,128,0,139112:0:0:0:0:
64,192,139112,1,2,0:0:0:0:
320,192,139112,128,0,139340:0:0:0:0:
448,192,139340,128,0,139567:0:0:0:0:
320,192,139567,1,8,0:0:0:0:
192,192,139567,1,2,0:0:0:0:
320,192,139794,128,0,140022:0:0:0:0:
64,192,140022,1,2,0:0:0:0:
192,192,140022,1,0,0:0:0:0:
192,192,140249,128,0,140476:0:0:0:0:
448,192,140476,1,8,0:0:0:0:
64,192,140476,1,2,0:0:0:0:
320,192,140703,128,0,140931:0:0:0:0:
192,192,140931,1,0,0:0:0:0:
64,192,140931,1,2,0:0:0:0:
64,192,141158,1,0,0:0:0:70:LR_Snare Drum 3.wav
448,192,141158,128,8,141385:0:0:0:0:
320,192,141385,1,8,0:0:0:0:
192,192,141385,1,2,0:0:0:0:
448,192,141612,1,2,0:0:0:0:
64,192,141612,128,0,142067:0:0:0:0:
192,192,141840,1,0,0:0:0:0:
448,192,142067,128,0,142294:0:0:0:0:
320,192,142294,1,2,0:0:0:0:
64,192,142294,128,8,142522:0:0:0:0:
192,192,142522,128,0,142749:0:0:0:0:
448,192,142749,1,2,0:0:0:0:
64,192,142749,128,0,143203:0:0:0:0:
320,192,142976,1,8,0:0:0:0:
192,192,142976,1,2,0:0:0:0:
320,192,143203,1,8,0:0:0:0:
192,192,143203,1,2,0:0:0:0:
64,192,143431,1,2,0:0:0:0:
448,192,143431,128,0,143885:0:0:0:0:
320,192,143658,1,0,0:0:0:0:
192,192,143885,128,0,144112:0:0:0:0:
448,192,144112,1,8,0:0:0:0:
320,192,144112,128,2,144340:0:0:0:0:
192,192,144340,128,0,144567:0:0:0:0:
64,192,144567,1,0,0:0:0:0:
320,192,144567,128,2,145022:0:0:0:0:
192,192,144794,1,2,0:0:0:0:
448,192,144794,1,8,0:0:0:0:
192,192,145022,1,2,0:0:0:0:
448,192,145022,1,8,0:0:0:0:
64,192,145249,128,2,145703:0:0:0:0:
320,192,145249,1,0,0:0:0:0:
192,192,145476,1,0,0:0:0:0:
448,192,145703,128,0,146158:0:0:0:0:
320,192,145931,1,2,0:0:0:0:
64,192,145931,1,8,0:0:0:0:
192,192,146158,128,0,146612:0:0:0:0:
64,192,146385,1,2,0:0:0:0:
448,192,146612,128,0,147067:0:0:0:0:
192,192,146840,1,2,0:0:0:0:
64,192,146840,1,8,0:0:0:0:
320,192,147067,128,0,148203:0:0:0:0:
64,192,147294,1,2,0:0:0:0:
192,192,147522,1,0,0:0:0:0:
64,192,147749,1,8,0:0:0:0:
448,192,147749,1,2,0:0:0:0:
192,192,147976,1,0,0:0:0:0:
64,192,148203,1,2,0:0:0:0:
448,192,148203,1,0,0:0:0:0:
192,192,148431,128,0,148658:0:0:0:0:
64,192,148658,1,2,0:0:0:0:
448,192,148658,128,8,148885:0:0:0:0:
64,192,148885,1,2,0:0:0:0:
192,192,148885,1,8,0:0:0:0:
320,192,148999,1,8,0:0:0:0:
448,192,148999,1,2,0:0:0:0:
320,192,149226,1,2,0:0:0:0:
192,192,149226,1,8,0:0:0:0:
64,192,149340,1,8,0:0:0:0:
448,192,149340,1,2,0:0:0:0:
64,192,149567,128,2,149794:0:0:0:0:
448,192,149567,128,8,149794:0:0:0:0:
192,192,149567,128,0,149794:0:0:0:0:
448,192,150022,1,2,0:0:0:0:
192,192,150022,1,8,0:0:0:0:
192,192,150249,1,2,0:0:0:0:
448,192,150249,1,8,0:0:0:0:
192,192,150703,128,0,151385:0:0:0:0:
448,192,151385,1,8,0:0:0:0:
320,192,151385,1,4,0:0:0:0:
64,192,151385,1,2,0:0:0:0:
320,192,151612,128,0,151726:0:0:0:0:
448,192,151840,1,2,0:0:0:0:
192,192,151840,128,0,151953:0:0:0:0:
192,192,152067,128,0,152181:0:0:0:0:
64,192,152294,1,2,0:0:0:0:
320,192,152294,1,8,0:0:0:0:
192,192,152408,1,0,0:0:0:0:
448,192,152522,1,0,0:0:0:0:
192,192,152635,1,0,0:0:0:0:
64,192,152749,128,2,152976:0:0:0:0:
320,192,152749,1,0,0:0:0:0:
448,192,152976,128,0,153203:0:0:0:0:
64,192,153203,128,2,153431:0:0:0:0:
320,192,153203,1,8,0:0:0:0:
448,192,153431,128,0,153658:0:0:0:0:
192,192,153658,128,0,153772:0:0:0:0:
64,192,153658,1,2,0:0:0:0:
192,192,153885,128,8,153999:0:0:0:0:
448,192,154112,1,2,0:0:0:0:
320,192,154112,1,8,0:0:0:0:
64,192,154226,1,0,0:0:0:0:
320,192,154340,1,0,0:0:0:0:
64,192,154453,1,0,0:0:0:0:
448,192,154567,1,0,0:0:0:0:
192,192,154567,128,2,154794:0:0:0:0:
64,192,154794,128,0,154908:0:0:0:0:
192,192,155022,128,2,155249:0:0:0:0:
448,192,155022,1,8,0:0:0:0:
64,192,155249,128,0,155362:0:0:0:0:
448,192,155476,128,0,155590:0:0:0:0:
320,192,155476,1,2,0:0:0:0:
448,192,155703,128,0,155817:0:0:0:0:
192,192,155931,1,2,0:0:0:0:
64,192,155931,1,8,0:0:0:0:
448,192,156044,1,0,0:0:0:0:
320,192,156158,1,0,0:0:0:0:
192,192,156272,1,0,0:0:0:0:
448,192,156385,1,2,0:0:0:0:
64,192,156385,128,0,156612:0:0:0:0:
320,192,156612,128,0,156840:0:0:0:0:
64,192,156840,128,8,157067:0:0:0:0:
192,192,156840,1,2,0:0:0:0:
320,192,157067,128,0,157294:0:0:0:0:
448,192,157294,128,0,157408:0:0:0:0:
192,192,157294,1,2,0:0:0:0:
448,192,157522,128,0,157635:0:0:0:0:
64,192,157749,1,8,0:0:0:0:
192,192,157749,1,2,0:0:0:0:
320,192,157862,1,0,0:0:0:0:
192,192,157976,1,0,0:0:0:0:
320,192,158090,1,0,0:0:0:0:
448,192,158203,128,2,158431:0:0:0:0:
192,192,158203,1,0,0:0:0:0:
320,192,158431,1,0,0:0:0:0:
448,192,158658,128,8,158885:0:0:0:0:
192,192,158658,1,2,0:0:0:0:
64,192,158885,1,0,0:0:0:0:
192,192,158999,1,0,0:0:0:0:
448,192,159112,1,2,0:0:0:0:
320,192,159112,1,0,0:0:0:0:
64,192,159340,128,0,159567:0:0:0:0:
320,192,159567,1,8,0:0:0:0:
192,192,159567,1,2,0:0:0:0:
64,192,159794,128,0,160022:0:0:0:0:
320,192,160022,1,2,0:0:0:0:
448,192,160022,1,0,0:0:0:0:
192,192,160249,1,0,0:0:0:0:
64,192,160476,1,8,0:0:0:0:
448,192,160476,1,2,0:0:0:0:
320,192,160703,128,0,161385:0:0:0:0:
192,192,160931,1,2,0:0:0:0:
64,192,160931,1,0,0:0:0:0:
448,192,161158,1,8,0:0:0:0:
192,192,161385,1,8,0:0:0:0:
448,192,161385,1,2,0:0:0:0:
320,192,161612,128,0,161840:0:0:0:0:
64,192,161840,128,2,162067:0:0:0:0:
192,192,161840,1,0,0:0:0:0:
448,192,162067,1,0,0:0:0:0:
64,192,162294,128,8,162522:0:0:0:0:
320,192,162294,1,2,0:0:0:0:
448,192,162522,1,0,0:0:0:0:
320,192,162749,1,2,0:0:0:0:
64,192,162749,128,0,162976:0:0:0:0:
448,192,162976,1,0,0:0:0:0:
448,192,163203,1,8,0:0:0:0:
320,192,163203,1,2,0:0:0:0:
64,192,163431,1,0,0:0:0:0:
320,192,163658,128,2,164112:0:0:0:0:
192,192,164112,128,8,164567:0:0:0:0:
448,192,164112,1,2,0:0:0:0:
64,192,164567,128,2,165022:0:0:0:0:
448,192,164567,1,0,0:0:0:0:
320,192,164794,1,2,0:0:0:0:
448,192,164794,1,8,0:0:0:0:
192,192,165022,1,8,0:0:0:0:
320,192,165022,1,2,0:0:0:0:
64,192,165249,128,0,165931:0:0:0:0:
448,192,165931,1,8,0:0:0:0:
192,192,165931,1,2,0:0:0:0:
320,192,165931,1,4,0:0:0:0:
192,192,166158,128,0,166385:0:0:0:0:
64,192,166385,1,2,0:0:0:0:
320,192,166385,128,0,166612:0:0:0:0:
192,192,166612,1,0,0:0:0:0:
320,192,166726,1,0,0:0:0:0:
448,192,166840,1,8,0:0:0:0:
64,192,166840,1,2,0:0:0:0:
192,192,167067,128,0,167181:0:0:0:0:
64,192,167294,128,2,167522:0:0:0:0:
320,192,167294,1,0,0:0:0:0:
448,192,167522,128,0,167749:0:0:0:0:
64,192,167749,128,8,167976:0:0:0:0:
320,192,167749,1,2,0:0:0:0:
448,192,167976,128,0,168203:0:0:0:0:
192,192,168203,128,2,168317:0:0:0:0:
64,192,168203,1,0,0:0:0:0:
192,192,168431,128,0,168544:0:0:0:0:
64,192,168658,1,8,0:0:0:0:
448,192,168658,1,2,0:0:0:0:
320,192,168772,1,0,0:0:0:0:
64,192,168885,1,0,0:0:0:0:
320,192,168999,1,0,0:0:0:0:
192,192,169112,1,2,0:0:0:0:
448,192,169112,128,0,169340:0:0:0:0:
320,192,169340,128,0,169453:0:0:0:0:
448,192,169567,128,8,169794:0:0:0:0:
192,192,169567,1,2,0:0:0:0:
320,192,169794,128,0,169908:0:0:0:0:
64,192,170022,1,2,0:0:0:0:
448,192,170022,1,0,0:0:0:0:
192,192,170249,1,0,0:0:0:0:
320,192,170476,1,2,0:0:0:0:
192,192,170476,1,8,0:0:0:0:
192,192,170703,1,0,0:0:0:0:
448,192,170931,1,2,0:0:0:0:
64,192,170931,1,0,0:0:0:0:
320,192,171158,1,0,0:0:0:0:
448,192,171272,1,0,0:0:0:0:
192,192,171385,1,8,0:0:0:0:
64,192,171385,1,2,0:0:0:0:
64,192,171612,128,0,171726:0:0:0:0:
320,192,171726,128,0,171840:0:0:0:0:
448,192,171840,1,0,0:0:0:0:
192,192,171840,128,2,171953:0:0:0:0:
64,192,172067,1,8,0:0:0:0:
320,192,172067,1,0,0:0:0:0:
448,192,172294,1,8,0:0:0:0:
320,192,172294,1,2,0:0:0:0:
192,192,172522,128,0,172749:0:0:0:0:
448,192,172749,1,2,0:0:0:0:
64,192,172749,1,0,0:0:0:0:
192,192,172976,1,0,0:0:0:0:
192,192,173203,1,8,0:0:0:0:
448,192,173203,1,2,0:0:0:0:
64,192,173431,128,0,173885:0:0:0:0:
448,192,173658,1,2,0:0:0:0:
320,192,173885,128,0,174112:0:0:0:0:
64,192,174112,1,2,0:0:0:0:
448,192,174112,1,8,0:0:0:0:
192,192,174340,128,0,174794:0:0:0:0:
448,192,174567,1,2,0:0:0:0:
64,192,174794,128,0,175022:0:0:0:0:
320,192,175022,1,2,0:0:0:0:
448,192,175022,1,8,0:0:0:0:
192,192,175249,1,0,0:0:0:0:
320,192,175476,128,2,175703:0:0:0:0:
64,192,175476,1,0,0:0:0:0:
192,192,175703,1,0,0:0:0:0:
320,192,175931,1,2,0:0:0:0:
448,192,175931,1,8,0:0:0:0:
448,192,176158,1,8,0:0:0:0:
192,192,176158,128,2,176612:0:0:0:0:
64,192,176158,128,4,176612:0:0:0:0:
64,192,177522,1,2,0:0:0:0:
64,192,177749,1,2,0:0:0:0:
448,192,177976,128,8,178431:0:0:0:0:
320,192,177976,128,4,178431:0:0:0:0:
192,192,178431,1,4,0:0:0:0:
64,192,178431,1,8,0:0:0:0:
320,192,179567,1,8,0:0:0:0:
192,192,179567,1,4,0:0:0:0:
64,192,179567,1,2,0:0:0:0:
320,192,180022,1,8,0:0:0:0:
448,192,180022,1,4,0:0:0:0:
448,192,181158,1,2,0:0:0:0:
192,192,181385,1,0,0:0:0:70:LR_Snare Drum.wav
320,192,181612,128,4,182067:0:0:0:0:
192,192,181612,128,8,182067:0:0:0:0:
64,192,182067,1,4,0:0:0:0:
448,192,182067,1,8,0:0:0:0:
448,192,182976,1,0,0:0:0:50:LR_Tom Hit.wav
192,192,183203,1,0,0:0:0:30:LR_Snare Drum 2.wav
320,192,183317,1,0,0:0:0:70:LR_Snare Drum.wav
192,192,183431,1,0,0:0:0:70:LR_Snare Drum 3.wav
64,192,183658,1,10,0:0:0:0:
320,192,183885,1,0,0:0:0:0:
64,192,184112,1,10,0:0:0:0:
448,192,184340,1,0,0:0:0:30:LR_Tom Hit.wav
192,192,184567,1,10,0:0:0:0:
320,192,184794,1,0,0:0:0:0:
192,192,185022,1,10,0:0:0:0:
448,192,185249,1,0,0:0:0:0:
320,192,185476,1,10,0:0:0:0:
64,192,185703,1,0,0:0:0:0:
320,192,185931,1,10,0:0:0:0:
192,192,186158,1,0,0:0:0:50:LR_Tom Hit.wav
448,192,186385,1,10,0:0:0:0:
64,192,186612,1,0,0:0:0:0:
448,192,186840,1,10,0:0:0:0:
320,192,187067,1,0,0:0:0:0:
192,192,187294,1,2,0:0:0:0:
64,192,187294,1,8,0:0:0:0:
192,192,187522,1,8,0:0:0:0:
64,192,187522,1,0,0:0:0:0:
448,192,187749,1,8,0:0:0:0:
320,192,187749,1,2,0:0:0:0:
448,192,187976,1,8,0:0:0:0:
320,192,187976,1,0,0:0:0:0:
192,192,188203,1,8,0:0:0:0:
64,192,188203,1,2,0:0:0:0:
192,192,188431,1,8,0:0:0:0:
64,192,188431,1,0,0:0:0:0:
448,192,188658,1,2,0:0:0:0:
320,192,188658,1,8,0:0:0:0:
448,192,188885,1,8,0:0:0:0:
320,192,188885,1,0,0:0:0:0:
64,192,189112,1,10,0:0:0:0:
448,192,189226,1,8,0:0:0:0:
64,192,189340,1,8,0:0:0:0:
448,192,189453,1,8,0:0:0:0:
64,192,189567,1,10,0:0:0:0:
448,192,189681,1,8,0:0:0:0:
64,192,189794,1,8,0:0:0:0:
448,192,189908,1,8,0:0:0:0:
192,192,190022,1,8,0:0:0:0:
320,192,190135,1,0,0:0:0:50:LR_Snare Drum 3.wav
192,192,190249,1,0,0:0:0:50:LR_Snare Drum 3.wav
320,192,190362,1,0,0:0:0:50:LR_Snare Drum 3.wav
192,192,190476,1,0,0:0:0:50:LR_Snare Drum 3.wav
320,192,190590,1,0,0:0:0:50:LR_Snare Drum 3.wav
192,192,190703,128,6,191385:0:0:0:0:
448,192,191385,1,8,0:0:0:0:
64,192,191385,1,2,0:0:0:0:
320,192,191385,1,4,0:0:0:0:
448,192,191612,128,0,191840:0:0:0:0:
320,192,191840,1,0,0:0:0:0:
64,192,191840,128,2,192067:0:0:0:0:
448,192,192067,128,0,192181:0:0:0:0:
192,192,192181,128,0,192294:0:0:0:0:
64,192,192294,1,8,0:0:0:0:
320,192,192294,128,2,192408:0:0:0:0:
192,192,192522,128,0,192635:0:0:0:0:
64,192,192749,1,2,0:0:0:0:
320,192,192749,128,0,192976:0:0:0:0:
192,192,192976,128,8,193203:0:0:0:0:
320,192,193203,128,8,193431:0:0:0:0:
64,192,193203,1,2,0:0:0:0:
192,192,193431,128,0,193658:0:0:0:0:
448,192,193658,128,2,193772:0:0:0:0:
64,192,193658,1,0,0:0:0:0:
448,192,193885,128,0,193999:0:0:0:0:
320,192,194112,1,8,0:0:0:0:
64,192,194112,1,2,0:0:0:0:
448,192,194226,1,0,0:0:0:0:
192,192,194340,1,0,0:0:0:0:
448,192,194453,1,0,0:0:0:0:
64,192,194567,1,2,0:0:0:0:
192,192,194567,128,0,194794:0:0:0:0:
320,192,194794,128,0,194908:0:0:0:0:
192,192,195022,128,8,195249:0:0:0:0:
448,192,195022,1,2,0:0:0:0:
320,192,195249,128,0,195362:0:0:0:0:
192,192,195476,1,2,0:0:0:0:
64,192,195476,1,0,0:0:0:0:
320,192,195703,1,0,0:0:0:0:
64,192,195931,1,2,0:0:0:0:
320,192,195931,1,8,0:0:0:0:
320,192,196158,128,0,196385:0:0:0:0:
64,192,196385,1,2,0:0:0:0:
192,192,196385,1,0,0:0:0:0:
320,192,196612,1,0,0:0:0:0:
192,192,196726,1,0,0:0:0:0:
64,192,196840,1,8,0:0:0:0:
448,192,196840,1,2,0:0:0:0:
448,192,197067,128,0,197181:0:0:0:0:
192,192,197181,128,0,197294:0:0:0:0:
64,192,197294,1,0,0:0:0:0:
320,192,197294,128,2,197408:0:0:0:0:
448,192,197522,1,8,0:0:0:0:
192,192,197522,128,0,197635:0:0:0:0:
192,192,197749,128,8,197862:0:0:0:0:
64,192,197749,1,2,0:0:0:0:
320,192,197976,128,0,198203:0:0:0:0:
64,192,198203,1,2,0:0:0:0:
448,192,198203,1,0,0:0:0:0:
320,192,198431,1,0,0:0:0:0:
320,192,198658,1,8,0:0:0:0:
448,192,198658,1,2,0:0:0:0:
192,192,198885,128,0,199340:0:0:0:0:
448,192,199112,1,2,0:0:0:0:
320,192,199340,128,0,199567:0:0:0:0:
64,192,199567,1,8,0:0:0:0:
448,192,199567,1,2,0:0:0:0:
192,192,199794,128,0,200249:0:0:0:0:
448,192,200022,1,2,0:0:0:0:
64,192,200249,128,0,200476:0:0:0:0:
320,192,200476,1,2,0:0:0:0:
448,192,200476,1,8,0:0:0:0:
64,192,200703,128,0,201158:0:0:0:0:
192,192,200931,1,2,0:0:0:0:
448,192,201158,128,0,201385:0:0:0:0:
192,192,201385,1,2,0:0:0:0:
320,192,201385,1,8,0:0:0:0:
64,192,201612,1,4,0:0:0:0:
448,192,201612,1,0,0:0:0:70:LR_Snare Drum.wav
320,192,201612,1,0,0:0:0:0:
192,192,201840,1,2,0:0:0:0:
320,192,201840,1,0,0:0:0:0:
64,192,202067,1,0,0:0:0:0:
192,192,202294,1,2,0:0:0:0:
448,192,202294,128,8,202522:0:0:0:0:
64,192,202522,128,0,202749:0:0:0:0:
320,192,202749,128,2,202976:0:0:0:0:
192,192,202976,128,0,203090:0:0:0:0:
320,192,203203,1,2,0:0:0:0:
448,192,203203,1,8,0:0:0:0:
64,192,203431,128,0,204340:0:0:0:0:
448,192,203658,1,2,0:0:0:0:
320,192,203885,1,0,0:0:0:0:
192,192,204112,1,2,0:0:0:0:
448,192,204112,1,8,0:0:0:0:
448,192,204340,128,0,204567:0:0:0:0:
192,192,204567,128,2,204794:0:0:0:0:
320,192,204794,128,0,205022:0:0:0:0:
64,192,205022,1,8,0:0:0:0:
448,192,205022,1,2,0:0:0:0:
320,192,205249,128,0,205931:0:0:0:0:
448,192,205476,1,2,0:0:0:0:
64,192,205703,1,0,0:0:0:0:
192,192,205931,1,8,0:0:0:0:
448,192,205931,128,2,206158:0:0:0:0:
64,192,206158,128,0,206385:0:0:0:0:
192,192,206385,1,2,0:0:0:0:
320,192,206612,128,0,206840:0:0:0:0:
64,192,206840,1,2,0:0:0:0:
192,192,206840,1,8,0:0:0:0:
448,192,207067,1,4,0:0:0:0:
320,192,207067,1,2,0:0:0:0:
64,192,207067,1,0,0:0:0:0:
448,192,207294,1,2,0:0:0:0:
192,192,207294,1,8,0:0:0:0:
448,192,207522,1,2,0:0:0:0:
192,192,207522,1,4,0:0:0:0:
64,192,207522,1,0,0:0:0:0:
64,192,212522,128,0,212635:0:0:0:0:
192,192,213431,128,0,213544:0:0:0:0:
448,192,214340,128,0,214453:0:0:0:0:
448,192,216840,1,10,0:0:0:0:
448,192,217749,1,10,0:0:0:0:
448,192,218658,1,10,0:0:0:0:
320,192,219340,1,2,0:0:0:0:
448,192,219567,1,10,0:0:0:0:
192,192,220476,1,2,0:0:0:0:
192,192,221385,1,2,0:0:0:0:
192,192,222294,1,2,0:0:0:0:
320,192,222976,1,2,0:0:0:0:
192,192,223203,1,2,0:0:0:0:
320,192,223203,1,8,0:0:0:0:
192,192,223431,1,2,0:0:0:0:
320,192,223431,1,4,0:0:0:0:
64,192,223431,128,0,224112:0:0:0:0:
320,192,223885,1,0,0:0:0:0:
448,192,224112,1,2,0:0:0:0:
192,192,224112,1,8,0:0:0:0:
320,192,224340,128,0,224567:0:0:0:0:
64,192,224567,1,2,0:0:0:0:
192,192,224567,1,0,0:0:0:0:
192,192,224794,128,0,225022:0:0:0:0:
320,192,225022,1,8,0:0:0:0:
448,192,225022,1,2,0:0:0:0:
64,192,225249,128,0,225931:0:0:0:0:
448,192,225476,1,2,0:0:0:0:
320,192,225476,1,0,0:0:0:0:
320,192,225703,1,0,0:0:0:0:
192,192,225931,1,2,0:0:0:0:
448,192,225931,1,8,0:0:0:0:
320,192,226158,128,0,226385:0:0:0:0:
64,192,226385,1,2,0:0:0:0:
192,192,226385,1,0,0:0:0:0:
192,192,226612,128,0,226840:0:0:0:0:
64,192,226840,1,2,0:0:0:0:
448,192,226840,128,8,227067:0:0:0:0:
192,192,227067,128,0,227294:0:0:0:0:
448,192,227294,1,2,0:0:0:0:
320,192,227294,1,0,0:0:0:0:
64,192,227522,1,0,0:0:0:0:
192,192,227749,1,2,0:0:0:0:
320,192,227749,1,8,0:0:0:0:
64,192,227976,1,0,0:0:0:0:
448,192,228203,1,2,0:0:0:0:
320,192,228203,1,0,0:0:0:0:
192,192,228431,1,0,0:0:0:0:
448,192,228658,1,2,0:0:0:0:
64,192,228658,1,8,0:0:0:0:
320,192,228885,1,0,0:0:0:0:
192,192,229112,1,2,0:0:0:0:
64,192,229112,1,0,0:0:0:0:
448,192,229340,128,0,229567:0:0:0:0:
64,192,229567,1,2,0:0:0:0:
320,192,229567,128,8,229794:0:0:0:0:
64,192,229794,128,0,230022:0:0:0:0:
448,192,230022,128,2,230249:0:0:0:0:
320,192,230022,1,0,0:0:0:0:
192,192,230249,128,0,230476:0:0:0:0:
64,192,230476,1,8,0:0:0:0:
320,192,230476,1,2,0:0:0:0:
448,192,230703,128,0,231385:0:0:0:0:
64,192,230931,1,2,0:0:0:0:
192,192,230931,1,0,0:0:0:0:
192,192,231158,1,0,0:0:0:0:
64,192,231385,1,8,0:0:0:0:
320,192,231385,1,2,0:0:0:0:
192,192,231612,128,0,231840:0:0:0:0:
320,192,231840,1,2,0:0:0:0:
448,192,231840,1,0,0:0:0:0:
320,192,232067,128,0,232294:0:0:0:0:
192,192,232294,1,8,0:0:0:0:
64,192,232294,1,2,0:0:0:0:
448,192,232522,128,0,233203:0:0:0:0:
192,192,232749,1,2,0:0:0:0:
64,192,232749,1,0,0:0:0:0:
192,192,232976,1,0,0:0:0:0:
64,192,233203,1,8,0:0:0:0:
320,192,233203,1,2,0:0:0:0:
192,192,233431,128,0,233658:0:0:0:0:
448,192,233658,1,2,0:0:0:0:
320,192,233658,1,0,0:0:0:0:
320,192,233885,128,0,234112:0:0:0:0:
64,192,234112,128,8,234340:0:0:0:0:
448,192,234112,1,2,0:0:0:0:
320,192,234340,128,0,234567:0:0:0:0:
64,192,234567,1,2,0:0:0:0:
192,192,234567,1,0,0:0:0:0:
448,192,234794,1,0,0:0:0:0:
64,192,235022,1,8,0:0:0:0:
320,192,235022,1,2,0:0:0:0:
192,192,235249,128,0,235703:0:0:0:0:
448,192,235476,1,2,0:0:0:0:
320,192,235476,1,0,0:0:0:0:
320,192,235703,128,0,235931:0:0:0:0:
192,192,235931,1,8,0:0:0:0:
64,192,235931,1,2,0:0:0:0:
448,192,236158,128,0,236840:0:0:0:0:
192,192,236385,1,2,0:0:0:0:
64,192,236385,1,0,0:0:0:0:
64,192,236612,1,0,0:0:0:0:
320,192,236840,1,8,0:0:0:0:
192,192,236840,1,2,0:0:0:0:
64,192,237067,128,0,237522:0:0:0:0:
448,192,237294,1,2,0:0:0:0:
320,192,237294,1,0,0:0:0:0:
192,192,237522,1,0,0:0:0:70:LR_Snare Drum.wav
320,192,237522,1,0,0:0:0:0:
192,192,237749,1,8,0:0:0:0:
320,192,237749,1,2,0:0:0:0:
64,192,237976,128,2,242522:0:0:0:0:
320,192,237976,128,4,242522:0:0:0:0:
448,192,237976,128,0,242522:0:0:0:0:
