osu file format v5

[General]
AudioFilename: 19-vulnerability.mp3
AudioLeadIn: 3000
PreviewTime: -1
Countdown: 0
SampleSet: Normal
StackLeniency: 0.7
Mode: 0
LetterboxInBreaks: 1

[Metadata]
Title:Vulnerability
Artist:Trauma Center: Second Opinion
Creator:Larto
Version:X-7: Savato
Source:
Tags:

[Difficulty]
HPDrainRate:4
CircleSize:5
OverallDifficulty:7
SliderMultiplier:1.3
SliderTickRate:1

[Events]
//Background and Video events
0,0,"tcsecondwallpi1.jpg"
//Break Periods
2,46621,53804
2,86198,91573
2,108306,108656
//Storyboard Layer 0 (Background)
//Storyboard Layer 1 (Failing)
//Storyboard Layer 2 (Passing)
//Storyboard Layer 3 (Foreground)
//Storyboard Sound Samples
//Background Colour Transformations
3,100,163,162,255
3,100,163,162,255
3,100,163,162,255
3,100,163,162,255
3,100,163,162,255
3,100,163,162,255
3,100,163,162,255
3,100,163,162,255
3,100,163,162,255
3,100,163,162,255
3,100,163,162,255
3,100,163,162,255
3,100,163,162,255
3,100,163,162,255
3,100,163,162,255
3,100,163,162,255
3,100,163,162,255
3,100,163,162,255
3,100,163,162,255
3,100,163,162,255
3,100,163,162,255
3,100,163,162,255
3,100,163,162,255
3,100,163,162,255
3,100,163,162,255
3,100,163,162,255
3,100,163,162,255
3,100,163,162,255
3,100,163,162,255
3,100,163,162,255
3,100,163,162,255
3,100,163,162,255
3,100,163,162,255
3,100,163,162,255
3,100,163,162,255
3,100,163,162,255
3,100,163,162,255
3,100,163,162,255
3,100,163,162,255
3,100,163,162,255
3,100,163,162,255
3,100,163,162,255
3,100,163,162,255
3,100,163,162,255
3,100,163,162,255
3,100,163,162,255
3,100,163,162,255
3,100,163,162,255
3,100,163,162,255
3,100,163,162,255
3,100,163,162,255
3,100,163,162,255
3,100,163,162,255
3,100,163,162,255
3,100,163,162,255
3,100,163,162,255
3,100,163,162,255
3,100,163,162,255
3,100,163,162,255
3,100,163,162,255
3,100,163,162,255
3,100,163,162,255
3,100,163,162,255
3,100,163,162,255
3,100,163,162,255
3,100,163,162,255
3,100,163,162,255
3,100,163,162,255
3,100,163,162,255

[TimingPoints]
2893,362.800822348531,4,1,1,100,1
22484,362.800822348531,4,2,1,100,1
46428,362.800822348531,4,1,1,100,1
103750,362.800822348531,4,2,1,100,1
127694,362.800822348531,4,1,1,100,1

[Colours]
Combo1 : 32,0,159
Combo2 : 240,24,0
Combo3 : 40,156,20
Combo4 : 134,134,134

[HitObjects]
376,112,5795,2,0,B|259:405|128:88,1,390
56,208,7246,1,0
80,264,7428,1,0
136,296,7609,1,0
200,312,7790,1,0
264,320,7972,1,0
328,312,8153,1,0
384,280,8335,1,0
360,152,8697,6,0,B|248:-142|120:160,1,390
56,208,10149,1,0
80,264,10331,1,0
136,296,10512,1,0
200,312,10693,1,0
264,320,10875,1,0
328,312,11056,1,0
384,280,11238,1,0
272,208,11600,2,0,B|248:184,4,32.5
256,272,12144,5,0
288,216,12325,1,0
224,216,12507,1,0
256,336,12870,5,4
256,272,13051,1,4
256,208,13232,1,4
256,144,13414,1,4
256,80,13595,2,6,B|105:80|105:281|264:280,1,325
256,216,14684,1,4
320,216,14865,1,4
320,280,15046,1,6
384,280,15228,1,4
384,280,15409,1,0
256,280,15772,5,4
256,192,15953,12,4,16860
256,64,17405,1,0
256,64,17586,1,2
256,64,17767,1,4
256,192,18130,1,0
256,192,18312,1,2
256,192,18493,1,4
256,320,18856,1,0
208,272,19037,1,2
256,224,19219,1,4
296,272,19400,1,2
256,320,19581,1,4
208,272,19763,1,0
256,224,19944,1,4
296,272,20126,1,2
360,272,20307,5,0
424,272,20488,1,2
424,208,20670,1,4
312,144,21033,1,0
248,144,21214,1,2
248,208,21395,1,4
256,336,21758,1,0
256,272,21940,1,2
256,208,22121,1,4
256,144,22302,1,2
320,144,22484,5,4
24,304,23209,5,2
72,256,23391,1,2
112,304,23572,1,2
152,256,23754,1,2
200,304,23935,1,0
112,208,24298,1,2
72,256,24479,1,4
112,304,24661,1,2
152,256,24842,1,4
200,304,25023,1,2
152,256,25205,1,4
200,208,25386,6,2,B|117:51|67:135|21:214,1,260
24,272,26293,2,0,B|24:320,2,32.5
88,272,26656,1,4
152,272,26837,1,4
256,192,28289,12,0,29014
256,192,29740,1,4
224,248,29921,1,0
184,200,30103,1,0
192,136,30284,1,2
240,96,30465,1,4
304,104,30647,1,0
328,160,30828,1,2
336,224,31010,1,0
304,280,31191,1,4
248,304,31372,1,0
184,288,31554,1,0
136,240,31735,1,2
112,184,31917,1,4
128,128,32098,1,2
176,96,32279,1,4
256,192,32461,12,0,33005
256,192,33186,12,0,33731
256,192,33912,12,4,34456
232,240,34819,1,0
256,176,35000,1,2
280,240,35182,1,0
224,200,35363,1,2
288,200,35545,1,4
256,328,35907,1,0
192,304,36089,1,2
160,248,36270,1,2
256,328,36633,1,0
312,304,36814,1,2
352,248,36996,2,2,B|288:248,4,32.5
224,240,37721,5,0
224,176,37903,1,2
288,176,38084,1,0
288,240,38266,1,2
256,296,38447,1,4
256,168,38810,1,0
256,104,38991,1,2
256,40,39173,1,6
256,168,39535,1,0
256,232,39717,1,2
256,296,39898,2,4,B|256:392,4,65
256,232,40805,6,0,B|216:312,1,65
192,344,41168,1,2
152,288,41349,1,4
256,120,41894,5,0
256,184,42075,1,0
256,352,42801,5,2
152,272,43163,1,2
256,184,43526,1,2
352,272,43889,1,2
256,360,44252,1,2
152,272,44615,1,2
256,184,44977,1,0
256,192,45159,12,4,46429
72,192,55136,6,0,B|272:192,1,195
464,192,56224,1,2
336,192,56587,1,0
272,192,56768,1,2
208,192,56950,1,2
224,256,57131,1,0
280,288,57313,1,2
336,256,57494,1,2
336,192,57675,1,2
272,192,57857,1,4
256,192,58038,12,2,58764
256,192,58764,12,4,59490
168,192,60215,1,0
232,192,60396,1,2
232,128,60578,1,0
304,128,60759,1,2
328,192,60941,2,4,B|224:289|103:189|103:189|80:168,1,260
88,320,62029,1,0
160,320,62210,1,2
232,320,62392,1,0
256,176,62755,5,2
184,56,63117,1,2
328,56,63480,1,2
256,176,63843,2,4,B|256:104,4,64.9999999999999
256,248,64750,1,0
256,320,64931,1,2
328,320,65113,1,0
256,320,65294,1,2
184,320,65476,1,0
184,248,65657,1,2
184,176,65838,5,4
256,176,66020,2,4,B|392:176,1,130
384,248,66564,1,4
312,248,66745,2,4,B|176:248,1,130
184,320,67290,1,0
256,320,67471,2,2,B|392:320,1,130
384,248,68015,1,4
312,248,68197,2,2,B|312:112,1,130
256,248,68922,5,0
328,248,69104,1,2
328,176,69285,1,0
256,176,69466,1,2
184,176,69648,2,4,B|99:189|-39:192|129:236|208:248,2,260
256,176,71280,1,2
184,176,71462,1,0
256,176,71643,1,2
327,176,71825,2,4,B|412:189|550:192|382:236|303:248,2,260
256,176,73457,1,2
184,176,73639,1,0
216,232,73820,1,2
152,232,74001,1,4
256,192,74364,12,0,74727
256,192,75090,12,0,75453
256,328,75815,1,0
256,264,75997,1,2
256,200,76178,1,0
256,136,76360,1,2
256,72,76541,1,0
256,136,76722,1,2
256,200,76904,2,4,B|160:152|280:56|324:147|248:248|152:192|248:80,1,260
256,232,77992,1,0
208,352,78355,1,0
320,280,78718,1,0
192,280,79081,1,0
296,352,79443,1,0
256,104,79806,1,0
256,104,80169,1,2
256,104,80350,1,2
256,104,80532,1,2
256,104,80713,1,2
256,104,80895,1,2
256,104,81076,1,4
256,104,81257,5,0
256,104,81439,1,0
256,104,81620,2,0,B|160:40|280:16|303:40|326:78|280:136,1,195
256,232,82527,1,4
256,104,82890,2,2,B|256:32,1,65
256,232,83434,2,4,B|256:296,4,32.5
64,192,84341,1,4
128,192,84523,1,4
192,192,84704,5,0
256,192,84885,1,2
320,192,85067,1,0
384,192,85248,1,2
448,192,85430,1,4
256,240,85974,1,4
208,192,92867,6,4,B|304:192,3,65
336,192,93592,1,0
400,192,93774,1,0
272,192,94137,1,4
264,256,94318,2,4,B|352:256,2,64.9999999999999
200,256,94863,2,2,B|56:256,1,130
104,168,95407,1,2
144,128,95588,1,2
200,128,95770,1,4
240,168,95951,1,4
200,216,96132,1,2
144,216,96314,1,2
176,264,96495,1,4
176,320,96677,1,2
256,240,97039,5,0
256,296,97221,1,0
256,192,97402,12,0,98309
256,192,98491,12,0,99402
256,192,99579,12,4,100486
256,192,100849,5,4
256,192,101030,5,0
80,192,101574,5,0
80,248,101756,1,4
136,248,101937,1,0
136,192,102119,1,4
192,192,102300,1,0
192,248,102481,1,4
248,248,102663,2,6,B|479:261|552:208|289:186|232:192,1,390
40,192,104477,5,2
72,144,104658,1,2
128,144,104840,1,2
160,192,105021,1,2
100,201,105202,1,6
256,280,105747,1,2
256,336,105928,1,2
208,304,106109,1,2
208,248,106291,1,2
256,216,106472,1,0
304,240,106654,2,4,B|304:312,3,64.9999999999999
256,336,107379,5,2
208,304,107561,1,2
208,248,107742,1,2
256,216,107923,1,2
304,240,108105,1,4
256,192,109556,5,4
224,240,109737,1,2
256,192,109919,1,2
288,144,110100,1,2
256,192,110282,2,4,B|216:264,1,64.9999999999999
192,296,110644,2,4,B|232:224,1,64.9999999999999
256,192,111007,1,2
256,248,111551,1,2
288,200,111733,2,4,B|192:200,1,65
256,88,112277,1,2
224,136,112458,2,4,B|304:136,1,64.9999999999999
184,192,113003,1,2
240,192,113184,1,4
296,192,113365,1,2
352,192,113547,1,4
256,192,113910,12,0,114273
256,192,114635,12,0,114998
256,192,115361,12,0,115724
256,192,116086,12,0,116812
256,320,117175,1,0
192,320,117356,1,2
128,320,117538,1,4
128,192,117900,1,0
192,192,118082,1,2
256,192,118263,2,4,B|328:192,3,64.9999999999999
320,256,118989,1,2
256,256,119170,1,4
192,256,119352,1,2
128,256,119533,1,4
64,256,119714,1,4
96,128,120077,6,4,B|168:128,2,64.9999999999999
224,128,120803,1,2
288,128,120984,1,2
288,192,121166,1,2
352,192,121347,1,4
352,256,121528,1,4
416,256,121710,1,4
416,320,121891,1,2
352,320,122073,1,2
288,320,122254,1,2
288,256,122435,1,4
224,256,122617,1,4
256,64,123161,5,0
256,64,123342,1,0
256,320,124068,5,2
256,192,124431,1,2
256,64,124794,1,2
256,192,125156,1,2
256,320,125519,1,2
128,320,125882,1,2
256,320,126245,1,4
320,320,126426,1,4
384,320,126608,1,4
384,256,126789,1,4
320,256,126970,1,4
256,256,127152,1,4
256,192,127333,1,4
320,192,127515,1,4
384,192,127696,6,4,B|448:120,1,65
352,112,128240,2,4,B|288:184,1,65
256,280,128784,5,4
256,216,128966,1,4
192,216,129147,1,4
192,152,129329,1,4
256,152,129510,1,4
320,152,129691,1,4
320,216,129873,1,4
256,216,130054,1,4
256,280,130236,1,4
256,344,130417,1,4
192,344,130598,6,4,B|96:344,1,64.9999999999999
200,232,131143,6,4,B|280:232,1,64.9999999999999
256,104,131687,5,4
192,104,131868,1,4
128,104,132050,1,4
128,168,132231,1,4
192,168,132412,1,4
256,168,132594,1,4
256,232,132775,1,4
192,232,132957,1,4
128,232,133138,1,4
128,296,133319,1,4
192,296,133501,6,4,B|272:296,1,64.9999999999999
256,168,134045,2,4,B|184:168,1,65
256,192,134589,12,0,135315
256,192,135678,12,0,136404
256,192,136947,5,0
256,192,137854,1,2
128,152,138217,1,4
184,120,138399,1,4
184,184,138580,1,4
240,152,138761,1,4
296,184,138943,1,4
296,120,139124,1,4
296,56,139306,6,2,B|160:56,1,130
168,184,140031,2,2,B|312:184,1,130
424,184,140757,2,2,B|424:24,1,130
312,120,141482,6,6,B|312:32,1,64.9999999999999
248,56,141845,2,6,B|248:152,1,65
184,120,142208,2,2,B|286:269|400:112,1,260
256,88,143296,1,2
192,88,143478,1,2
128,88,143659,1,2
128,216,144022,5,0
256,216,144385,1,2
384,216,144748,1,4
384,88,145110,2,4,B|456:88,4,64.9999999999999,4|4|4|4|4
312,120,146017,1,4
256,152,146199,1,4
200,120,146380,1,4
256,88,146562,1,4
256,24,146743,1,0
312,56,146924,1,4
256,88,147106,1,0
200,56,147287,1,4
256,176,147650,1,4
136,128,148013,1,4
256,80,148376,1,6
376,128,148738,1,2
256,184,149101,1,2
256,312,149464,1,2
256,48,150190,5,0
256,112,150371,1,2
256,176,150552,1,2
256,240,150734,1,2
256,304,150915,2,4,B|322:333|207:392|167:341|240:256,2,195
256,240,152185,1,4
256,176,152366,1,4
256,304,152729,1,4
136,248,153092,5,0
200,248,153273,1,2
264,248,153455,1,2
328,248,153636,1,2
392,248,153818,2,4,B|458:219|343:160|303:211|376:296,2,195
264,248,155269,1,0
256,120,155632,6,4,B|328:120,1,64.9999999999999
320,184,155994,2,4,B|248:184,1,64.9999999999999
256,248,156357,2,4,B|336:248,1,64.9999999999999
320,312,156720,6,2,B|248:312,5,64.9999999999999
248,248,157808,1,2
312,248,157990,1,2
312,184,158171,1,2
248,184,158353,1,2
248,120,158534,1,2
312,120,158715,1,2
312,56,158897,1,0
312,184,159260,1,2
312,56,159622,1,2
120,232,160348,5,4
376,232,161074,5,2
256,184,161436,5,0
256,184,161618,5,4
256,184,161799,5,4
256,184,161981,5,4
256,184,162162,5,4
256,184,162343,5,4
256,184,162525,5,4
