osu file format v5

[General]
AudioFilename: 19-vulnerability.mp3
AudioLeadIn: 1004
PreviewTime: -1
Countdown: 0
SampleSet: Normal
StackLeniency: 0.7
Mode: 0
LetterboxInBreaks: 1

[Metadata]
Title:Vulnerability
Artist:Trauma Center: Second Opinion
Creator:Larto
Version:Death awaits all
Source:
Tags:

[Difficulty]
HPDrainRate:5
CircleSize:4
OverallDifficulty:5
SliderMultiplier:0.5
SliderTickRate:1

[Events]
//Background and Video events
0,0,"tcsecondwallpi1.jpg"
//Break Periods
2,46621,53804
2,86174,91675
//Storyboard Layer 0 (Background)
//Storyboard Layer 1 (Failing)
//Storyboard Layer 2 (Passing)
//Storyboard Layer 3 (Foreground)
//Storyboard Sound Samples
5,2200,3,"Operation.mp3"
5,3500,3,"Operation2.mp3"
5,50430,2,"FirstBreak.mp3"
5,52830,3,"FirstBreak2.mp3"
5,88980,2,"SecondBreak.mp3"
5,90980,3,"SecondBreak2.mp3"
5,50430,1,"BreakFail.mp3"
5,88980,1,"BreakFail.mp3"
//Background Colour Transformations
3,100,163,162,255
3,100,163,162,255
3,100,163,162,255
3,100,163,162,255
3,100,163,162,255
3,100,163,162,255
3,100,163,162,255
3,100,163,162,255
3,100,163,162,255
3,100,163,162,255
3,100,163,162,255
3,100,163,162,255
3,100,163,162,255
3,100,163,162,255
3,100,163,162,255
3,100,163,162,255
3,100,163,162,255
3,100,163,162,255
3,100,163,162,255
3,100,163,162,255
3,100,163,162,255
3,100,163,162,255
3,100,163,162,255
3,100,163,162,255
3,100,163,162,255
3,100,163,162,255
3,100,163,162,255
3,100,163,162,255
3,100,163,162,255
3,100,163,162,255
3,100,163,162,255
3,100,163,162,255
3,100,163,162,255
3,100,163,162,255
3,100,163,162,255
3,100,163,162,255
3,100,163,162,255
3,100,163,162,255
3,100,163,162,255
3,100,163,162,255
3,100,163,162,255
3,100,163,162,255
3,100,163,162,255
3,100,163,162,255
3,100,163,162,255
3,100,163,162,255
3,100,163,162,255
3,100,163,162,255
3,100,163,162,255
3,100,163,162,255
3,100,163,162,255
3,100,163,162,255
3,100,163,162,255
3,100,163,162,255
3,100,163,162,255
3,100,163,162,255
3,100,163,162,255
3,100,163,162,255
3,100,163,162,255
3,100,163,162,255
3,100,163,162,255
3,100,163,162,255
3,100,163,162,255
3,100,163,162,255
3,100,163,162,255
3,100,163,162,255
3,100,163,162,255
3,100,163,162,255
3,100,163,162,255
3,100,163,162,255
3,100,163,162,255
3,100,163,162,255
3,100,163,162,255
3,100,163,162,255
3,100,163,162,255
3,100,163,162,255
3,100,163,162,255
3,100,163,162,255
3,100,163,162,255
3,100,163,162,255
3,100,163,162,255
3,100,163,162,255
3,100,163,162,255
3,100,163,162,255
3,100,163,162,255
3,100,163,162,255
3,100,163,162,255
3,100,163,162,255
3,100,163,162,255
3,100,163,162,255
3,100,163,162,255
3,100,163,162,255
3,100,163,162,255
3,100,163,162,255
3,100,163,162,255
3,100,163,162,255
3,100,163,162,255
3,100,163,162,255
3,100,163,162,255
3,100,163,162,255
3,100,163,162,255
3,100,163,162,255
3,100,163,162,255
3,100,163,162,255
3,100,163,162,255
3,100,163,162,255
3,100,163,162,255
3,100,163,162,255
3,100,163,162,255
3,100,163,162,255
3,100,163,162,255
3,100,163,162,255
3,100,163,162,255
3,100,163,162,255
3,100,163,162,255
3,100,163,162,255
3,100,163,162,255
3,100,163,162,255
3,100,163,162,255
3,100,163,162,255
3,100,163,162,255
3,100,163,162,255
3,100,163,162,255
3,100,163,162,255
3,100,163,162,255
3,100,163,162,255
3,100,163,162,255
3,100,163,162,255
3,100,163,162,255
3,100,163,162,255
3,100,163,162,255
3,100,163,162,255

[TimingPoints]
2893,362.800822348531,4,1,1,100,1
23209,362.800822348531,4,2,1,100,1
46428,362.800822348531,4,1,1,100,1
103750,362.800822348531,4,2,1,100,1
127694,362.800822348531,4,1,1,100,1

[Colours]
Combo1 : 32,0,159
Combo2 : 240,24,0
Combo3 : 40,156,20
Combo4 : 134,134,134

[HitObjects]
160,96,5795,2,0,L|160:288|280:288,1,300
344,288,8697,2,0,L|346:86|237:86|237:86,1,300
256,224,11963,5,0
256,224,12325,1,0
256,143,13051,2,0,B|322:248|199:241|264:176,1,150
255,215,14502,5,0
255,215,14865,1,2
255,215,15228,1,0
184,177,15953,2,0,B|256:274|256:89|348:219,1,200
293,152,18130,5,4
253,155,18493,2,0,B|225:222|292:241|321:286,1,150
235,276,20307,1,4
263,247,20670,2,0,B|291:180|224:161|195:116,1,150
256,192,23209,12,0,24660
211,185,25386,2,0,B|257:230|302:185,2,100
294,48,28289,6,2,B|208:127,1,100
256,186,29740,1,4
256,106,30465,6,0,B|256:188|256:223,2,100
256,182,32642,1,2
293,227,33368,1,4
335,271,34093,1,6
291,228,34819,6,0,B|343:264|386:230,1,100
345,243,36089,1,0
345,243,36270,1,2
345,163,36996,5,0
293,115,37721,2,0,B|345:80|392:120,1,100
347,146,38991,1,0
347,146,39173,1,2
346,216,39898,5,0
286,179,40624,2,0,B|232:122|148:264|104:192,1,200
131,133,42801,2,2,B|192:99,1,50
214,110,43526,2,2,B|272:126,1,50
288,153,44252,2,2,B|324:191,1,50
336,226,44977,1,4
256,192,45159,12,0,46429
230,193,55136,5,0
280,192,55680,1,0
256,128,56224,1,2
304,216,57313,1,2
256,215,57675,5,2
220,215,58038,2,4,B|253:289|364:216|287:131|226:169|265:223,1,200
329,201,60215,5,2
358,182,60578,1,2
380,155,60941,2,4,B|376:94|303:82|309:142|374:208|422:216,1,200
436,159,62755,5,0
415,130,63117,1,2
383,115,63480,1,4
350,101,63843,2,0,B|295:132|261:68,1,100
265,76,64931,1,0
265,76,65294,6,0,B|195:87|174:146,1,100
193,138,66383,1,0
193,138,66745,1,0
137,97,67290,2,2,B|179:170|249:126,1,125
256,192,68922,5,2
256,192,69285,1,2
256,192,69648,12,4,71099
256,192,71825,12,4,73276
256,160,74364,2,0,B|256:216,3,50
184,128,76541,2,0,B|256:170|339:121,1,150
301,111,77992,1,0
271,91,78355,1,0
255,159,79081,5,2
256,229,79806,1,2
256,298,80532,1,4
160,200,81257,6,0,B|257:141|354:210,1,200
344,209,83071,1,0
345,243,83434,1,0
346,277,83797,1,2
344,208,84523,6,0,B|256:273|152:200,1,200
256,192,92867,5,0
256,192,93230,2,0,B|224:256|288:288|256:352,1,150
256,285,94863,2,0,B|289:236|345:296|368:232,1,125
368,244,96132,5,0
368,244,96495,2,0,B|361:197|272:216,1,100
256,192,98491,12,0,100849
256,192,101574,12,4,103751
256,192,104477,1,2
256,156,104840,1,2
256,120,105202,1,4
280,145,105565,6,0,B|224:144|224:144,3,50
255,208,107379,1,2
255,244,107742,1,2
255,279,108105,1,4
127,220,109556,6,0,B|87:169|128:128,1,100
126,128,110644,1,2
126,128,111007,1,4
195,124,111733,6,0,B|356:124|206:271|360:272,1,250
331,288,113910,6,0,B|297:236|339:184,2,100
256,192,116086,12,0,116812
256,192,117356,5,0
256,192,117538,1,2
304,144,118263,2,0,B|259:106|208:144,1,100
193,169,119352,2,0,B|168:184,2,25
209,199,120077,5,0
237,219,120440,1,2
263,241,120803,2,0,B|219:279|167:242,1,100
192,208,121891,2,0,B|246:175|296:216,2,100
141,161,124068,5,0
162,133,124431,1,2
193,118,124794,1,0
226,109,125156,1,2
260,116,125519,1,0
287,137,125882,1,2
312,160,126245,1,4
341,223,126970,2,0,B|264:296,1,100
324,203,128784,6,0,B|258:216,4,50
289,195,130598,5,0
251,194,131143,1,2
256,160,131687,6,0,B|194:161,4,50
256,182,133501,5,0
256,219,134045,1,2
256,192,134589,12,0,136403
256,192,137492,1,2
273,210,138036,2,4,B|225:213,5,25
223,212,139306,6,0,B|261:256|309:206,2,100
214,162,141482,6,0,B|251:101,1,50
276,112,142208,2,2,B|309:142|295:193|259:197,2,100
284,135,144022,5,0
299,154,144385,1,2
302,178,144748,1,2
295,202,145110,2,0,B|252:250|193:194,3,100
185,192,147650,1,0
169,172,148013,1,0
120,112,148557,2,2,B|77:153|125:233,1,125,2|2
184,264,150190,5,0
216,272,150552,1,2
248,272,150915,2,4,B|314:243|330:184|296:127|246:106,1,200
203,114,153092,1,0
184,96,153455,1,2
165,79,153818,2,4,B|216:33|282:57|314:124|310:174,1,200
321,172,155632,6,4,B|273:224,2,50
345,165,156720,6,2,B|384:207|351:276|314:295|268:304|233:285,1,200
256,242,158897,1,0
256,242,159260,1,2
256,242,159622,1,2
256,242,160348,5,4
256,242,161074,5,2
256,192,161436,12,4,162525
