osu file format v14

[General]
AudioFilename: Wizards in Winter.mp3
AudioLeadIn: 0
PreviewTime: 270
Countdown: 2
SampleSet: None
StackLeniency: 0.7
Mode: 0
LetterboxInBreaks: 1
EpilepsyWarning: 1
WidescreenStoryboard: 1

[Editor]
DistanceSpacing: 1.3
BeatDivisor: 4
GridSize: 4
TimelineZoom: 1.8

[Metadata]
Title:Wizards in Winter (Nightcore Ver.)
TitleUnicode:Wizards in Winter (Nightcore Ver.)
Artist:Trans-Siberian Orchestra
ArtistUnicode:Trans-Siberian Orchestra
Creator:Fluffy Tiger
Version:SnoWStorM
Source:
Tags:trans siberian orchestra wizards in winter nightcore ver
BeatmapID:1214618
BeatmapSetID:573328

[Difficulty]
HPDrainRate:5.5
CircleSize:4
OverallDifficulty:9
ApproachRate:9.4
SliderMultiplier:1.6
SliderTickRate:1

[Events]
//Background and Video events
0,0,"background.png",0,0
//Break Periods
//Storyboard Layer 0 (Background)
//Storyboard Layer 1 (Fail)
//Storyboard Layer 2 (Pass)
//Storyboard Layer 3 (Foreground)
//Storyboard Sound Samples

[TimingPoints]
270,323.450134770889,4,1,1,60,1,0
755,-100,4,1,1,45,0,0
916,-100,4,1,1,60,0,0
1402,-100,4,1,1,45,0,0
1563,-100,4,1,1,60,0,0
2048,-100,4,1,1,45,0,0
2210,-100,4,1,1,60,0,0
2695,-100,4,1,1,45,0,0
2857,-100,4,1,1,60,0,0
3342,-100,4,1,1,45,0,0
3504,-100,4,1,1,60,0,0
3989,-100,4,1,1,45,0,0
4153,-100,4,3,1,60,0,0
4313,-100,4,3,1,10,0,0
4474,-100,4,3,1,15,0,0
4636,-100,4,3,1,20,0,0
4798,-100,4,3,1,25,0,0
4960,-100,4,3,1,30,0,0
5121,-100,4,3,1,35,0,0
5283,-100,4,3,1,40,0,0
5447,-100,4,1,1,60,0,0
5930,-100,4,1,1,45,0,0
6092,-100,4,1,1,60,0,0
6577,-100,4,1,1,45,0,0
6739,-100,4,1,1,60,0,0
7224,-100,4,1,1,45,0,0
7385,-100,4,1,1,60,0,0
7871,-100,4,1,1,45,0,0
8032,-100,4,1,1,60,0,0
8517,-100,4,1,1,45,0,0
8679,-100,4,1,1,60,0,0
9164,-100,4,1,1,45,0,0
9328,-100,4,3,1,60,0,0
9488,-100,4,3,1,10,0,0
9650,-100,4,3,1,15,0,0
9811,-100,4,3,1,20,0,0
9973,-100,4,3,1,25,0,0
10135,-100,4,3,1,30,0,0
10296,-100,4,3,1,35,0,0
10458,-100,4,3,1,40,0,0
10620,-100,4,1,1,60,0,1
11267,-100,4,1,1,45,0,1
11914,-100,4,1,1,60,0,1
12561,-100,4,1,1,45,0,1
13208,-100,4,1,1,60,0,1
13854,-100,4,1,1,45,0,1
14501,-100,4,3,1,60,0,0
14663,-100,4,3,1,10,0,0
14825,-100,4,3,1,15,0,0
14986,-100,4,3,1,20,0,0
15148,-100,4,3,1,25,0,0
15310,-100,4,3,1,30,0,0
15472,-100,4,3,1,35,0,0
15633,-100,4,3,1,40,0,0
15795,-100,4,1,1,60,0,1
16442,-100,4,1,1,45,0,1
17089,-100,4,1,1,60,0,1
17736,-100,4,1,1,45,0,1
18383,-100,4,1,1,60,0,1
19030,-100,4,1,1,45,0,1
19677,-100,4,1,1,60,0,0
20162,-100,4,3,1,30,0,0
20323,-100,4,3,1,35,0,0
20485,-100,4,3,1,40,0,0
20647,-100,4,3,1,45,0,0
20809,-100,4,3,1,50,0,0
20970,-100,4,3,1,55,0,0
21051,-100,4,3,1,5,0,0
21455,-100,4,3,1,30,0,0
21617,-100,4,3,1,35,0,0
21779,-100,4,3,1,40,0,0
21941,-100,4,3,1,45,0,0
22102,-100,4,3,1,50,0,0
22264,-100,4,3,1,55,0,0
22345,-100,4,3,1,5,0,0
22749,-100,4,3,1,60,0,0
22830,-100,4,3,1,30,0,0
22911,-100,4,3,1,60,0,0
22992,-100,4,3,1,30,0,0
23396,-100,4,3,1,60,0,0
23558,-100,4,3,1,45,0,0
23720,-100,4,3,1,30,0,0
23881,-100,4,3,1,45,0,0
24205,-100,4,3,1,60,0,0
24367,-100,4,3,1,30,0,0
24528,-100,4,3,1,30,0,0
24690,-100,4,3,1,45,0,0
24852,-100,4,1,1,60,0,1
25175,-100,4,1,1,45,0,1
25499,-100,4,1,1,60,0,1
25822,-100,4,1,1,45,0,1
26146,-100,4,1,1,60,0,1
26469,-100,4,1,1,45,0,1
26792,-100,4,1,1,60,0,1
27116,-100,4,1,1,45,0,1
27439,-100,4,1,1,60,0,1
27763,-100,4,1,1,45,0,1
28086,-100,4,1,1,60,0,1
28410,-100,4,1,1,45,0,1
28733,-100,4,3,1,60,0,0
28895,-100,4,3,1,10,0,0
29057,-100,4,3,1,15,0,0
29218,-100,4,3,1,20,0,0
29380,-100,4,3,1,25,0,0
29542,-100,4,3,1,30,0,0
29703,-100,4,3,1,35,0,0
29865,-100,4,3,1,40,0,0
30027,-100,4,1,1,60,0,1
30350,-100,4,1,1,45,0,1
30674,-100,4,1,1,60,0,1
30997,-100,4,1,1,45,0,1
31321,-100,4,1,1,60,0,1
31644,-100,4,1,1,45,0,1
31968,-100,4,1,1,60,0,1
32291,-100,4,1,1,45,0,1
32615,-100,4,1,1,60,0,1
32938,-100,4,1,1,45,0,1
33261,-100,4,1,1,60,0,1
33585,-100,4,1,1,25,0,1
33666,-100,4,1,1,30,0,1
33747,-100,4,1,1,35,0,1
33827,-100,4,1,1,40,0,1
33908,-100,4,1,1,45,0,1
34393,-100,4,3,1,30,0,0
34555,-100,4,3,1,35,0,0
34717,-100,4,3,1,40,0,0
34879,-100,4,3,1,45,0,0
35040,-100,4,3,1,50,0,0
35202,-100,4,3,1,55,0,0
35283,-100,4,3,1,5,0,0
35687,-100,4,3,1,30,0,0
35849,-100,4,3,1,35,0,0
36011,-100,4,3,1,40,0,0
36172,-100,4,3,1,45,0,0
36334,-100,4,3,1,50,0,0
36496,-100,4,3,1,55,0,0
36577,-100,4,3,1,5,0,0
36981,-100,4,3,1,60,0,0
37062,-100,4,3,1,5,0,0
37143,-100,4,3,1,60,0,0
37224,-100,4,3,1,5,0,0
37628,-100,4,3,1,60,0,0
37709,-100,4,3,1,5,0,0
37790,-100,4,3,1,60,0,0
37871,-100,4,3,1,5,0,0
38115,-100,4,1,1,45,0,0
38437,-100,4,1,1,40,0,0
38760,-100,4,1,1,35,0,0
39084,-100,4,1,1,30,0,0
39407,-100,4,1,1,25,0,0
39730,-100,4,1,1,20,0,0
40054,-100,4,1,1,15,0,0
40379,-100,4,3,1,45,0,0
40701,-100,4,3,1,60,0,0
41024,-100,4,3,1,45,0,0
41348,-100,4,3,1,60,0,0
41671,-100,4,3,1,45,0,0
41995,-100,4,3,1,60,0,0
42318,-100,4,3,1,45,0,0
42641,-100,4,3,1,60,0,0
42965,-100,4,3,1,45,0,0
43288,-100,4,3,1,60,0,0
43612,-100,4,3,1,45,0,0
43935,-100,4,3,1,60,0,0
44259,-100,4,3,1,45,0,0
44582,-100,4,3,1,60,0,0
44906,-100,4,3,1,45,0,0
45067,-100,4,3,1,30,0,0
45229,-100,4,3,1,45,0,0
45391,-100,4,3,1,30,0,0
45553,-100,4,3,1,15,0,0
45878,-100,4,2,1,60,0,0
46038,-100,4,2,1,45,0,0
46199,-100,4,2,1,60,0,0
46361,-100,4,2,1,30,0,0
46523,-100,4,2,1,60,0,0
46846,-100,4,2,1,5,0,0
47170,-100,4,2,1,60,0,0
47331,-100,4,2,1,45,0,0
47493,-100,4,2,1,60,0,0
47655,-100,4,2,1,30,0,0
47817,-100,4,2,1,60,0,0
48140,-100,4,2,1,5,0,0
48464,-100,4,2,1,60,0,0
48625,-100,4,2,1,45,0,0
48787,-100,4,2,1,60,0,0
48949,-100,4,2,1,5,0,0
49110,-100,4,2,1,60,0,0
49434,-100,4,2,1,45,0,0
49757,-100,4,2,1,40,0,0
49919,-100,4,2,1,35,0,0
50081,-100,4,2,1,40,0,0
50243,-100,4,2,1,45,0,0
50404,-100,4,2,1,50,0,0
50728,-100,4,2,1,15,0,0
51051,-100,4,2,1,60,0,0
51213,-100,4,2,1,45,0,0
51375,-100,4,2,1,60,0,0
51536,-100,4,2,1,30,0,0
51698,-100,4,2,1,60,0,0
52022,-100,4,2,1,5,0,0
52345,-100,4,2,1,45,0,0
52507,-100,4,2,1,30,0,0
52668,-100,4,2,1,45,0,0
52830,-100,4,2,1,15,0,0
52992,-100,4,2,1,45,0,0
53315,-100,4,2,1,5,0,0
53639,-100,4,2,1,15,0,0
53800,-100,4,2,1,20,0,0
53962,-100,4,2,1,25,0,0
54124,-100,4,2,1,30,0,0
54286,-100,4,2,1,35,0,0
54447,-100,4,2,1,40,0,0
54609,-100,4,2,1,45,0,0
54771,-100,4,2,1,50,0,0
54933,-100,4,2,1,60,0,0
55094,-100,4,2,1,45,0,0
55256,-100,4,2,1,30,0,0
55579,-100,4,2,1,15,0,0
55903,-100,4,1,1,45,0,0
56388,-100,4,3,1,60,0,0
56550,-100,4,3,1,30,0,0
56712,-100,4,3,1,60,0,0
56873,-100,4,3,1,30,0,0
57035,-100,4,3,1,60,0,0
57197,-100,4,3,1,30,0,0
57682,-100,4,3,1,60,0,0
57844,-100,4,3,1,30,0,0
58005,-100,4,3,1,60,0,0
58086,-100,4,3,1,45,0,0
58167,-100,4,3,1,30,0,0
58329,-100,4,3,1,60,0,0
58491,-100,4,3,1,30,0,0
58976,-100,4,3,1,60,0,0
59137,-100,4,3,1,45,0,0
59623,-100,4,3,1,60,0,0
59784,-100,4,3,1,45,0,0
60108,-100,4,3,1,60,0,0
60269,-100,4,3,1,5,0,0
60431,-100,4,3,1,45,0,0
60593,-100,4,3,1,5,0,0
60755,-100,4,3,1,30,0,0
60916,-100,4,3,1,5,0,0
61078,-100,4,3,1,60,0,1
61240,-100,4,3,1,55,0,1
61402,-100,4,3,1,50,0,1
61563,-100,4,3,1,45,0,1
61725,-100,4,3,1,30,0,1
61887,-100,4,3,1,35,0,1
62048,-100,4,3,1,40,0,1
62210,-100,4,3,1,45,0,1
62372,-100,4,3,1,60,0,1
62534,-100,4,3,1,55,0,1
62695,-100,4,3,1,50,0,1
62857,-100,4,3,1,45,0,1
63019,-100,4,3,1,30,0,1
63181,-100,4,3,1,35,0,1
63342,-100,4,3,1,40,0,1
63504,-100,4,3,1,45,0,1
63666,-100,4,3,1,60,0,1
63827,-100,4,3,1,55,0,1
63989,-100,4,3,1,50,0,1
64151,-100,4,3,1,45,0,1
64313,-100,4,3,1,30,0,1
64474,-100,4,3,1,35,0,1
64636,-100,4,3,1,40,0,1
64798,-100,4,3,1,45,0,1
64960,-100,4,3,1,60,0,0
65121,-100,4,3,1,10,0,0
65283,-100,4,3,1,15,0,0
65445,-100,4,3,1,20,0,0
65606,-100,4,3,1,25,0,0
65768,-100,4,3,1,30,0,0
65930,-100,4,3,1,35,0,0
66092,-100,4,3,1,40,0,0
66253,-100,4,3,1,60,0,1
66415,-100,4,3,1,55,0,1
66577,-100,4,3,1,50,0,1
66739,-100,4,3,1,45,0,1
66900,-100,4,3,1,30,0,1
67062,-100,4,3,1,35,0,1
67224,-100,4,3,1,40,0,1
67385,-100,4,3,1,45,0,1
67547,-100,4,3,1,60,0,1
67709,-100,4,3,1,55,0,1
67871,-100,4,3,1,50,0,1
68032,-100,4,3,1,45,0,1
68194,-100,4,3,1,30,0,1
68356,-100,4,3,1,35,0,1
68517,-100,4,3,1,40,0,1
68679,-100,4,3,1,45,0,1
68841,-100,4,3,1,60,0,1
69003,-100,4,3,1,55,0,1
69164,-100,4,3,1,50,0,1
69326,-100,4,3,1,45,0,1
69488,-100,4,3,1,30,0,1
69650,-100,4,3,1,35,0,1
69811,-100,4,3,1,40,0,1
69973,-100,4,3,1,45,0,1
70135,-100,4,3,1,60,0,1
70620,-100,4,1,1,30,0,0
70782,-100,4,1,1,35,0,0
70943,-100,4,1,1,40,0,0
71105,-100,4,1,1,45,0,0
71267,-100,4,1,1,50,0,0
71348,-100,4,1,1,55,0,0
71429,-100,4,1,1,60,0,0
71914,-100,4,1,1,30,0,0
72075,-100,4,1,1,35,0,0
72237,-100,4,1,1,40,0,0
72399,-100,4,1,1,45,0,0
72561,-100,4,1,1,50,0,0
72641,-100,4,1,1,55,0,0
72722,-100,4,1,1,60,0,0
73208,-100,4,1,1,30,0,0
73369,-100,4,1,1,35,0,0
73531,-100,4,1,1,40,0,0
73693,-100,4,1,1,45,0,0
73854,-100,4,1,1,50,0,0
74018,-100,4,1,1,30,0,0
74340,-100,4,1,1,25,0,0
74663,-100,4,1,1,20,0,0
74986,-100,4,1,1,15,0,0
75310,-100,4,1,1,60,0,0
75633,-100,4,1,1,45,0,0
75957,-100,4,1,1,30,0,0
76280,-100,4,1,1,15,0,0
76604,-100,4,1,1,60,0,0
76765,-100,4,1,1,55,0,0
76927,-100,4,1,1,50,0,0
77089,-100,4,1,1,45,0,0
77251,-100,4,1,1,55,0,0
77412,-100,4,1,1,50,0,0
77574,-100,4,1,1,45,0,0
77736,-100,4,1,1,40,0,0
77898,-100,4,1,1,50,0,0
78059,-100,4,1,1,45,0,0
78221,-100,4,1,1,40,0,0
78383,-100,4,1,1,35,0,0
78544,-100,4,1,1,30,0,0
78706,-100,4,1,1,25,0,0
78868,-100,4,1,1,20,0,0
79030,-100,4,1,1,15,0,0
79191,-100,4,3,1,45,0,0
79353,-100,4,3,1,30,0,0
79677,-100,4,3,1,30,0,0
79838,-100,4,3,1,45,0,0
80000,-100,4,3,1,30,0,0
80162,-100,4,3,1,15,0,0
80323,-100,4,3,1,30,0,0
80484,-100,4,3,1,45,0,0
80646,-100,4,3,1,30,0,0
80808,-100,4,3,1,15,0,0
80970,-100,4,3,1,30,0,0
81131,-100,4,3,1,45,0,0
81293,-100,4,3,1,30,0,0
81455,-100,4,3,1,15,0,0
81617,-100,4,3,1,30,0,0
81778,-100,4,3,1,45,0,0
81940,-100,4,3,1,30,0,0
82102,-100,4,3,1,15,0,0
82264,-100,4,3,1,30,0,0
82425,-100,4,3,1,45,0,0
82587,-100,4,3,1,30,0,0
82749,-100,4,3,1,15,0,0
82911,-100,4,3,1,30,0,0
83072,-100,4,3,1,45,0,0
83234,-100,4,3,1,30,0,0
83396,-100,4,3,1,15,0,0
83558,-100,4,3,1,30,0,0
83719,-100,4,3,1,45,0,0
83881,-100,4,3,1,30,0,0
84043,-100,4,3,1,15,0,0
84205,-100,4,3,1,30,0,0
84366,-100,4,3,1,45,0,0
84528,-100,4,3,1,30,0,0
84690,-100,4,3,1,15,0,0
84852,-100,4,3,1,30,0,0
85013,-100,4,3,1,45,0,0
85175,-100,4,3,1,30,0,0
85337,-100,4,3,1,15,0,0
85499,-100,4,3,1,30,0,0
85660,-100,4,3,1,45,0,0
85822,-100,4,3,1,30,0,0
85984,-100,4,3,1,15,0,0
86146,-100,4,3,1,30,0,0
86307,-100,4,3,1,45,0,0
86469,-100,4,3,1,30,0,0
86631,-100,4,3,1,15,0,0
86792,-100,4,3,1,30,0,0
86953,-100,4,3,1,45,0,0
87115,-100,4,3,1,30,0,0
87277,-100,4,3,1,15,0,0
87439,-100,4,3,1,30,0,0
87600,-100,4,3,1,45,0,0
87762,-100,4,3,1,30,0,0
87924,-100,4,3,1,15,0,0
88086,-100,4,3,1,30,0,0
88247,-100,4,3,1,45,0,0
88409,-100,4,3,1,30,0,0
88571,-100,4,3,1,15,0,0
88733,-100,4,3,1,30,0,0
88894,-100,4,3,1,45,0,0
89056,-100,4,3,1,30,0,0
89218,-100,4,3,1,15,0,0
89380,-100,4,3,1,30,0,0
89541,-100,4,3,1,45,0,0
89703,-100,4,3,1,30,0,0
89865,-100,4,3,1,15,0,0
90027,-100,4,3,1,30,0,0
90188,-100,4,3,1,45,0,0
90350,-100,4,3,1,30,0,0
90512,-100,4,3,1,15,0,0
90674,-100,4,3,1,30,0,0
90835,-100,4,3,1,45,0,0
90997,-100,4,3,1,30,0,0
91159,-100,4,3,1,15,0,0
91321,-100,4,3,1,30,0,0
91482,-100,4,3,1,45,0,0
91644,-100,4,3,1,30,0,0
91806,-100,4,3,1,15,0,0
91968,-100,4,3,1,30,0,0
92129,-100,4,3,1,45,0,0
92291,-100,4,3,1,30,0,0
92453,-100,4,3,1,15,0,0
92615,-100,4,3,1,30,0,0
92776,-100,4,3,1,45,0,0
92938,-100,4,3,1,30,0,0
93100,-100,4,3,1,15,0,0
93261,-100,4,3,1,30,0,0
93422,-100,4,3,1,45,0,0
93584,-100,4,3,1,30,0,0
93746,-100,4,3,1,15,0,0
93908,-100,4,3,1,30,0,0
94069,-100,4,3,1,45,0,0
94231,-100,4,3,1,30,0,0
94393,-100,4,3,1,15,0,0
94555,-100,4,3,1,30,0,0
94716,-100,4,3,1,45,0,0
94878,-100,4,3,1,30,0,0
95040,-100,4,3,1,15,0,0
95202,-100,4,3,1,30,0,0
95363,-100,4,3,1,45,0,0
95525,-100,4,3,1,30,0,0
95687,-100,4,3,1,15,0,0
95849,-100,4,3,1,30,0,0
96010,-100,4,3,1,45,0,0
96172,-100,4,3,1,30,0,0
96334,-100,4,3,1,15,0,0
96496,-100,4,3,1,30,0,0
96657,-100,4,3,1,45,0,0
96819,-100,4,3,1,30,0,0
96981,-100,4,3,1,15,0,0
97143,-100,4,3,1,30,0,0
97304,-100,4,3,1,45,0,0
97466,-100,4,3,1,30,0,0
97628,-100,4,3,1,15,0,0
97790,-100,4,3,1,30,0,0
97951,-100,4,3,1,45,0,0
98113,-100,4,3,1,30,0,0
98275,-100,4,3,1,15,0,0
98437,-100,4,3,1,30,0,0
98598,-100,4,3,1,45,0,0
98760,-100,4,3,1,30,0,0
98922,-100,4,3,1,15,0,0
99084,-100,4,3,1,30,0,0
99245,-100,4,3,1,45,0,0
99407,-100,4,3,1,30,0,0
99569,-100,4,3,1,15,0,0
99730,-100,4,3,1,30,0,0
99892,-100,4,3,1,60,0,0
100379,-100,4,1,1,30,0,0
100539,-100,4,1,1,35,0,0
100701,-100,4,1,1,40,0,0
100862,-100,4,1,1,45,0,0
101024,-100,4,1,1,50,0,0
101186,-100,4,1,1,55,0,0
101671,-100,4,1,1,30,0,0
101831,-100,4,1,1,35,0,0
101993,-100,4,1,1,40,0,0
102154,-100,4,1,1,45,0,0
102316,-100,4,1,1,50,0,0
102478,-100,4,1,1,55,0,0
102965,-100,4,1,1,60,0,0
103127,-100,4,1,1,45,0,0
103612,-100,4,1,1,60,0,0
103774,-100,4,1,1,45,0,0
104097,-100,4,1,1,30,0,0
104259,-100,4,1,1,5,0,0
104420,-100,4,1,1,45,0,0
104582,-100,4,1,1,5,0,0
104744,-100,4,1,1,45,0,0
104906,-100,4,1,1,5,0,0
105067,-100,4,3,1,60,0,1
105229,-100,4,3,1,55,0,1
105391,-100,4,3,1,45,0,1
105552,-100,4,3,1,40,0,1
105714,-100,4,3,1,30,0,1
105876,-100,4,3,1,35,0,1
106037,-100,4,3,1,40,0,1
106199,-100,4,3,1,45,0,1
106361,-100,4,3,1,60,0,1
106523,-100,4,3,1,55,0,1
106684,-100,4,3,1,50,0,1
106846,-100,4,3,1,45,0,1
107008,-100,4,3,1,30,0,1
107170,-100,4,3,1,35,0,1
107331,-100,4,3,1,40,0,1
107493,-100,4,3,1,45,0,1
107655,-100,4,3,1,60,0,1
107816,-100,4,3,1,55,0,1
107978,-100,4,3,1,50,0,1
108140,-100,4,3,1,45,0,1
108302,-100,4,3,1,30,0,1
108463,-100,4,3,1,35,0,1
108625,-100,4,3,1,40,0,1
108787,-100,4,3,1,45,0,1
108949,-100,4,3,1,60,0,0
109110,-100,4,3,1,10,0,0
109272,-100,4,3,1,15,0,0
109434,-100,4,3,1,20,0,0
109595,-100,4,3,1,25,0,0
109757,-100,4,3,1,30,0,0
109919,-100,4,3,1,35,0,0
110081,-100,4,3,1,40,0,0
110243,-100,4,3,1,60,0,1
110404,-100,4,3,1,55,0,1
110566,-100,4,3,1,50,0,1
110728,-100,4,3,1,45,0,1
110889,-100,4,3,1,30,0,1
111051,-100,4,3,1,35,0,1
111213,-100,4,3,1,40,0,1
111374,-100,4,3,1,45,0,1
111536,-100,4,3,1,60,0,1
111698,-100,4,3,1,55,0,1
111860,-100,4,3,1,50,0,1
112021,-100,4,3,1,45,0,1
112183,-100,4,3,1,30,0,1
112345,-100,4,3,1,35,0,1
112506,-100,4,3,1,40,0,1
112668,-100,4,3,1,45,0,1
112830,-100,4,3,1,60,0,1
112992,-100,4,3,1,55,0,1
113153,-100,4,3,1,50,0,1
113315,-100,4,3,1,45,0,1
113477,-100,4,3,1,30,0,1
113639,-100,4,3,1,35,0,1
113800,-100,4,3,1,40,0,1
113962,-100,4,3,1,45,0,1
114124,-100,4,3,1,60,0,1
114286,-100,4,3,1,55,0,1
114447,-100,4,3,1,50,0,1
114609,-100,4,3,1,45,0,1
114771,-100,4,3,1,30,0,1
114933,-100,4,3,1,35,0,1
115094,-100,4,3,1,40,0,1
115256,-100,4,3,1,45,0,1
115418,-100,4,3,1,60,0,1
115580,-100,4,3,1,55,0,1
115741,-100,4,3,1,50,0,1
115903,-100,4,3,1,45,0,1
116065,-100,4,3,1,30,0,1
116227,-100,4,3,1,35,0,1
116388,-100,4,3,1,40,0,1
116550,-100,4,3,1,45,0,1
116712,-100,4,3,1,60,0,1
116874,-100,4,3,1,55,0,1
117035,-100,4,3,1,50,0,1
117197,-100,4,3,1,45,0,1
117358,-100,4,3,1,60,0,1
117520,-100,4,3,1,55,0,1
117681,-100,4,3,1,50,0,1
117843,-100,4,3,1,45,0,1
118005,-100,4,3,1,25,0,1
118167,-100,4,3,1,30,0,1
118329,-100,4,3,1,35,0,1
118491,-100,4,3,1,40,0,1
118652,-100,4,3,1,45,0,1
118814,-100,4,3,1,40,0,1
118976,-100,4,3,1,45,0,1
119137,-100,4,3,1,50,0,1
119299,-100,4,3,1,60,0,1
119461,-100,4,3,1,55,0,1
119623,-100,4,3,1,50,0,1
119785,-100,4,3,1,45,0,1
119946,-100,4,3,1,60,0,1
120108,-100,4,3,1,55,0,1
120270,-100,4,3,1,50,0,1
120431,-100,4,3,1,45,0,1
120593,-100,4,3,1,30,0,1
120755,-100,4,3,1,35,0,1
120917,-100,4,3,1,40,0,1
121078,-100,4,3,1,45,0,1
121240,-100,4,3,1,30,0,1
121402,-100,4,3,1,35,0,1
121563,-100,4,3,1,40,0,1
121725,-100,4,3,1,45,0,1
121887,-100,4,3,1,60,0,1
122049,-100,4,3,1,55,0,1
122210,-100,4,3,1,50,0,1
122372,-100,4,3,1,45,0,1
122534,-100,4,3,1,60,0,1
122696,-100,4,3,1,55,0,1
122857,-100,4,3,1,50,0,1
123019,-100,4,3,1,45,0,1
123181,-100,4,3,1,30,0,1
123343,-100,4,3,1,35,0,1
123505,-100,4,3,1,40,0,1
123667,-100,4,3,1,45,0,1
123828,-100,4,3,1,30,0,1
123990,-100,4,3,1,35,0,1
124152,-100,4,3,1,40,0,1
124313,-100,4,3,1,45,0,1
124475,-100,4,3,1,60,0,1
124637,-100,4,3,1,55,0,1
124799,-100,4,3,1,50,0,1
124960,-100,4,3,1,45,0,1
125122,-100,4,3,1,60,0,1
125284,-100,4,3,1,55,0,1
125445,-100,4,3,1,50,0,1
125607,-100,4,3,1,45,0,1
125769,-100,4,3,1,30,0,1
125931,-100,4,3,1,35,0,1
126092,-100,4,3,1,40,0,1
126254,-100,4,3,1,45,0,1
126416,-100,4,3,1,30,0,1
126578,-100,4,3,1,35,0,1
126739,-100,4,3,1,40,0,1
126901,-100,4,3,1,45,0,1
127062,-100,4,1,1,30,0,0
127224,-100,4,1,1,45,0,0
127385,-100,4,1,1,30,0,0
127547,-100,4,1,1,45,0,0
127709,-100,4,1,1,45,0,0
127871,-100,4,1,1,60,0,0
128032,-100,4,1,1,45,0,0
128194,-100,4,1,1,60,0,0
128356,-100,4,1,1,30,0,0
128518,-100,4,1,1,45,0,0
128679,-100,4,1,1,30,0,0
128841,-100,4,1,1,45,0,0
129003,-100,4,1,1,45,0,0
129084,-100,4,1,1,50,0,0
129165,-100,4,1,1,60,0,0
129326,-100,4,1,1,45,0,0
129488,-100,4,1,1,60,0,0
129650,-100,4,1,1,20,0,0
129811,-100,4,1,1,30,0,0
129973,-100,4,1,1,40,0,0
130135,-100,4,1,1,50,0,0
130296,-100,4,1,1,20,0,0
130457,-100,4,1,1,30,0,0
130619,-100,4,1,1,40,0,0
130781,-100,4,1,1,50,0,0
130943,-100,4,1,1,20,0,0
131104,-100,4,1,1,30,0,0
131266,-100,4,1,1,40,0,0
131428,-100,4,1,1,50,0,0
131590,-100,4,1,1,20,0,0
131751,-100,4,1,1,30,0,0
131913,-100,4,1,1,40,0,0
132075,-100,4,1,1,50,0,0
132237,-100,4,1,1,25,0,1
132399,-100,4,1,1,30,0,1
132561,-100,4,1,1,35,0,1
132723,-100,4,1,1,40,0,1
132884,-100,4,1,1,45,0,1
133046,-100,4,1,1,50,0,1
133208,-100,4,1,1,55,0,1
133370,-100,4,1,1,60,0,1
133531,-100,4,1,1,25,0,1
133693,-100,4,1,1,30,0,1
133855,-100,4,1,1,35,0,1
134017,-100,4,1,1,40,0,1
134178,-100,4,1,1,45,0,1
134340,-100,4,1,1,50,0,1
134502,-100,4,1,1,55,0,1
134664,-100,4,1,1,60,0,1
134825,-100,4,1,1,25,0,1
134987,-100,4,1,1,30,0,1
135149,-100,4,1,1,35,0,1
135311,-100,4,1,1,40,0,1
135472,-100,4,1,1,45,0,1
135634,-100,4,1,1,50,0,1
135796,-100,4,1,1,55,0,1
135958,-100,4,1,1,60,0,1
136119,-100,4,1,1,25,0,1
136281,-100,4,1,1,30,0,1
136443,-100,4,1,1,35,0,1
136605,-100,4,1,1,40,0,1
136766,-100,4,1,1,45,0,1
136928,-100,4,1,1,50,0,1
137090,-100,4,1,1,55,0,1
137252,-100,4,1,1,60,0,1
137412,-100,4,3,1,60,0,0
137574,-100,4,3,1,55,0,0
137736,-100,4,3,1,50,0,0
137898,-100,4,3,1,45,0,0
138059,-100,4,3,1,55,0,0
138221,-100,4,3,1,50,0,0
138383,-100,4,3,1,45,0,0
138545,-100,4,3,1,40,0,0
138706,-100,4,3,1,50,0,0
138868,-100,4,3,1,45,0,0
139030,-100,4,3,1,40,0,0
139192,-100,4,3,1,35,0,0
139353,-100,4,3,1,45,0,0
139515,-100,4,3,1,40,0,0
139677,-100,4,3,1,35,0,0
139839,-100,4,3,1,30,0,0
140000,-100,4,3,1,40,0,0
140162,-100,4,3,1,35,0,0
140324,-100,4,3,1,30,0,0
140486,-100,4,3,1,25,0,0
140647,-100,4,3,1,35,0,0
140809,-100,4,3,1,30,0,0
140971,-100,4,3,1,25,0,0
141133,-100,4,3,1,20,0,0
141294,-100,4,3,1,30,0,0
141456,-100,4,3,1,25,0,0
141618,-100,4,3,1,20,0,0
141779,-100,4,3,1,15,0,0
141780,-100,4,3,1,15,0,0
141941,-100,4,3,1,25,0,0
142103,-100,4,3,1,20,0,0
142265,-100,4,3,1,15,0,0
142427,-100,4,3,1,10,0,0
142588,-100,4,3,1,45,0,0
142590,-200,4,3,1,45,0,0
145175,-200,4,3,1,60,0,0

[HitObjects]
392,128,270,6,0,B|293:119,1,80,10|0,0:0|0:0,0:0:0:0:
232,116,593,1,0,0:0:0:0:
232,116,755,1,0,0:0:0:0:
264,264,916,6,0,B|172:272,1,80,10|0,0:0|0:0,0:0:0:0:
104,280,1240,1,0,0:0:0:0:
104,280,1402,1,0,0:0:0:0:
32,112,1563,6,0,B|136:116,1,80,10|0,0:0|0:0,0:0:0:0:
192,124,1887,1,0,0:0:0:0:
192,124,2048,1,0,0:0:0:0:
264,264,2210,6,0,B|343:267,1,80,10|0,0:0|0:0,0:0:0:0:
424,276,2534,1,0,0:0:0:0:
424,276,2695,1,0,0:0:0:0:
180,336,2857,6,0,B|92:340,1,80,10|0,0:0|0:0,0:0:0:0:
20,348,3181,1,0,0:0:0:0:
20,348,3342,1,0,0:0:0:0:
28,176,3504,6,0,B|108:180,1,80,10|0,0:0|0:0,0:0:0:0:
188,188,3827,1,0,0:0:0:0:
188,188,3989,1,0,0:0:0:0:
456,296,4151,5,10,0:0:0:0:
384,336,4313,1,0,0:0:0:0:
296,344,4474,1,0,0:0:0:0:
200,328,4636,1,0,0:0:0:0:
128,264,4798,1,0,0:0:0:0:
80,168,4960,1,0,0:0:0:0:
120,64,5121,1,0,0:0:0:0:
216,8,5283,1,0,0:0:0:0:
184,163,5445,6,0,B|264:160,1,80,10|0,0:0|0:0,0:0:0:0:
344,164,5768,1,0,0:0:0:0:
344,164,5930,1,0,0:0:0:0:
312,308,6092,6,0,B|403:309,1,80,10|0,0:0|0:0,0:0:0:0:
472,312,6415,1,0,0:0:0:0:
472,312,6577,1,0,0:0:0:0:
504,104,6739,6,0,B|422:107,1,80,10|0,0:0|0:0,0:0:0:0:
344,116,7062,1,0,0:0:0:0:
344,116,7224,1,0,0:0:0:0:
196,40,7385,6,0,B|116:38,1,80,10|0,0:0|0:0,0:0:0:0:
36,40,7709,1,0,0:0:0:0:
36,40,7871,1,0,0:0:0:0:
28,216,8032,6,0,B|108:212,1,80,10|0,0:0|0:0,0:0:0:0:
188,212,8356,1,0,0:0:0:0:
188,212,8517,1,0,0:0:0:0:
380,332,8679,6,0,B|300:328,1,80,10|0,0:0|0:0,0:0:0:0:
220,328,9003,1,0,0:0:0:0:
220,328,9164,1,0,0:0:0:0:
41,259,9326,5,10,0:0:0:0:
63,180,9488,1,0,0:0:0:0:
120,112,9650,1,0,0:0:0:0:
199,56,9811,1,0,0:0:0:0:
295,50,9973,1,0,0:0:0:0:
386,95,10135,1,0,0:0:0:0:
442,186,10296,1,0,0:0:0:0:
414,293,10458,1,0,0:0:0:0:
144,288,10620,6,0,B|96:176|136:248|88:112,1,160,2|8,0:0|0:0,0:0:0:0:
96,135,11105,1,0,0:0:0:0:
152,24,11267,1,2,0:0:0:0:
256,88,11429,1,0,0:0:0:0:
360,24,11590,1,8,0:0:0:0:
416,135,11752,1,0,0:0:0:0:
415,135,11914,6,0,B|376:248|416:176|368:288,1,160,2|8,0:0|0:0,0:0:0:0:
368,287,12399,1,0,0:0:0:0:
256,136,12561,1,2,0:0:0:0:
256,304,12722,1,0,0:0:0:0:
256,116,12884,1,8,0:0:0:0:
144,287,13046,1,0,0:0:0:0:
143,287,13208,6,0,B|95:175|135:247|95:134,1,160,2|8,0:0|0:0,0:0:0:0:
95,134,13693,1,0,0:0:0:0:
256,64,13854,1,2,0:0:0:0:
200,200,14016,1,0,0:0:0:0:
256,40,14178,1,8,0:0:0:0:
308,200,14340,1,0,0:0:0:0:
256,16,14501,5,2,0:0:0:0:
408,136,14663,1,0,0:0:0:0:
384,228,14825,1,0,0:0:0:0:
296,280,14986,1,0,0:0:0:0:
204,240,15148,1,0,0:0:0:0:
204,240,15229,1,0,0:0:0:0:
204,240,15310,1,0,0:0:0:0:
184,124,15472,1,0,0:0:0:0:
272,52,15633,1,0,0:0:0:0:
368,288,15795,6,0,B|416:176|376:248|424:112,1,160,2|8,0:0|0:0,0:0:0:0:
416,135,16280,1,0,0:0:0:0:
360,24,16442,1,2,0:0:0:0:
256,132,16604,1,0,0:0:0:0:
152,24,16765,1,8,0:0:0:0:
96,135,16927,1,0,0:0:0:0:
96,135,17089,6,0,B|136:248|96:176|144:288,1,160,2|8,0:0|0:0,0:0:0:0:
144,287,17574,1,0,0:0:0:0:
256,128,17736,1,2,0:0:0:0:
256,304,17898,1,0,0:0:0:0:
256,104,18059,1,8,0:0:0:0:
368,287,18221,1,0,0:0:0:0:
368,288,18383,6,0,B|416:176|376:248|415:135,1,160,2|8,0:0|0:0,0:0:0:0:
414,135,18868,1,0,0:0:0:0:
256,72,19030,1,2,0:0:0:0:
256,200,19191,1,0,0:0:0:0:
256,48,19353,1,8,0:0:0:0:
94,135,19515,1,0,0:0:0:0:
256,21,19677,1,8,0:0:0:0:
352,95,20161,5,0,0:0:0:0:
239,310,20323,1,0,0:0:0:0:
199,67,20484,1,0,0:0:0:0:
380,248,20646,1,0,0:0:0:0:
137,208,20808,1,0,0:0:0:0:
352,95,20970,2,0,L|386:61,1,40,8|0,0:0|0:0,0:0:0:0:
159,288,21455,5,0,0:0:0:0:
272,73,21616,1,0,0:0:0:0:
312,316,21778,1,0,0:0:0:0:
131,135,21940,1,0,0:0:0:0:
374,175,22102,1,0,0:0:0:0:
159,288,22264,2,0,L|125:322,1,40,8|0,0:0|0:0,0:0:0:0:
256,96,22749,6,0,L|256:56,1,40,8|0,0:0|0:0,0:0:0:0:
256,288,22911,2,0,L|256:328,1,40,8|0,0:0|0:0,0:0:0:0:
24,144,23396,5,10,0:0:0:0:
24,144,23558,2,0,P|56:180|68:232,1,80,8|0,0:0|0:0,0:0:0:0:
164,288,23881,2,0,P|232:312|308:288,1,120,8|0,0:0|0:0,0:0:0:0:
336,284,24205,5,0,0:0:0:0:
236,192,24367,1,0,0:0:0:0:
352,136,24528,1,8,0:0:0:0:
384,120,24609,1,0,0:0:0:0:
416,104,24690,1,0,0:0:0:0:
448,88,24771,1,0,0:0:0:0:
480,80,24852,5,0,0:0:0:0:
480,80,25013,1,2,0:0:0:0:
512,200,25175,1,8,0:0:0:0:
512,200,25256,1,0,0:0:0:0:
512,200,25337,5,2,0:0:0:0:
448,304,25499,1,0,0:0:0:0:
448,304,25660,1,2,0:0:0:0:
328,328,25822,1,8,0:0:0:0:
328,328,25903,1,0,0:0:0:0:
328,328,25984,5,2,0:0:0:0:
216,288,26146,1,0,0:0:0:0:
216,288,26307,1,2,0:0:0:0:
176,176,26469,1,8,0:0:0:0:
176,176,26550,1,0,0:0:0:0:
176,176,26631,5,2,0:0:0:0:
248,72,26792,1,0,0:0:0:0:
248,72,26954,1,2,0:0:0:0:
368,64,27116,2,0,B|432:68,2,40,8|0|2,0:3|0:3|0:3,0:0:0:0:
316,160,27439,1,0,0:0:0:0:
316,160,27601,5,2,0:0:0:0:
200,196,27763,1,8,0:0:0:0:
200,196,27844,1,0,0:0:0:0:
200,196,27924,5,2,0:0:0:0:
88,144,28086,1,0,0:0:0:0:
88,144,28248,1,2,0:0:0:0:
112,264,28410,1,8,0:0:0:0:
112,264,28491,1,0,0:0:0:0:
112,264,28571,1,2,0:0:0:0:
282,341,28733,5,0,0:0:0:0:
368,344,28895,1,0,0:0:0:0:
260,264,29057,1,0,0:0:0:0:
392,264,29218,1,0,0:0:0:0:
260,184,29380,1,0,0:0:0:0:
428,192,29542,1,0,0:0:0:0:
280,108,29703,1,0,0:0:0:0:
480,140,29865,1,0,0:0:0:0:
32,304,30027,5,0,0:0:0:0:
32,304,30188,1,2,0:0:0:0:
0,184,30350,1,8,0:0:0:0:
0,184,30431,1,0,0:0:0:0:
0,184,30512,5,2,0:0:0:0:
64,80,30674,1,0,0:0:0:0:
64,80,30835,1,2,0:0:0:0:
184,56,30997,1,8,0:0:0:0:
184,56,31078,1,0,0:0:0:0:
184,56,31159,5,2,0:0:0:0:
296,96,31321,1,0,0:0:0:0:
296,96,31482,1,2,0:0:0:0:
336,208,31644,1,8,0:0:0:0:
336,208,31725,1,0,0:0:0:0:
336,208,31806,5,2,0:0:0:0:
264,312,31967,1,0,0:0:0:0:
264,312,32129,1,2,0:0:0:0:
144,320,32291,2,0,B|80:316,2,40,8|0|2,0:3|0:3|0:3,0:0:0:0:
196,224,32614,1,0,0:0:0:0:
196,224,32776,5,2,0:0:0:0:
312,188,32938,1,8,0:0:0:0:
312,188,33019,1,0,0:0:0:0:
312,188,33099,5,2,0:0:0:0:
424,240,33261,1,0,0:0:0:0:
424,240,33423,1,2,0:0:0:0:
400,120,33585,1,8,0:0:0:0:
400,120,33666,1,0,0:0:0:0:
400,120,33746,1,2,0:0:0:0:
400,120,33827,1,0,0:0:0:0:
400,120,33907,1,2,0:0:0:0:
256,56,34393,5,0,0:0:0:0:
328,288,34555,1,0,0:0:0:0:
128,144,34717,1,0,0:0:0:0:
384,144,34879,1,0,0:0:0:0:
184,288,35040,1,0,0:0:0:0:
256,56,35202,2,0,L|256:8,1,40,8|0,0:0|0:0,0:0:0:0:
256,328,35687,5,0,0:0:0:0:
184,96,35849,1,0,0:0:0:0:
384,240,36011,1,0,0:0:0:0:
128,240,36172,1,0,0:0:0:0:
328,96,36334,1,0,0:0:0:0:
256,328,36496,2,0,L|256:376,1,40,8|0,0:0|0:0,0:0:0:0:
136,192,36981,6,0,L|96:192,2,40,8|0|8,0:0|0:0|0:0,0:0:0:0:
376,192,37628,2,0,L|416:192,2,40,8|0|8,0:0|0:0|0:0,0:0:0:0:
100,72,38113,5,0,0:0:0:0:
24,112,38437,1,0,0:0:0:0:
157,127,38760,1,0,0:0:0:0:
43,193,39084,1,0,0:0:0:0:
197,196,39407,1,0,0:0:0:0:
48,274,39731,1,0,0:0:0:0:
368,268,40054,1,0,0:0:0:0:
32,352,40377,6,0,P|72:360|112:344,1,80,0|0,0:0|0:0,0:0:0:0:
128,332,40620,1,0,0:0:0:0:
144,312,40701,1,8,0:0:0:0:
157,127,40862,1,0,0:0:0:0:
204,64,41024,6,0,P|240:45|283:51,1,80,0|0,0:0|0:0,0:0:0:0:
302,58,41267,1,0,0:0:0:0:
323,73,41348,1,8,0:0:0:0:
404,208,41509,1,0,0:0:0:0:
374,281,41671,6,0,P|343:307|300:314,1,80,0|0,0:0|0:0,0:0:0:0:
281,312,41914,1,0,0:0:0:0:
257,303,41995,1,8,0:0:0:0:
140,196,42156,1,0,0:0:0:0:
76,152,42318,6,0,P|49:182|42:225,1,80,0|0,0:0|0:0,0:0:0:0:
45,245,42561,1,0,0:0:0:0:
54,269,42642,1,8,0:0:0:0:
281,312,42803,1,0,0:0:0:0:
352,276,42965,6,0,P|338:238|347:200,1,80,0|0,0:0|0:0,0:0:0:0:
364,180,43208,1,0,0:0:0:0:
384,164,43289,1,8,0:0:0:0:
288,36,43450,1,0,0:0:0:0:
234,94,43612,6,0,P|201:71|161:69,1,80,0|0,0:0|0:0,0:0:0:0:
137,82,43855,1,0,0:0:0:0:
117,97,43936,1,8,0:0:0:0:
84,252,44097,1,0,0:0:0:0:
40,316,44259,6,0,P|70:342|113:349,1,80,0|0,0:0|0:0,0:0:0:0:
133,347,44502,1,0,0:0:0:0:
157,338,44583,1,8,0:0:0:0:
296,260,44744,1,0,0:0:0:0:
372,245,44906,6,0,P|369:204|343:169,1,80,0|0,0:0|0:0,0:0:0:0:
328,158,45149,1,0,0:0:0:0:
305,147,45230,1,8,0:0:0:0:
188,124,45391,1,0,0:0:0:0:
188,124,45472,1,0,0:0:0:0:
188,124,45553,1,8,0:0:0:0:
216,40,45876,6,0,P|256:28|296:40,2,80,0|0|0,0:0|0:0|0:0,0:0:0:0:
256,112,46523,2,0,B|284:176|240:208|264:272|264:272,1,160,2|0,0:0|0:0,0:0:0:0:
408,232,47170,6,0,P|420:192|408:152,2,80,0|0|0,0:0|0:0|0:0,0:0:0:0:
336,192,47817,2,0,B|276:224|228:172|176:200|176:200,1,160,2|0,0:0|0:0,0:0:0:0:
216,344,48464,6,0,P|256:356|296:344,2,80,0|0|0,0:0|0:0|0:0,0:0:0:0:
256,272,49110,2,0,B|228:208|276:164|248:112|248:112,1,160,2|0,0:0|0:0,0:0:0:0:
132,152,49757,1,2,0:0:0:0:
372,228,50081,1,0,0:0:0:0:
368,115,50404,2,0,P|316:39|232:15,1,160,2|0,0:0|0:0,0:0:0:0:
256,16,51051,5,2,0:0:0:0:
260,224,51213,1,0,0:0:0:0:
368,115,51375,1,0,0:0:0:0:
144,115,51698,2,0,P|72:143|124:183,1,160,2|0,0:0|0:0,0:0:0:0:
256,368,52345,5,2,0:0:0:0:
252,160,52507,1,0,0:0:0:0:
144,269,52669,1,0,0:0:0:0:
368,269,52992,2,0,P|440:241|388:201,1,160,2|0,0:0|0:0,0:0:0:0:
120,60,53639,5,2,0:0:0:0:
0,152,53800,1,0,0:0:0:0:
140,112,53962,5,2,0:0:0:0:
56,252,54124,1,0,0:0:0:0:
180,160,54286,5,2,0:0:0:0:
152,328,54447,1,0,0:0:0:0:
232,192,54609,5,2,0:0:0:0:
252,352,54771,1,0,0:0:0:0:
296,236,54933,2,0,P|308:192|300:152,2,80,2|0|0,0:0|0:0|0:0,0:0:0:0:
144,240,55418,5,0,0:0:0:0:
252,352,55579,1,2,0:0:0:0:
256,88,55903,5,10,0:0:0:0:
256,88,56388,6,8,L|256:8,1,80,2|8,0:0|0:0,0:0:0:0:
329,265,56712,2,8,L|386:322,2,80,2|8|0,0:0|0:0|0:0,0:0:0:0:
72,56,57197,1,10,0:0:0:0:
256,8,57682,6,8,L|256:88,1,80,2|8,0:0|0:0,0:0:0:0:
124,320,58005,1,2,0:0:0:0:
154,293,58086,1,0,0:0:0:0:
184,264,58167,2,0,L|248:204,1,80,10|0,0:0|0:0,0:0:0:0:
440,56,58491,1,10,0:0:0:0:
64,56,58976,5,10,0:0:0:0:
448,328,59137,1,10,0:0:0:0:
448,56,59623,5,10,0:0:0:0:
64,328,59784,1,10,0:0:0:0:
376,149,60108,6,0,P|414:138|456:144,1,80,10|0,0:0|0:0,0:0:0:0:
156,112,60431,2,0,P|116:80|108:36,1,80,10|0,0:0|0:0,0:0:0:0:
236,304,60755,2,0,P|236:368|224:388,1,80,10|0,0:0|0:0,0:0:0:0:
268,104,61078,5,10,0:0:0:0:
311,75,61158,1,0,0:0:0:0:
362,68,61239,1,0,0:0:0:0:
411,83,61320,1,0,0:0:0:0:
449,117,61401,1,8,0:0:0:0:
469,165,61482,1,0,0:0:0:0:
467,216,61563,1,0,0:0:0:0:
444,262,61644,1,0,0:0:0:0:
436,256,61725,5,10,0:0:0:0:
428,247,61805,1,0,0:0:0:0:
420,239,61886,1,0,0:0:0:0:
412,231,61967,1,0,0:0:0:0:
404,223,62048,1,8,0:0:0:0:
396,214,62129,1,0,0:0:0:0:
388,206,62210,1,0,0:0:0:0:
380,198,62291,1,0,0:0:0:0:
372,192,62372,5,10,0:0:0:0:
339,150,62452,1,0,0:0:0:0:
295,123,62533,1,0,0:0:0:0:
244,111,62614,1,0,0:0:0:0:
193,116,62695,1,8,0:0:0:0:
147,138,62776,1,0,0:0:0:0:
108,174,62857,1,0,0:0:0:0:
85,219,62938,1,0,0:0:0:0:
80,232,63019,5,10,0:0:0:0:
77,248,63099,1,0,0:0:0:0:
81,265,63180,1,0,0:0:0:0:
91,279,63261,1,0,0:0:0:0:
105,288,63342,1,8,0:0:0:0:
122,292,63423,1,0,0:0:0:0:
139,290,63504,1,0,0:0:0:0:
153,281,63585,1,0,0:0:0:0:
164,268,63666,5,10,0:0:0:0:
172,216,63746,1,0,0:0:0:0:
197,171,63827,1,0,0:0:0:0:
236,137,63908,1,0,0:0:0:0:
284,118,63989,1,8,0:0:0:0:
336,117,64070,1,0,0:0:0:0:
385,133,64151,1,0,0:0:0:0:
426,165,64232,1,0,0:0:0:0:
432,176,64313,5,10,0:0:0:0:
437,191,64393,1,0,0:0:0:0:
439,209,64474,1,0,0:0:0:0:
438,226,64555,1,0,0:0:0:0:
432,241,64636,1,8,0:0:0:0:
423,256,64717,1,0,0:0:0:0:
412,269,64798,1,0,0:0:0:0:
397,278,64879,1,0,0:0:0:0:
380,284,64960,6,0,B|340:300|340:300|296:264|296:264|280:280,1,120,10|0,0:0|0:0,0:0:0:0:
216,320,65283,1,0,0:3:0:0:
56,320,65445,1,0,0:3:0:0:
192,240,65606,1,2,0:3:0:0:
32,240,65768,1,0,0:3:0:0:
168,160,65930,1,0,0:3:0:0:
8,160,66092,1,0,0:3:0:0:
268,280,66253,5,10,0:0:0:0:
311,308,66333,1,0,0:0:0:0:
362,315,66414,1,0,0:0:0:0:
411,300,66495,1,0,0:0:0:0:
449,266,66576,1,8,0:0:0:0:
469,218,66657,1,0,0:0:0:0:
467,167,66738,1,0,0:0:0:0:
444,121,66819,1,0,0:0:0:0:
436,128,66900,5,10,0:0:0:0:
428,137,66980,1,0,0:0:0:0:
420,145,67061,1,0,0:0:0:0:
412,153,67142,1,0,0:0:0:0:
404,161,67223,1,8,0:0:0:0:
396,170,67304,1,0,0:0:0:0:
388,178,67385,1,0,0:0:0:0:
380,186,67466,1,0,0:0:0:0:
372,192,67547,5,0,0:0:0:0:
339,234,67627,1,0,0:0:0:0:
295,261,67708,1,0,0:0:0:0:
244,273,67789,1,0,0:0:0:0:
193,268,67870,1,8,0:0:0:0:
147,246,67951,1,0,0:0:0:0:
108,210,68032,1,0,0:0:0:0:
85,165,68113,1,0,0:0:0:0:
80,152,68194,5,10,0:0:0:0:
77,136,68274,1,0,0:0:0:0:
81,119,68355,1,0,0:0:0:0:
91,105,68436,1,0,0:0:0:0:
105,96,68517,1,8,0:0:0:0:
122,92,68598,1,0,0:0:0:0:
139,94,68679,1,0,0:0:0:0:
153,103,68760,1,0,0:0:0:0:
164,116,68841,5,10,0:0:0:0:
172,168,68921,1,0,0:0:0:0:
197,213,69002,1,0,0:0:0:0:
236,247,69083,1,0,0:0:0:0:
284,266,69164,1,8,0:0:0:0:
336,267,69245,1,0,0:0:0:0:
385,251,69326,1,0,0:0:0:0:
426,219,69407,1,0,0:0:0:0:
432,208,69488,5,10,0:0:0:0:
437,193,69568,1,0,0:0:0:0:
439,175,69649,1,0,0:0:0:0:
438,158,69730,1,0,0:0:0:0:
432,143,69811,1,8,0:0:0:0:
423,128,69892,1,0,0:0:0:0:
412,115,69973,1,0,0:0:0:0:
397,106,70054,1,0,0:0:0:0:
380,100,70135,6,0,B|320:116|320:116|276:80|276:80|204:104,1,160,10|0,0:0|0:0,0:0:0:0:
256,320,70620,5,0,0:0:0:0:
332,168,70782,1,0,0:0:0:0:
376,304,70943,1,0,0:0:0:0:
324,144,71105,1,0,0:0:0:0:
484,256,71267,1,2,0:0:0:0:
484,256,71348,1,0,0:0:0:0:
484,256,71429,1,0,0:0:0:0:
460,56,71914,5,0,0:0:0:0:
332,160,72075,1,0,0:0:0:0:
352,28,72237,1,0,0:0:0:0:
328,184,72399,1,0,0:0:0:0:
256,32,72561,1,2,0:0:0:0:
256,32,72641,1,0,0:0:0:0:
256,32,72722,1,0,0:0:0:0:
256,32,73208,5,0,0:0:0:0:
168,112,73369,1,0,0:0:0:0:
344,112,73531,1,0,0:0:0:0:
112,192,73693,1,0,0:0:0:0:
400,192,73854,1,0,0:0:0:0:
256,192,74016,5,2,0:0:0:0:
256,252,74340,1,2,0:0:0:0:
256,312,74663,1,2,0:0:0:0:
256,372,74986,1,2,0:0:0:0:
256,32,75310,5,2,0:0:0:0:
112,192,75633,1,0,0:0:0:0:
344,112,75957,1,0,0:0:0:0:
168,112,76280,1,0,0:0:0:0:
256,152,76604,5,2,0:0:0:0:
256,304,76765,1,0,0:0:0:0:
328,192,76927,1,0,0:0:0:0:
188,256,77089,1,0,0:0:0:0:
328,268,77251,2,0,L|397:307,2,80,2|0|0,0:0|0:0|0:0,0:0:0:0:
280,68,77736,1,0,0:0:0:0:
168,164,77898,5,2,0:0:0:0:
196,20,78059,1,0,0:0:0:0:
256,152,78221,1,0,0:0:0:0:
128,88,78383,1,0,0:0:0:0:
280,68,78544,2,0,L|360:64,2,80,2|0|0,0:0|0:0|0:0,0:0:0:0:
128,88,79030,1,0,0:0:0:0:
32,212,79191,6,0,P|48:248|96:264,1,80,8|0,0:0|0:0,0:0:0:0:
228,192,79515,1,0,0:0:0:0:
232,111,79676,6,0,P|204:62|163:39,2,80,0|0|0,0:0|0:0|0:0,0:0:0:0:
324,264,80161,1,0,0:0:0:0:
296,340,80323,6,0,P|240:354|211:343,2,80,0|8|0,0:0|0:0|0:0,0:0:0:0:
104,224,80808,1,0,0:0:0:0:
72,152,80970,6,0,P|12:167|-8:200,2,80,0|0|0,0:0|0:0|0:0,0:0:0:0:
284,192,81455,1,0,0:0:0:0:
204,196,81617,6,0,P|185:252|196:289,2,80,0|8|0,0:0|0:0|0:0,0:0:0:0:
216,64,82102,1,0,0:0:0:0:
140,40,82264,6,0,P|89:32|52:48,2,80,0|0|0,0:0|0:0|0:0,0:0:0:0:
284,276,82749,1,0,0:0:0:0:
361,259,82911,6,0,P|408:241|432:208,2,80,0|8|0,0:0|0:0|0:0,0:0:0:0:
200,108,83396,1,0,0:0:0:0:
124,132,83558,6,0,P|73:139|36:123,2,80,0|0|0,0:0|0:0|0:0,0:0:0:0:
268,320,84043,1,0,0:0:0:0:
344,344,84205,6,0,P|384:376|424:380,2,80,0|8|0,0:0|0:0|0:0,0:0:0:0:
308,196,84690,1,0,0:0:0:0:
232,220,84852,6,0,P|192:188|152:184,2,80,0|0|0,0:0|0:0|0:0,0:0:0:0:
160,60,85337,1,0,0:0:0:0:
80,56,85499,6,0,P|39:87|25:124,2,80,0|8|0,0:3|0:0|0:3,0:0:0:0:
272,344,85984,1,0,0:0:0:0:
208,296,86146,6,0,P|157:290|125:264,2,80,0|0|0,0:3|0:0|0:3,0:0:0:0:
356,152,86631,1,0,0:0:0:0:
420,200,86792,6,0,P|470:206|502:232,2,80,0|8|0,0:3|0:0|0:3,0:0:0:0:
276,276,87278,1,0,0:0:0:0:
196,292,87439,6,0,P|154:262|140:225,2,80,0|0|0,0:3|0:0|0:3,0:0:0:0:
336,16,87924,1,0,0:0:0:0:
404,56,88086,6,0,P|445:25|459:-11,2,80,0|8|0,0:3|0:0|0:3,0:0:0:0:
244,316,88571,1,0,0:0:0:0:
164,320,88733,6,0,P|124:353|84:357,2,80,0|0|0,0:3|0:0|0:3,0:0:0:0:
228,172,89218,1,0,0:0:0:0:
308,168,89379,6,0,P|348:136|388:132,2,80,0|8|0,0:3|0:0|0:3,0:0:0:0:
188,272,89865,1,0,0:0:0:0:
112,248,90027,6,0,P|72:280|32:284,2,80,0|0|0,0:0|0:0|0:0,0:0:0:0:
232,144,90512,1,0,0:0:0:0:
312,140,90674,6,0,P|353:171|367:208,2,80,0|8|0,0:3|0:0|0:3,0:0:0:0:
152,124,91159,1,0,0:0:0:0:
88,172,91321,6,0,P|37:178|5:204,2,80,0|0|0,0:3|0:0|0:3,0:0:0:0:
228,248,91806,1,0,0:0:0:0:
292,200,91968,6,0,P|342:195|374:169,2,80,0|8|0,0:3|0:0|0:3,0:0:0:0:
240,48,92453,1,0,0:0:0:0:
176,96,92615,6,0,P|125:102|93:128,2,80,0|0|0,0:3|0:0|0:3,0:0:0:0:
347,242,93100,5,0,0:0:0:0:
406,183,93262,6,0,P|410:123|390:91,2,80,0|8|0,0:0|0:0|0:0,0:0:0:0:
166,242,93747,1,0,0:0:0:0:
107,183,93909,6,0,P|103:123|123:91,2,80,0|0|0,0:0|0:0|0:0,0:0:0:0:
256,192,94393,1,0,0:0:0:0:
161,137,94555,5,0,0:0:0:0:
256,307,94717,1,8,0:0:0:0:
351,137,94879,1,0,0:0:0:0:
161,247,95202,5,0,0:0:0:0:
256,77,95364,1,0,0:0:0:0:
351,247,95526,1,0,0:0:0:0:
257,25,95849,6,0,L|256:104,2,80,0|8|0,0:0|0:0|0:0,0:0:0:0:
123,91,96496,2,0,L|180:148,2,80,0|0|0,0:0|0:0|0:0,0:0:0:0:
389,91,97143,2,0,L|332:148,2,80,0|8|0,0:0|0:0|0:0,0:0:0:0:
389,293,97790,2,0,L|332:236,2,80,0|0|0,0:0|0:0|0:0,0:0:0:0:
123,293,98437,2,0,L|180:236,2,80,0|8|0,0:0|0:0|0:0,0:0:0:0:
257,363,99084,2,0,L|256:284,2,80,0|0|0,0:0|0:0|0:0,0:0:0:0:
256,32,99730,5,0,0:0:0:0:
254,363,99892,1,10,0:0:0:0:
256,104,100377,5,0,0:0:0:0:
176,354,100539,1,8,0:0:0:0:
386,194,100701,1,0,0:0:0:0:
126,194,100862,1,8,0:0:0:0:
336,354,101024,1,0,0:0:0:0:
106,33,101186,1,10,0:0:0:0:
256,104,101671,5,0,0:0:0:0:
336,354,101833,1,8,0:0:0:0:
126,194,101995,1,0,0:0:0:0:
386,194,102156,1,8,0:0:0:0:
176,354,102318,1,0,0:0:0:0:
406,33,102480,1,10,0:0:0:0:
106,33,102965,5,10,0:0:0:0:
336,354,103127,1,10,0:0:0:0:
406,33,103612,5,10,0:0:0:0:
176,354,103774,1,10,0:0:0:0:
376,149,104097,6,0,P|414:138|460:148,1,80,10|0,0:0|0:0,0:0:0:0:
156,112,104420,2,0,P|116:76|108:44,1,80,10|0,0:0|0:0,0:0:0:0:
240,288,104744,2,0,P|224:352|204:372,1,80,10|0,0:0|0:0,0:0:0:0:
296,76,105067,5,10,0:0:0:0:
322,47,105147,1,0,0:0:0:0:
360,38,105228,1,0,0:0:0:0:
398,49,105309,1,0,0:0:0:0:
417,83,105390,1,8,0:0:0:0:
424,122,105471,1,0,0:0:0:0:
444,157,105552,1,0,0:0:0:0:
475,182,105633,1,0,0:0:0:0:
508,200,105714,5,10,0:0:0:0:
494,209,105794,1,0,0:0:0:0:
483,223,105875,1,0,0:0:0:0:
476,238,105956,1,0,0:0:0:0:
474,255,106037,1,8,0:0:0:0:
476,272,106118,1,0,0:0:0:0:
483,288,106199,1,0,0:0:0:0:
494,301,106280,1,0,0:0:0:0:
504,316,106361,5,10,0:0:0:0:
470,337,106441,1,0,0:0:0:0:
433,352,106522,1,0,0:0:0:0:
394,359,106603,1,0,0:0:0:0:
354,358,106684,1,8,0:0:0:0:
315,348,106765,1,0,0:0:0:0:
279,331,106846,1,0,0:0:0:0:
288,316,106927,1,0,0:0:0:0:
301,309,107008,5,10,0:0:0:0:
318,308,107088,1,0,0:0:0:0:
334,305,107169,1,0,0:0:0:0:
350,298,107250,1,0,0:0:0:0:
365,289,107331,1,8,0:0:0:0:
377,278,107412,1,0,0:0:0:0:
388,264,107493,1,0,0:0:0:0:
395,249,107574,1,0,0:0:0:0:
401,233,107655,5,10,0:0:0:0:
366,251,107735,1,0,0:0:0:0:
326,252,107816,1,0,0:0:0:0:
290,235,107897,1,0,0:0:0:0:
266,203,107978,1,8,0:0:0:0:
259,164,108059,1,0,0:0:0:0:
271,126,108140,1,0,0:0:0:0:
298,98,108221,1,0,0:0:0:0:
281,105,108302,5,10,0:0:0:0:
267,114,108382,1,0,0:0:0:0:
252,123,108463,1,0,0:0:0:0:
237,129,108544,1,0,0:0:0:0:
220,133,108625,1,8,0:0:0:0:
205,141,108706,1,0,0:0:0:0:
197,153,108787,1,0,0:0:0:0:
193,169,108868,1,0,0:0:0:0:
193,181,108949,1,10,0:0:0:0:
257,295,109110,5,0,0:3:0:0:
316,112,109272,1,0,0:3:0:0:
256,316,109434,1,2,0:3:0:0:
192,116,109596,1,0,0:3:0:0:
256,336,109757,1,0,0:3:0:0:
316,112,109919,1,0,0:3:0:0:
256,356,110081,1,0,0:3:0:0:
252,64,110243,5,10,0:0:0:0:
205,40,110323,1,0,0:0:0:0:
154,32,110404,1,0,0:0:0:0:
103,42,110485,1,0,0:0:0:0:
58,67,110566,1,0,0:0:0:0:
24,106,110647,1,0,0:0:0:0:
4,154,110728,1,0,0:0:0:0:
0,205,110809,1,0,0:0:0:0:
8,256,110889,5,10,0:0:0:0:
24,262,110969,1,0,0:0:0:0:
39,269,111050,1,0,0:0:0:0:
53,278,111131,1,0,0:0:0:0:
67,289,111212,1,8,0:0:0:0:
80,300,111293,1,0,0:0:0:0:
91,313,111374,1,0,0:0:0:0:
101,327,111455,1,0,0:0:0:0:
108,344,111536,5,10,0:0:0:0:
157,360,111616,1,0,0:0:0:0:
208,365,111697,1,0,0:0:0:0:
260,359,111778,1,0,0:0:0:0:
308,341,111859,1,8,0:0:0:0:
352,312,111940,1,0,0:0:0:0:
388,275,112021,1,0,0:0:0:0:
414,230,112102,1,0,0:0:0:0:
424,180,112183,5,10,0:0:0:0:
427,157,112263,1,0,0:0:0:0:
415,138,112344,1,0,0:0:0:0:
393,132,112425,1,0,0:0:0:0:
373,140,112506,1,8,0:0:0:0:
362,160,112587,1,0,0:0:0:0:
367,182,112668,1,0,0:0:0:0:
385,195,112749,1,0,0:0:0:0:
408,200,112830,5,10,0:0:0:0:
424,150,112910,1,0,0:0:0:0:
419,99,112991,1,0,0:0:0:0:
395,53,113072,1,0,0:0:0:0:
355,21,113154,1,8,0:0:0:0:
305,7,113234,1,0,0:0:0:0:
254,14,113315,1,0,0:0:0:0:
209,40,113396,1,0,0:0:0:0:
180,84,113477,5,10,0:0:0:0:
202,88,113557,1,0,0:0:0:0:
223,96,113638,1,0,0:0:0:0:
244,105,113719,1,0,0:0:0:0:
264,117,113800,1,8,0:0:0:0:
282,131,113881,1,0,0:0:0:0:
299,146,113962,1,0,0:0:0:0:
314,164,114043,1,0,0:0:0:0:
324,184,114124,6,0,L|343:246,15,40,10|0|0|0|8|0|0|0|8|0|0|0|8|0|0|0,0:0|0:0|0:0|0:0|0:0|0:0|0:0|0:0|0:0|0:0|0:0|0:0|0:0|0:0|0:0|0:0,0:0:0:0:
432,240,115418,2,0,L|468:200,15,40,10|0|0|0|8|0|0|0|8|0|0|0|8|0|0|0,0:0|0:0|0:0|0:0|0:0|0:0|0:0|0:0|0:0|0:0|0:0|0:0|0:0|0:0|0:0|0:0,0:0:0:0:
320,168,116712,2,0,L|248:144,7,40,10|0|0|0|8|0|0|0,0:0|0:0|0:0|0:0|0:0|0:0|0:0|0:0,0:0:0:0:
432,240,117358,2,0,L|472:200,7,40,10|0|0|0|8|0|0|0,0:0|0:0|0:0|0:0|0:0|0:0|0:0|0:0,0:0:0:0:
348,336,118005,2,0,L|282:353,3,40,10|0|0|0,0:0|0:0|0:0|0:0,0:0:0:0:
432,240,118329,2,0,L|497:257,3,40,10|0|0|0,0:0|0:0|0:0|0:0,0:0:0:0:
320,168,118652,2,0,L|254:185,3,40,10|0|0|0,0:0|0:0|0:0|0:0,0:0:0:0:
432,100,118976,2,0,L|497:117,3,40,10|0|0|0,0:0|0:0|0:0|0:0,0:0:0:0:
228,88,119299,5,10,0:0:0:0:
188,92,119380,1,0,0:0:0:0:
150,103,119461,1,0,0:0:0:0:
113,118,119542,1,0,0:0:0:0:
83,145,119623,1,8,0:0:0:0:
65,180,119703,1,0,0:0:0:0:
59,219,119784,1,0,0:0:0:0:
67,258,119865,1,0,0:0:0:0:
80,292,119946,5,2,0:0:0:0:
97,257,120027,1,0,0:0:0:0:
127,230,120108,1,0,0:0:0:0:
163,216,120189,1,0,0:0:0:0:
204,217,120269,1,0,0:0:0:0:
241,232,120350,1,0,0:0:0:0:
270,259,120431,1,0,0:0:0:0:
286,295,120512,1,0,0:0:0:0:
300,288,120593,5,10,0:0:0:0:
311,277,120674,1,0,0:0:0:0:
322,266,120755,1,0,0:0:0:0:
332,253,120836,1,0,0:0:0:0:
341,240,120916,1,8,0:0:0:0:
349,225,120997,1,0,0:0:0:0:
356,212,121078,1,0,0:0:0:0:
361,197,121159,1,0,0:0:0:0:
366,181,121240,5,10,0:0:0:0:
369,166,121321,1,0,0:0:0:0:
371,150,121402,1,0,0:0:0:0:
371,134,121482,1,0,0:0:0:0:
371,118,121563,1,8,0:0:0:0:
370,102,121644,1,0,0:0:0:0:
367,86,121725,1,0,0:0:0:0:
364,70,121806,1,0,0:0:0:0:
360,56,121887,5,10,0:0:0:0:
385,27,121968,1,0,0:0:0:0:
424,19,122048,1,0,0:0:0:0:
457,38,122129,1,0,0:0:0:0:
472,74,122210,1,8,0:0:0:0:
472,112,122291,1,0,0:0:0:0:
450,146,122372,1,0,0:0:0:0:
422,175,122453,1,0,0:0:0:0:
388,196,122534,5,10,0:0:0:0:
350,208,122615,1,0,0:0:0:0:
311,212,122695,1,0,0:0:0:0:
271,207,122776,1,0,0:0:0:0:
234,193,122857,1,8,0:0:0:0:
200,172,122938,1,0,0:0:0:0:
173,143,123019,1,0,0:0:0:0:
152,109,123100,1,0,0:0:0:0:
136,111,123181,5,10,0:0:0:0:
118,119,123261,1,0,0:0:0:0:
101,127,123342,1,0,0:0:0:0:
85,137,123423,1,0,0:0:0:0:
71,149,123504,1,8,0:0:0:0:
59,163,123585,1,0,0:0:0:0:
48,178,123666,1,0,0:0:0:0:
39,195,123747,1,0,0:0:0:0:
33,211,123827,5,10,0:0:0:0:
29,230,123908,1,0,0:0:0:0:
27,249,123989,1,0,0:0:0:0:
27,267,124070,1,0,0:0:0:0:
29,286,124151,1,8,0:0:0:0:
35,304,124232,1,0,0:0:0:0:
42,321,124313,1,0,0:0:0:0:
52,337,124393,1,0,0:0:0:0:
64,348,124474,5,10,0:0:0:0:
78,311,124555,1,0,0:0:0:0:
101,279,124636,1,0,0:0:0:0:
131,252,124717,1,0,0:0:0:0:
166,233,124798,1,8,0:0:0:0:
204,223,124879,1,0,0:0:0:0:
244,221,124960,1,0,0:0:0:0:
283,229,125040,1,0,0:0:0:0:
316,251,125121,5,10,0:0:0:0:
351,270,125202,1,0,0:0:0:0:
391,271,125283,1,0,0:0:0:0:
427,255,125364,1,0,0:0:0:0:
454,226,125445,1,0,0:0:0:0:
466,188,125526,1,0,0:0:0:0:
461,149,125606,1,0,0:0:0:0:
440,115,125687,1,0,0:0:0:0:
412,95,125768,5,10,0:0:0:0:
401,115,125849,1,0,0:0:0:0:
388,133,125930,1,0,0:0:0:0:
375,150,126011,1,0,0:0:0:0:
361,166,126092,1,8,0:0:0:0:
346,180,126172,1,0,0:0:0:0:
329,195,126253,1,0,0:0:0:0:
312,208,126334,1,0,0:0:0:0:
294,219,126415,5,10,0:0:0:0:
275,231,126496,1,0,0:0:0:0:
256,240,126577,1,0,0:0:0:0:
236,248,126658,1,0,0:0:0:0:
212,256,126739,6,0,P|176:260|136:260,3,40,8|0|0|0,0:0|0:0|0:0|0:0,0:0:0:0:
208,4,127062,5,10,0:0:0:0:
288,112,127224,1,10,0:0:0:0:
208,195,127385,1,10,0:0:0:0:
288,283,127547,1,10,0:0:0:0:
347,24,127709,5,10,0:0:0:0:
169,112,127871,1,10,0:0:0:0:
347,195,128032,1,10,0:0:0:0:
169,283,128194,1,10,0:0:0:0:
160,96,128356,5,10,0:0:0:0:
376,304,128517,1,10,0:0:0:0:
376,96,128679,1,10,0:0:0:0:
160,304,128841,1,10,0:0:0:0:
101,44,129003,5,10,0:0:0:0:
408,337,129164,1,10,0:0:0:0:
408,44,129326,1,10,0:0:0:0:
101,337,129488,1,10,0:0:0:0:
256,104,129650,5,10,0:0:0:0:
164,252,129811,1,10,0:0:0:0:
344,268,129973,2,0,P|369:312|413:336,1,80,10|10,0:0|0:0,0:0:0:0:
168,144,130296,5,10,0:0:0:0:
344,144,130458,1,10,0:0:0:0:
256,304,130620,2,0,L|256:392,1,80,10|10,0:0|0:0,0:0:0:0:
256,108,130943,5,10,0:0:0:0:
345,268,131105,1,10,0:0:0:0:
168,268,131267,2,0,P|131:324|99:336,1,80,10|10,0:0|0:0,0:0:0:0:
256,109,131590,5,10,0:0:0:0:
140,148,131752,1,10,0:0:0:0:
377,148,131914,1,10,0:0:0:0:
256,297,132075,1,10,0:0:0:0:
256,109,132237,5,8,0:0:0:0:
197,289,132399,1,8,0:0:0:0:
350,179,132561,1,8,0:0:0:0:
159,179,132722,1,8,0:0:0:0:
314,289,132884,1,8,0:0:0:0:
285,74,133046,5,8,0:0:0:0:
156,272,133208,1,8,0:0:0:0:
377,176,133369,1,8,0:0:0:0:
156,115,133531,1,10,0:0:0:0:
300,309,133693,1,8,0:0:0:0:
343,38,133854,5,8,0:0:0:0:
84,266,134016,1,8,0:0:0:0:
433,215,134178,1,8,0:0:0:0:
144,48,134340,1,8,0:0:0:0:
272,375,134501,1,8,0:0:0:0:
256,192,134663,5,8,0:0:0:0:
223,74,134825,5,10,0:0:0:0:
353,272,134986,1,8,0:0:0:0:
131,176,135148,1,8,0:0:0:0:
353,115,135310,1,8,0:0:0:0:
208,309,135472,1,8,0:0:0:0:
148,48,135633,5,8,0:0:0:0:
408,268,135795,1,8,0:0:0:0:
89,256,135957,1,8,0:0:0:0:
364,48,136119,1,10,0:0:0:0:
256,352,136280,1,8,0:0:0:0:
256,28,136442,5,8,0:0:0:0:
68,272,136604,1,8,0:0:0:0:
424,284,136765,1,8,0:0:0:0:
73,105,136927,5,8,0:0:0:0:
440,108,137089,1,8,0:0:0:0:
256,352,137251,1,8,0:0:0:0:
436,85,137412,6,0,L|500:81,7,40,10|0|0|0|8|0|0|0,0:0|0:0|0:0|0:0|0:0|0:0|0:0|0:0,0:0:0:0:
412,121,138059,1,10,0:0:0:0:
379,149,138139,1,0,0:0:0:0:
341,170,138220,1,0,0:0:0:0:
299,185,138301,1,8,0:0:0:0:
256,192,138382,1,0,0:0:0:0:
212,191,138463,1,0,0:0:0:0:
169,183,138544,1,0,0:0:0:0:
128,166,138625,1,0,0:0:0:0:
96,140,138706,6,0,L|88:72,7,40,10|0|0|0|8|0|0|0,0:0|0:0|0:0|0:0|0:0|0:0|0:0|0:0,0:0:0:0:
72,172,139353,1,10,0:0:0:0:
102,191,139433,1,0,0:0:0:0:
135,207,139514,1,0,0:0:0:0:
169,219,139595,1,0,0:0:0:0:
204,227,139676,1,8,0:0:0:0:
240,229,139757,1,0,0:0:0:0:
276,228,139838,1,0,0:0:0:0:
311,222,139919,1,0,0:0:0:0:
346,211,140000,6,0,L|321:147,7,40,10|0|0|0|8|0|0|0,0:0|0:0|0:0|0:0|0:0|0:0|0:0|0:0,0:0:0:0:
348,236,140647,1,10,0:0:0:0:
343,262,140727,1,0,0:0:0:0:
328,286,140808,1,0,0:0:0:0:
304,299,140889,1,0,0:0:0:0:
277,306,140970,1,8,0:0:0:0:
249,310,141051,1,0,0:0:0:0:
221,312,141132,1,0,0:0:0:0:
193,314,141213,1,0,0:0:0:0:
165,315,141294,6,0,L|140:378,7,40,10|0|0|0|8|0|0|0,0:0|0:0|0:0|0:0|0:0|0:0|0:0|0:0,0:0:0:0:
152,300,141941,1,10,0:0:0:0:
141,283,142021,1,0,0:0:0:0:
131,266,142102,1,0,0:0:0:0:
123,247,142183,1,0,0:0:0:0:
117,228,142264,1,8,0:0:0:0:
113,209,142345,1,0,0:0:0:0:
111,189,142426,1,0,0:0:0:0:
112,172,142507,1,0,0:0:0:0:
113,156,142588,6,0,B|130:135|130:95|130:95|168:182|221:208|221:208|206:263|206:263|193:252|180:251|180:251|205:287|209:328|209:328|240:300|284:289|284:289|275:281|253:278|253:278|278:227|278:227|332:245|395:220|395:220|425:291|392:364|392:364|423:295|446:344|446:344|429:297|492:320|492:320|431:293|468:225|525:224|525:224|468:219|488:137|424:132,1,1280,0|10,0:0|0:0,0:0:0:0:
