osu file format v5

[General]
AudioFilename: Trans-Siberian Orchestra - 04 - Wizards In Winter.mp3
AudioLeadIn: 0
PreviewTime: -1
Countdown: 1
SampleSet: Normal
StackLeniency: 0.7
Mode: 0

[Metadata]
Title:Wizards In Winter
Artist:Trans-Siberian Orchestra
Creator:mcoaws
Version:Insane
Source:
Tags:

[Difficulty]
HPDrainRate:5
CircleSize:5
OverallDifficulty:5
SliderMultiplier:1.4
SliderTickRate:1

[Events]
//Background and Video events
//Break Periods
//Storyboard Layer 0 (Background)
//Storyboard Layer 1 (Failing)
//Storyboard Layer 2 (Passing)
//Storyboard Layer 3 (Foreground)
//Storyboard Sound Samples
//Background Colour Transformations
3,100,163,162,255

[TimingPoints]
641,407.7774986,4,1,0,100

[HitObjects]
64,224,6145,1,0
64,192,6349,1,0
128,160,6553,1,0
160,160,6757,1,0
224,128,6961,1,0
256,96,7114,1,0
320,128,7675,1,0
320,160,7879,1,0
288,224,8133,1,0
192,288,8286,1,0
160,224,8490,1,0
160,160,8694,1,0
320,128,9102,1,0
320,128,9204,1,0
224,96,9357,1,0
320,64,9561,1,0
224,160,9866,1,0
224,160,9917,1,0
320,192,10121,1,0
192,224,10325,1,0
352,224,10631,1,0
288,256,10886,1,0
128,288,11141,1,0
160,192,11447,1,0
160,192,11549,1,0
256,160,11752,1,0
160,160,11956,1,0
224,96,12262,1,0
224,96,12364,1,0
256,128,12517,1,0
192,160,12772,1,0
320,224,13027,1,0
288,224,13129,1,0
224,352,13384,1,0
224,256,13587,1,0
224,192,13791,1,0
224,128,13995,1,0
288,64,14250,1,0
352,128,14403,1,0
352,192,14607,1,0
320,256,14811,1,0
160,192,15320,1,0
160,192,15422,1,0
160,192,15524,1,0
128,256,15677,1,0
128,256,15779,1,0
128,256,15881,1,0
256,320,16034,1,0
256,320,16136,1,0
256,320,16289,1,0
384,256,16391,1,0
384,256,16544,1,0
384,256,16595,1,0
320,160,16748,1,0
320,160,16901,1,0
320,160,17003,1,0
224,192,17155,1,0
224,192,17359,1,0
224,192,17461,1,0
224,288,17614,1,0
224,288,17716,1,0
224,288,17818,1,0
352,320,17971,1,0
352,320,18124,1,0
352,288,18226,1,0
352,224,18379,1,0
352,224,18481,1,0
352,224,18634,1,0
256,224,18838,1,0
256,224,19041,1,0
160,288,19194,1,0
160,288,19347,1,0
160,288,19449,1,0
160,224,19602,1,0
192,192,19704,1,0
192,192,19806,1,0
256,160,20061,1,0
352,192,20265,1,0
384,224,20469,1,0
352,288,20622,1,0
288,288,20825,1,0
224,256,21029,1,0
192,224,21233,1,0
192,160,21437,1,0
160,160,21641,1,0
160,256,21845,1,0
64,288,22049,1,0
96,192,22253,1,0
160,160,22457,1,0
192,224,22660,1,0
160,256,22864,1,0
128,224,23068,1,0
96,192,23272,1,0
64,224,23476,1,0
96,288,23680,1,0
64,352,23833,1,0
32,320,24037,1,0
32,320,24292,1,0
256,192,25515,12,0,26534
32,160,27554,1,0
128,160,27707,1,0
160,160,27911,1,0
256,160,28115,1,0
352,224,28726,1,0
256,256,28879,1,0
224,256,29083,1,0
192,224,29338,1,0
224,160,29542,1,0
160,224,29746,1,0
160,256,30306,1,0
160,256,30408,1,0
160,256,30510,1,0
256,128,31122,1,0
256,128,31224,1,0
256,128,31377,1,0
256,256,31530,1,0
256,256,31683,1,0
256,256,31785,1,0
160,224,31937,1,0
160,224,32039,1,0
192,224,32192,1,0
320,224,32345,1,0
320,224,32447,1,0
320,224,32549,1,0
192,192,33008,1,0
192,160,33212,1,0
192,128,33416,1,0
224,96,33569,1,0
288,64,33772,1,0
320,96,33976,1,0
320,96,34180,1,0
320,96,34282,1,0
320,96,34384,1,0
320,96,34639,1,0
224,128,34792,1,0
224,160,34996,1,0
192,160,35200,1,0
192,160,35404,1,0
192,224,35607,1,0
256,224,35811,1,0
256,224,35913,1,0
256,224,36423,1,0
224,224,36627,1,0
160,192,36831,1,0
192,96,37035,1,0
256,96,37239,1,0
288,64,37391,1,0
288,64,37595,1,0
288,64,37646,1,0
288,64,37799,1,0
288,64,37901,1,0
160,320,39430,1,0
160,288,39634,1,0
192,320,39889,1,0
192,288,40093,1,0
224,320,40246,1,0
224,288,40501,1,0
224,288,40654,1,0
224,288,40756,1,0
224,288,40858,1,0
224,288,40960,1,0
224,288,41112,1,0
256,192,41265,1,0
192,192,41469,1,0
128,160,41673,1,0
192,128,41877,1,0
256,128,42081,1,0
224,64,42285,1,0
224,64,42387,1,0
224,64,42489,1,0
224,64,42591,1,0
224,64,42744,1,0
128,96,42998,1,0
128,128,43100,1,0
128,192,43304,1,0
160,224,43508,1,0
224,224,43763,1,0
320,224,43916,1,0
320,224,44018,1,0
320,224,44171,1,0
320,224,44273,1,0
320,224,44375,1,0
192,256,44884,1,0
192,192,45088,1,0
224,128,45292,1,0
288,128,45496,1,0
320,96,45751,1,0
384,64,45904,1,0
320,160,46566,1,0
288,224,46719,1,0
352,256,46974,1,0
288,320,47127,1,0
352,320,47331,1,0
320,352,47535,1,0
352,224,48096,1,0
256,224,48350,1,0
192,160,48911,1,0
192,160,49013,1,0
192,160,49115,1,0
288,160,49319,1,0
288,160,49421,1,0
288,160,49574,1,0
224,256,49727,1,0
224,256,49829,1,0
192,256,49931,1,0
256,96,50134,1,0
256,96,50389,1,0
288,224,50542,1,0
320,256,50746,1,0
128,192,50950,1,0
128,192,51103,1,0
128,192,51205,1,0
288,160,51358,1,0
288,160,51562,1,0
224,288,51766,1,0
224,256,51868,1,0
224,256,52020,1,0
256,192,52683,12,0,55232
256,192,55639,12,0,58392
32,160,58953,1,0
160,160,59259,1,0
224,160,59462,1,0
256,96,59666,1,0
192,128,60074,1,0
192,224,60482,1,0
128,256,60839,1,0
160,224,61094,1,0
224,192,61246,1,0
192,160,61654,1,0
192,128,62113,1,0
288,96,62470,1,0
256,128,62725,1,0
320,160,62929,1,0
288,160,63132,1,0
288,192,63285,1,0
352,192,63489,1,0
288,192,63693,1,0
320,224,63897,1,0
256,224,64101,1,0
320,224,64305,1,0
256,256,64458,1,0
288,288,64662,1,0
256,288,64865,1,0
384,320,65324,1,0
384,224,65732,1,0
320,192,65936,1,0
320,224,66191,1,0
224,224,66344,1,0
192,192,66497,1,0
128,128,66904,1,0
256,160,67465,1,0
192,160,67669,1,0
192,224,67822,1,0
128,288,68128,1,0
288,128,68994,1,0
256,160,69147,1,0
256,256,69351,1,0
128,256,69759,1,0
96,256,70218,1,0
128,160,70574,1,0
64,192,70931,1,0
128,288,71339,1,0
96,224,71747,1,0
224,192,72409,1,0
224,192,72562,1,0
224,192,72766,1,0
224,192,72970,1,0
224,192,73174,1,0
224,192,73378,1,0
352,160,73989,1,0
352,160,74193,1,0
352,160,74397,1,0
352,160,74550,1,0
320,160,74805,1,0
320,160,75009,1,0
224,192,75570,1,0
224,192,75723,1,0
128,128,76385,1,0
128,128,76538,1,0
192,64,76997,1,0
192,128,77456,1,0
256,128,77812,1,0
256,96,78373,1,0
256,96,78475,1,0
256,96,78628,1,0
256,64,78730,1,0
256,64,78883,1,0
256,64,79036,1,0
256,64,79138,1,0
256,64,79291,1,0
256,32,79393,1,0
256,32,79545,1,0
352,32,79902,1,0
352,32,80004,1,0
352,64,80106,1,0
320,96,80310,1,0
352,128,80514,1,0
320,160,80718,1,0
352,224,80922,1,0
320,224,81075,1,0
352,288,81482,1,0
320,320,81686,1,0
352,352,81890,1,0
256,352,82094,1,0
192,288,82298,1,0
192,256,82502,1,0
256,224,82706,1,0
288,192,83063,1,0
160,224,84745,1,0
160,224,84847,1,0
160,224,84898,1,0
160,224,84999,1,0
96,224,85101,1,0
96,224,85203,1,0
96,224,85305,1,0
96,224,85407,1,0
96,224,85458,1,0
64,224,85662,1,0
64,224,85764,1,0
32,224,85968,1,0
32,224,86070,1,0
128,160,86427,1,0
128,160,86478,1,0
128,160,86580,1,0
128,160,86682,1,0
128,96,86783,1,0
128,96,86885,1,0
128,96,86987,1,0
128,96,87089,1,0
128,64,87293,1,0
128,64,87395,1,0
128,64,87497,1,0
160,128,88007,1,0
160,128,88109,1,0
160,160,88364,1,0
160,160,88466,1,0
160,160,88568,1,0
160,160,88669,1,0
160,160,88771,1,0
160,192,88873,1,0
160,192,88975,1,0
160,192,89026,1,0
160,192,89128,1,0
160,224,89281,1,0
160,224,89332,1,0
160,224,89434,1,0
160,224,89536,1,0
160,224,89638,1,0
288,256,90097,1,0
288,192,90352,1,0
288,128,90606,1,0
224,64,90963,1,0
160,64,91218,1,0
192,224,91932,1,0
128,256,92085,1,0
96,192,92238,1,0
160,128,92441,1,0
224,64,92798,1,0
256,160,93461,1,0
288,224,93614,1,0
224,256,93818,1,0
160,256,94022,1,0
128,192,94225,1,0
128,160,94429,1,0
320,96,94837,1,0
320,224,95245,1,0
128,256,95653,1,0
128,160,96060,1,0
224,160,96213,1,0
224,224,96417,1,0
192,288,96621,1,0
96,256,96774,1,0
96,192,96978,1,0
128,128,97233,1,0
160,128,97386,1,0
256,192,97997,12,0,100954
