osu file format v6

[General]
AudioFilename: Trans-Siberian Orchestra - 09 - Christmas Nights In Blue.mp3
AudioLeadIn: 0
PreviewTime: 35746
Countdown: 0
SampleSet: Soft
StackLeniency: 0.7
Mode: 0
LetterboxInBreaks: 1

[Editor]
Bookmarks: 11931,59946,71856,119856,131788,156832,179650,191614,215689
DistanceSpacing: 0.680000007152557
BeatDivisor: 3
GridSize: 8

[Metadata]
Title:Christmas Nights In Blue
Artist:Trans-Siberian Orchestra
Creator:MetalMario201
Version:Normal
Source:
Tags:winter blues new york

[Difficulty]
HPDrainRate:5
CircleSize:4
OverallDifficulty:5
SliderMultiplier:1.6
SliderTickRate:1

[Events]
//Background and Video events
0,0,"background3.jpg"
//Break Periods
2,60146,70656
2,120056,130091
2,179849,190295
//Storyboard Layer 0 (Background)
//Storyboard Layer 1 (Fail)
//Storyboard Layer 2 (Pass)
//Storyboard Layer 3 (Foreground)
//Storyboard Sound Samples
//Background Colour Transformations
3,100,163,162,255

[TimingPoints]
80.0898068782494,370.37037037037,4,2,0,90,1,0
11931,374.064837905237,4,2,0,90,1,0
17666,-100,4,1,0,70,0,0
18477,-100,4,2,0,90,0,0
18851,-100,4,1,0,70,0,0
19225,-100,4,2,0,90,0,0
20721,-100,4,1,0,70,0,0
21469,-100,4,2,0,90,0,0
21843,-100,4,1,0,70,0,0
22217,-100,4,2,0,90,0,0
29449,-100,4,1,0,70,0,0
30447,-100,4,2,0,90,0,0
30821,-100,4,1,0,70,0,0
31195,-100,4,2,0,90,0,0
32691,-100,4,1,0,70,0,0
33439,-100,4,2,0,90,0,0
33813,-100,4,1,0,70,0,0
34187,-100,4,2,0,90,0,0
35682,-100,4,1,0,70,0,0
35871,376.175548589342,4,1,0,70,1,1
58817,-100,4,2,0,90,0,0
59946,372.208436724566,4,2,0,90,1,0
71856,373.831775700935,4,2,0,90,1,0
77588,-100,4,1,0,70,0,0
78398,-100,4,2,0,90,0,0
78771,-100,4,1,0,70,0,0
79145,-100,4,2,0,90,0,0
80641,-100,4,1,0,70,0,0
80952,-100,4,2,0,90,0,0
81139,-100,4,1,0,70,0,0
81388,-100,4,2,0,90,0,0
81949,-100,4,1,0,70,0,0
82136,-100,4,2,0,90,0,0
89550,-100,4,1,0,70,0,0
90360,-100,4,2,0,90,0,0
90734,-100,4,1,0,70,0,0
91108,-100,4,2,0,90,0,0
92603,-100,4,1,0,70,0,0
94410,-100,4,2,0,90,0,0
94722,-100,4,1,0,70,0,0
95781,376.175548589342,4,1,0,70,1,1
118727,-100,4,2,0,90,0,0
119856,372.902423865755,4,2,0,90,1,0
137755,374.064837905237,4,2,0,90,1,0
185635,-100,4,1,0,70,0,0
191614,376.175548589342,4,1,0,70,1,1
213056,-100,4,2,0,90,0,0
215689,374.064837905237,4,2,0,90,1,0

[HitObjects]
104,8,11931,6,0,B|32:26|18:40|0:114,3,160,2|0|2|0
112,120,13427,1,2
32,192,13801,1,0
112,264,14175,1,2
112,264,14424,1,0
256,192,14923,5,2
312,96,15297,1,0
416,64,15671,2,2,B|496:96|522:192|496:288|414:321,1,320
312,288,16793,1,0
256,192,17167,1,2
256,192,17417,1,0
200,16,17916,5,6
312,128,18290,1,6
200,128,18664,1,0
312,16,19038,1,4
424,16,19412,2,0,B|510:34|504:138,1,160,2|0
504,248,20160,2,2,B|510:350|423:369,1,160
312,368,20908,5,6
200,256,21282,1,6
312,256,21656,1,0
200,368,22030,1,4
88,368,22404,2,0,B|2:350|8:246,1,160,2|0
8,136,23152,2,2,B|2:34|89:15,1,160
512,88,23901,5,6
512,200,24275,1,0
416,144,24649,1,2
416,352,25397,2,0,B|312:364|244:296|256:190,1,266.666666666667,2|2
0,88,26768,5,0
0,88,26893,1,2
0,200,27267,1,0
96,144,27641,2,2,B|96:312,1,160,2|0
256,304,28389,1,2
256,304,28639,1,0
256,192,29013,1,2
312,16,29886,5,6
200,128,30260,1,6
312,128,30634,1,0
200,16,31008,1,4
88,16,31382,2,0,B|2:34|8:138,1,160,2|0
8,248,32130,1,2
43,315,32379,1,0
43,315,32504,1,2
200,368,32878,5,6
312,256,33252,1,6
200,256,33626,1,0
312,368,34000,1,4
424,368,34374,2,0,B|510:350|504:246,1,160,2|0
504,136,35123,1,2
472,72,35372,1,0
472,72,35497,1,2
368,216,35871,5,4
368,216,36121,1,0
144,216,36623,1,12
144,216,36874,1,0
256,24,37375,1,6
256,24,37626,1,0
256,192,38002,1,6
0,312,38755,5,0
0,312,38880,1,6
88,368,39256,1,0
136,312,39507,1,8
248,312,39883,2,2,B|260:376|323:392|388:376|400:311,1,213.333333333333,2|6
512,312,40761,1,0
512,312,41012,1,4
480,96,41764,5,0
480,96,41889,1,4
408,16,42265,1,0
336,96,42642,2,0,B|168:96,1,160,8|0
104,16,43394,1,4
32,96,43770,1,0
104,176,44146,1,8
32,256,44523,1,0
176,336,44899,6,0,B|344:336,1,160,6|0
336,224,45651,2,0,B|168:224,1,160,14|0
112,136,46403,2,2,B|168:72|256:66|344:72|401:137,1,320,6|6
432,248,47532,5,0
456,352,47908,2,0,B|352:364|284:296|296:190,1,266.666666666667,4|8
56,352,49287,1,0
56,352,49413,2,0,B|160:364|228:296|216:190,1,266.666666666667,2|6
512,72,50918,5,6
464,16,51168,1,0
376,72,51544,1,8
264,72,51921,2,2,B|252:8|189:-8|124:8|112:73,1,213.333333333333,2|6
0,72,52798,1,0
0,72,53049,1,6
0,288,53927,5,4
96,344,54303,1,0
200,368,54679,1,8
312,368,55055,1,0
416,344,55432,1,6
512,288,55808,1,0
408,240,56184,2,2,B|312:298|200:298|102:239,1,320,14|6
200,176,57313,5,2
200,64,57689,1,14
312,64,58065,1,2
312,176,58441,1,6
256,208,58817,12,4,59946
408,8,71856,6,0,B|480:26|494:40|512:114,3,160,2|0|10|0
400,120,73351,1,2
480,192,73725,1,0
400,264,74098,1,10
400,264,74348,1,0
256,192,74846,5,2
200,96,75220,1,0
96,64,75594,2,2,B|16:96|-10:192|16:288|98:321,1,320,10|2
200,288,76715,1,0
256,192,77089,1,10
256,192,77338,1,0
312,16,77837,5,6
200,128,78211,1,6
312,128,78584,1,0
200,16,78958,1,4
88,16,79332,2,0,B|2:34|8:138,1,160,2|0
8,248,80080,1,2
43,315,80329,1,0
43,315,80454,1,2
256,208,80827,5,6
256,280,81077,1,0
256,280,81201,1,6
176,352,81575,2,0,B|344:352,1,160,0|4
472,312,82323,1,2
504,248,82572,1,0
504,136,82946,1,2
456,40,83320,1,0
456,40,83444,1,2
0,108,83818,5,6
0,180,84067,1,0
104,144,84441,2,0,B|104:360,1,213.333333333333,2|0
208,360,85313,1,2
256,264,85687,1,0
256,264,85936,1,2
304,168,86310,1,2
512,88,86809,5,2
512,200,87183,1,0
416,144,87556,2,2,B|416:312,1,160,10|0
304,360,88304,1,2
304,360,88553,1,0
256,264,88927,1,2
208,168,89301,1,2
200,16,89799,5,6
312,128,90173,1,6
200,128,90547,1,0
312,16,90921,1,4
424,16,91295,2,0,B|510:34|504:138,1,160,2|0
504,248,92042,1,2
469,315,92292,1,0
469,315,92416,1,2
256,144,92790,5,6
256,256,93164,1,6
256,368,93538,1,2
40,312,94285,1,2
8,248,94535,1,0
8,136,94908,1,2
56,40,95282,1,0
56,40,95407,1,2
144,192,95781,5,4
256,192,96157,1,0
368,192,96533,1,12
368,192,96784,1,0
256,24,97285,1,6
220,128,97661,1,0
292,128,97912,1,6
432,312,98665,5,0
432,312,98790,1,6
384,368,99041,1,0
296,312,99417,1,8
80,312,100169,1,0
80,312,100295,1,6
128,368,100545,1,0
216,312,100922,1,6
32,96,101799,5,4
104,16,102175,1,0
176,96,102552,2,0,B|344:96,1,160,8|0
408,16,103304,1,4
480,96,103680,1,0
408,176,104056,1,8
480,256,104433,1,0
336,336,104809,6,0,B|168:336,1,160,6|0
176,224,105561,2,0,B|344:224,1,160,14|0
400,136,106313,2,2,B|344:72|256:66|168:72|111:137,1,320,6|6
64,240,107693,5,0
64,240,107818,1,4
64,312,108069,1,0
176,312,108445,2,2,B|200:376|256:387|312:376|337:310,1,213.333333333333,2|8
448,312,109323,1,6
448,200,109699,1,0
448,200,109950,1,6
176,144,110702,5,0
176,144,110828,1,6
64,144,111204,1,0
64,72,111454,1,8
176,72,111831,2,2,B|200:8|256:-3|312:8|337:74,1,213.333333333333,2|6
408,72,112583,1,0
408,184,112959,1,6
512,288,113837,5,4
416,344,114213,1,0
312,368,114589,1,8
200,368,114965,1,0
96,344,115342,1,6
0,288,115718,1,0
104,240,116094,2,2,B|200:298|312:298|410:239,1,320,14|6
312,176,117223,5,2
200,64,117599,1,14
312,64,117975,1,2
200,176,118351,1,6
256,208,118727,12,4,119856
168,144,131291,5,0
168,144,131415,1,2
80,80,131788,1,2
168,16,132161,1,0
256,80,132534,1,2
344,16,132907,1,0
432,80,133280,1,2
432,80,133529,1,0
344,144,133901,1,2
256,256,134399,1,2
368,208,134772,6,0,B|408:256|384:320|326:336,3,160,2|0|2|0
184,336,136263,2,2,B|128:320|104:256|145:207,2,160,2|0|2
256,208,137382,5,2
344,144,137755,1,2
432,80,138129,1,0
344,16,138503,1,2
256,80,138877,1,0
168,16,139251,1,2
80,80,139625,1,0
168,144,139999,1,2
256,208,140373,1,0
256,208,140622,1,2
96,208,141121,5,0
192,264,141495,2,0,B|208:316|304:316|321:262,1,160,2|0
320,152,142243,2,2,B|304:100|208:100|191:154,2,160,2|0|2
408,272,143365,5,2
360,328,143615,1,0
360,328,143740,1,6
256,344,144114,1,0
152,328,144488,1,2
104,272,144737,1,0
160,184,145111,2,2,B|240:241|272:241|354:183,1,213.333333333333,2|0
256,136,145984,1,2
256,24,146358,1,0
184,8,146607,1,2
328,8,147106,1,0
312,112,147480,6,0,B|312:280,1,160,2|0
200,272,148228,2,2,B|200:104,2,160,2|0|2
88,248,149351,5,2
107,323,149600,1,0
107,323,149725,1,2
200,376,150099,1,0
312,376,150473,1,2
408,320,150847,1,0
424,248,151096,1,0
424,248,151221,1,2
312,192,151595,1,0
312,192,151844,1,2
200,192,152218,1,2
64,136,152717,6,2,B|96:24|256:-23|416:24|449:138,1,480,2|0
448,248,154213,2,2,B|416:360|256:407|96:360|63:246,1,480,2|0
64,64,155710,6,0,B|88:95|136:88|136:72|136:56|192:49|209:82,1,160,4|0
256,136,156333,1,8
392,80,156832,1,0
448,176,157206,2,0,B|424:207|376:200|376:184|376:168|320:161|303:194,1,160,2|0
256,248,157829,1,8
120,192,158328,5,0
64,288,158702,2,0,B|88:319|136:312|136:296|136:280|192:273|209:306,1,160,2|0
256,360,159326,1,8
256,216,159824,1,0
192,112,160198,2,2,B|208:60|304:60|321:114,1,160,2|0
256,144,160822,1,10
352,336,161321,5,2
464,336,161695,2,0,B|464:296|464:296|464:262|442:240|408:240|408:240|368:240,1,160,6|0
304,240,162318,1,10
160,240,162817,1,2
48,240,163191,2,0,B|48:200|48:200|48:166|70:144|104:144|104:144|144:144,1,160,2|0
208,144,163814,1,10
352,144,164313,5,2
464,144,164687,2,0,B|464:104|464:104|464:70|442:48|408:48|408:48|368:48,1,160,2|0
304,48,165311,1,10
256,144,165685,1,0
256,144,165809,1,2
144,216,166183,2,2,B|224:303|288:303|370:214,1,266.666666666667,2|10
464,272,167306,5,2
416,328,167555,1,0
416,328,167680,1,6
312,368,168054,1,0
200,368,168428,1,10
96,328,168802,1,2
48,272,169051,1,0
48,272,169176,1,2
32,200,169425,1,0
32,88,169799,1,8
144,192,170298,5,2
256,152,170672,1,2
336,80,171046,1,0
344,8,171296,2,0,B|433:24|433:136|342:152,1,213.333333333333,10|2
256,224,172168,1,2
176,304,172543,1,0
168,376,172792,2,2,B|79:360|79:248|170:232,1,213.333333333333,10|2
256,152,173665,5,2
176,80,174039,1,0
168,8,174288,2,0,B|79:24|79:136|170:152,1,213.333333333333,10|2
256,224,175161,1,2
336,304,175535,1,0
344,376,175784,2,2,B|433:360|433:248|342:232,1,213.333333333333,10|2
256,152,176657,5,2
160,104,177031,1,0
152,32,177281,2,2,B|256:-10|362:33,1,213.333333333333,10|2
352,104,178029,1,0
352,104,178154,1,2
256,152,178528,1,0
256,152,178777,1,10
152,200,179151,2,2,B|256:242|362:199,1,213.333333333333,2|6
144,192,191495,5,0
144,192,191614,1,4
256,192,191990,1,0
368,192,192366,1,12
256,24,192993,1,0
256,24,193118,1,6
292,128,193494,1,0
220,128,193745,1,6
64,264,194247,5,0
0,300,194498,1,0
0,300,194623,1,6
64,336,194874,1,0
136,264,195250,2,2,B|136:352|184:401|328:401|376:352|376:262,1,373.333333333333,2|6
488,264,196504,1,0
488,264,196755,1,6
480,96,197507,5,0
480,96,197632,1,4
408,16,198008,1,0
336,96,198385,2,0,B|168:96,1,160,8|0
104,16,199137,1,4
32,96,199513,1,0
104,176,199889,1,8
32,256,200266,1,0
176,336,200642,6,0,B|344:336,1,160,6|0
336,224,201394,2,0,B|168:224,1,160,14|0
184,112,202146,2,0,B|216:73|296:73|329:113,3,160,6|0|4|8
416,272,203651,6,0,B|423:335|383:375|318:368,1,160,4|0
320,296,204278,1,10
192,224,204780,1,0
96,272,205156,2,2,B|89:335|129:375|194:368,1,160,4|0
192,296,205783,1,6
512,96,206661,5,6
424,32,207037,1,0
336,96,207413,1,8
336,96,207664,1,0
192,96,208165,2,2,B|184:32|96:-22|8:32|-1:98,1,266.666666666667,2|6
256,72,209670,5,4
328,288,210046,1,0
144,152,210422,1,8
368,152,210798,1,0
184,288,211175,1,6
256,72,211551,1,0
204,192,211927,1,14
256,244,212178,1,0
308,192,212429,1,0
256,140,212679,1,6
256,208,213056,12,4,215689
