osu file format v6

[General]
AudioFilename: Trans-Siberian Orchestra - 09 - Christmas Nights In Blue.mp3
AudioLeadIn: 0
PreviewTime: 35746
Countdown: 0
SampleSet: Soft
StackLeniency: 0.7
Mode: 0
LetterboxInBreaks: 1

[Editor]
Bookmarks: 11931,59946,71856,119856,131788,179650,191614,215689
DistanceSpacing: 0.720000028610229
BeatDivisor: 3
GridSize: 8

[Metadata]
Title:Christmas Nights In Blue
Artist:Trans-Siberian Orchestra
Creator:MetalMario201
Version:Hard
Source:
Tags:winter blues new york

[Difficulty]
HPDrainRate:6
CircleSize:4
OverallDifficulty:6
SliderMultiplier:2
SliderTickRate:1

[Events]
//Background and Video events
0,0,"background3.jpg"
//Break Periods
2,60146,70806
2,120056,130241
2,179849,190445
//Storyboard Layer 0 (Background)
//Storyboard Layer 1 (Fail)
//Storyboard Layer 2 (Pass)
//Storyboard Layer 3 (Foreground)
//Storyboard Sound Samples
//Background Colour Transformations
3,100,163,162,255

[TimingPoints]
80.0898068782494,370.37037037037,4,2,0,90,1,0
11931,374.064837905237,4,2,0,90,1,0
17666,-100,4,1,0,70,0,0
18477,-100,4,2,0,90,0,0
18851,-100,4,1,0,70,0,0
19225,-100,4,2,0,90,0,0
20846,-100,4,1,0,70,0,0
21469,-100,4,2,0,90,0,0
21843,-100,4,1,0,70,0,0
22217,-100,4,2,0,90,0,0
29699,-100,4,1,0,70,0,0
30447,-100,4,2,0,90,0,0
30821,-100,4,1,0,70,0,0
31195,-100,4,2,0,90,0,0
32691,-100,4,1,0,70,0,0
33439,-100,4,2,0,90,0,0
33813,-100,4,1,0,70,0,0
34187,-100,4,2,0,90,0,0
35684,-100,4,1,0,70,0,0
35871,376.175548589342,4,1,0,70,1,1
58817,-100,4,2,0,90,0,0
59946,372.208436724566,4,2,0,90,1,0
71856,373.831775700935,4,2,0,90,1,0
77588,-100,4,1,0,70,0,0
78398,-100,4,2,0,90,0,0
78771,-100,4,1,0,70,0,0
79145,-100,4,2,0,90,0,0
80641,-100,4,1,0,70,0,0
80890,-100,4,2,0,90,0,0
81139,-100,4,1,0,70,0,0
81388,-100,4,2,0,90,0,0
81762,-100,4,1,0,70,0,0
82136,-100,4,2,0,90,0,0
89613,-100,4,1,0,70,0,0
90360,-100,4,2,0,90,0,0
90734,-100,4,1,0,70,0,0
91108,-100,4,2,0,90,0,0
92603,-100,4,1,0,70,0,0
94472,-100,4,2,0,90,0,0
94722,-100,4,1,0,70,0,0
95781,376.175548589342,4,1,0,70,1,1
118727,-100,4,2,0,90,0,0
119856,372.902423865755,4,2,0,90,1,0
137755,374.064837905237,4,2,0,90,1,0
185635,-100,4,1,0,70,0,0
191614,376.175548589342,4,1,0,70,1,1
213056,-100,4,2,0,90,0,0
215689,374.064837905237,4,2,0,90,1,0

[HitObjects]
256,192,11931,5,2
176,240,12180,1,0
176,240,12305,1,2
176,144,12554,1,0
176,144,12679,1,2
32,120,13053,1,0
32,264,13427,2,0,B|47:335|96:376|178:376,2,200,2|0|2
96,192,14424,1,0
256,192,14923,5,2
400,192,15297,1,0
400,48,15671,2,2,B|512:56|544:192|512:328|398:336,1,400
400,192,16793,1,0
256,192,17167,1,2
256,192,17417,1,0
40,32,17916,5,6
472,32,18290,1,6
256,344,18664,1,0
256,16,19038,1,4
88,88,19412,2,0,B|165:82|201:145,1,133.333333333333,2|0
128,168,19786,2,2,B|163:230|242:224,1,133.333333333333,0|0
272,160,20160,2,0,B|349:154|385:217,1,133.333333333333,2|0
312,240,20534,2,2,B|347:302|426:296,1,133.333333333333,2|0
472,352,20908,5,6
40,352,21282,1,6
256,40,21656,1,0
256,368,22030,1,4
176,200,22404,2,2,B|208:132|304:132|337:201,2,200,2|0|2
256,248,23402,1,0
256,248,23527,1,2
464,128,23901,5,6
352,216,24275,1,0
480,264,24649,2,0,B|465:335|416:376|334:376,1,200,2|0
256,256,25397,1,2
256,112,25771,1,0
368,120,26020,2,2,B|296:128|336:192|256:211|176:192|216:128|142:120,1,266.666666666667,2|0
48,128,26768,5,0
48,128,26893,1,2
160,216,27267,1,0
32,264,27641,2,0,B|47:335|96:376|178:376,1,200,2|0
256,256,28389,1,2
256,256,28639,1,0
160,144,29013,2,2,B|168:72|256:40|344:72|352:146,1,266.666666666667,2|0
40,352,29886,5,6
472,352,30260,1,6
256,40,30634,1,0
256,368,31008,1,4
336,184,31382,2,2,B|304:252|208:252|175:183,2,200,2|0|2
256,136,32379,1,0
256,136,32504,1,2
472,32,32878,5,6
40,32,33252,1,6
256,344,33626,1,0
256,16,34000,1,4
96,280,34374,1,2
416,280,34748,1,0
312,120,35123,2,0,B|288:79|224:79|199:122,1,133.333333333333,2|0
256,168,35497,1,2
16,192,35871,5,4
16,192,36121,1,0
496,192,36623,1,12
496,192,36874,1,0
256,368,37375,1,6
256,368,37626,1,0
360,264,38002,2,2,B|344:208|256:153|168:208|152:265,1,266.666666666667,2|8
256,272,38755,5,0
256,272,38880,1,6
208,136,39256,1,0
304,136,39507,1,8
144,104,39883,2,2,B|184:40|256:26|328:40|369:105,1,266.666666666667,2|6
256,192,40761,1,0
256,192,41012,1,4
16,160,41764,5,0
16,160,41889,2,0,B|104:236|104:84|193:161,3,200,4|0|8|0
320,224,43394,2,0,B|408:300|408:148|497:225,2,200,4|0|8
256,24,44523,1,0
156,96,44773,5,0
156,96,44899,2,0,B|364:96,1,200,6|0
356,192,45526,1,0
356,192,45651,2,0,B|148:192,1,200,14|0
168,288,46278,1,0
168,288,46403,2,0,B|208:341|304:341|345:287,2,200,6|0|4
256,248,47407,1,8
256,248,47532,1,0
216,112,47908,5,4
112,208,48284,1,0
48,144,48535,2,2,B|35:48|152:-20|234:41,1,266.666666666667,2|0
296,112,49287,1,0
296,112,49413,1,4
400,208,49789,1,0
464,144,50040,2,2,B|477:48|360:-20|278:41,1,266.666666666667,2|0
304,328,50918,5,6
208,328,51168,1,0
256,192,51544,1,8
384,152,51921,2,2,B|288:108|224:108|126:153,1,266.666666666667,2|6
208,256,52798,1,0
304,256,53049,1,12
16,24,53927,5,4
112,128,54303,1,0
208,24,54679,1,8
304,128,55055,1,0
400,24,55432,1,6
496,128,55808,1,0
352,184,56184,1,12
256,184,56435,1,0
160,184,56686,1,0
64,184,56936,5,6
120,320,57313,1,2
256,368,57689,1,14
392,320,58065,1,2
448,184,58441,1,6
256,208,58817,12,4,59946
256,192,71856,5,2
336,240,72105,1,0
336,240,72229,1,2
336,144,72479,1,0
336,144,72603,1,10
480,120,72977,1,0
480,264,73351,2,0,B|465:335|416:376|334:376,2,200,2|0|10
416,192,74348,1,0
256,192,74846,5,2
112,192,75220,1,0
112,48,75594,2,2,B|0:56|-32:192|0:328|114:336,1,400,10|2
112,192,76715,1,0
256,192,77089,1,10
256,192,77338,1,0
472,32,77837,5,6
40,32,78211,1,6
256,344,78584,1,0
256,16,78958,1,4
96,192,79332,1,2
416,192,79706,1,0
208,112,80080,1,2
307,115,80329,1,0
307,115,80454,1,2
200,344,80827,6,0,B|224:385|288:385|313:342,1,133.333333333333,6|0
256,296,81201,1,6
40,192,81575,1,0
472,192,81949,1,4
256,16,82323,1,2
256,112,82572,1,0
184,240,82946,2,2,B|200:317|312:317|329:238,1,200,2|0
256,224,83444,1,2
120,192,83818,5,6
120,192,84067,1,0
32,80,84441,2,0,B|-32:112|-40:192|-32:272|34:305,1,266.666666666667
160,352,85313,2,2,B|208:384|304:384|353:351,1,200,2|0
256,304,85936,1,2
256,160,86310,1,2
464,128,86809,5,2
352,216,87183,1,0
480,264,87556,2,2,B|465:335|416:376|334:376,1,200,10|0
256,256,88304,1,2
256,256,88553,1,0
184,128,88927,1,2
328,128,89301,1,2
472,352,89799,5,6
40,352,90173,1,6
256,40,90547,1,0
256,368,90921,1,4
176,184,91295,2,2,B|208:252|304:252|337:183,2,200,2|0|2
256,136,92292,1,0
256,136,92416,1,2
40,32,92790,5,6
472,32,93164,1,6
408,240,93538,2,2,B|384:152|256:67|128:152|103:242,1,400,2|6
64,328,94535,1,0
184,280,94908,2,0,B|200:203|312:203|329:282,1,200,2|0
256,296,95407,1,2
480,264,95781,5,4
256,368,96157,1,0
32,264,96533,1,12
32,264,96784,1,0
328,192,97285,1,6
184,192,97661,1,0
152,104,97912,2,2,B|168:48|256:-7|344:48|360:105,1,266.666666666667,2|8
256,120,98665,5,0
256,120,98790,1,6
256,264,99166,1,0
368,280,99417,2,2,B|328:344|256:358|184:344|143:279,1,266.666666666667,2|8
208,208,100169,1,0
208,208,100295,1,6
304,208,100545,1,0
368,72,100922,2,0,B|328:8|256:-6|184:8|143:73,1,266.666666666667,6|0
496,160,101799,6,0,B|408:236|408:84|319:161,3,200,4|0|8|0
192,224,103304,2,0,B|104:300|104:148|15:225,2,200,4|0|8
256,24,104433,1,0
356,96,104683,5,0
356,96,104809,2,0,B|148:96,1,200,6|0
156,192,105436,1,0
156,192,105561,2,0,B|364:192,1,200,14|0
344,288,106188,1,0
344,288,106313,2,0,B|304:341|208:341|167:287,2,200,6|0|4
256,248,107317,1,8
256,248,107442,1,0
312,152,107693,5,0
312,152,107818,1,4
384,216,108069,1,0
512,152,108445,2,2,B|525:56|408:-12|326:49,1,266.666666666667,2|8
184,48,109323,2,0,B|128:3|40:24|15:90,1,200,6|0
0,176,109950,1,6
184,296,110702,5,0
184,296,110828,1,6
328,296,111204,1,0
256,224,111454,1,8
128,152,111831,2,2,B|224:108|288:108|386:153,1,266.666666666667,2|6
328,224,112583,1,0
184,224,112959,1,12
496,24,113837,5,4
400,128,114213,1,0
304,24,114589,1,8
208,128,114965,1,0
112,24,115342,1,6
16,128,115718,1,0
208,216,116094,1,12
256,136,116345,1,0
304,216,116596,1,0
328,296,116846,5,6
136,152,117223,1,2
376,152,117599,1,14
184,296,117975,1,2
256,64,118351,1,6
256,208,118727,12,4,119856
40,144,131291,5,0
40,144,131415,1,2
40,240,131664,1,0
40,240,131788,1,2
176,192,132161,1,0
256,312,132534,1,2
336,192,132907,1,0
336,56,133280,2,2,B|304:-11|208:-12|175:57,2,200,2|0|2
256,104,134274,1,0
256,104,134399,1,2
328,168,134647,5,0
328,168,134772,2,0,B|394:192|394:304|326:329,1,200,2|0
184,328,135517,2,0,B|118:304|118:192|186:167,1,200,2|0
344,96,136263,2,2,B|304:43|208:43|167:97,2,200,2|0|2
464,120,137258,5,0
464,120,137382,1,2
464,264,137755,1,2
336,192,138129,1,0
256,312,138503,1,2
176,192,138877,1,0
176,56,139251,2,2,B|208:-11|304:-12|337:57,2,200,2|0|2
256,168,140373,1,0
256,168,140622,1,0
184,168,140747,6,0,B|118:192|118:304|186:329,1,200,2|0
328,328,141495,2,0,B|394:304|394:192|326:167,1,200,2|0
168,96,142243,2,2,B|208:43|304:43|345:97,2,200,2|0|2
256,336,143365,5,2
160,272,143615,1,0
160,272,143740,2,0,B|240:223|272:305|354:255,1,200,6|0
352,112,144488,2,0,B|272:161|240:79|158:129,1,200,2|0
128,40,145111,2,2,B|232:-5|280:-5|386:41,1,266.666666666667,2|0
336,176,145984,2,0,B|304:244|208:244|175:174,1,200,2|0
80,152,146607,5,0
80,152,146732,2,0,B|72:216|104:272|186:305,1,200,2|0
328,304,147480,2,0,B|408:272|440:216|432:151,1,200,2|0
352,32,148228,2,2,B|304:1|208:1|158:33,2,200,2|0|2
256,80,149226,5,0
256,80,149351,1,2
256,176,149600,1,0
256,176,149725,1,2
136,272,150099,1,0
256,368,150473,1,2
376,272,150847,1,0
336,200,151096,1,0
336,200,151221,2,0,B|304:268|208:268|175:198,1,200,2|0
112,128,151844,1,2
256,88,152218,1,2
400,128,152592,1,0
408,200,152717,6,0,B|424:288|400:336|343:377,1,200,2|0
168,376,153465,2,0,B|112:336|88:288|104:199,1,200,2|0
256,112,154213,2,2,B|300:208|212:208|257:306,2,200,2|0|2
72,24,155336,5,2
0,88,155585,1,0
0,88,155710,2,0,B|24:128|88:129|88:104|88:79|152:80|177:121,1,200,4|0
256,168,156333,1,8
440,120,156832,1,2
512,184,157081,1,0
512,184,157206,2,0,B|488:224|424:225|424:200|424:175|360:176|335:217,1,200,2|0
256,264,157829,1,8
72,360,158328,5,2
0,296,158577,1,0
0,296,158702,2,0,B|24:256|88:255|88:280|88:305|152:304|177:263,1,200,2|0
256,216,159326,1,8
400,184,159700,1,0
400,184,159824,1,2
344,104,160074,1,0
344,104,160198,2,2,B|304:157|208:157|167:103,1,200,2|0
112,184,160822,1,10
344,288,161321,5,2
416,352,161570,1,0
416,352,161695,1,6
272,352,162069,1,0
176,352,162318,2,0,B|104:352|104:352|85:351|24:357|-8:312|0:256|0:256|0:216,1,266.666666666667,8|2
88,224,163066,1,0
88,224,163191,1,2
232,224,163565,1,0
328,224,163814,2,2,B|400:224|400:224|419:223|480:229|512:184|504:128|504:128|504:88,1,266.666666666667,8|2
464,32,164562,5,0
464,32,164687,1,2
320,32,165061,1,0
224,32,165311,2,0,B|200:32|200:32|184:32|144:24|80:64|88:138,1,200,10|0
160,136,165809,1,2
256,136,166059,1,0
256,136,166183,1,2
256,232,166433,1,0
144,312,166807,2,2,B|184:376|256:390|328:376|369:311,1,266.666666666667,10|0
368,216,167555,5,0
368,216,167680,1,6
256,304,168054,1,0
144,216,168428,1,10
208,88,168802,1,0
256,168,169051,1,0
256,168,169176,1,2
304,88,169425,1,0
424,192,169799,2,2,B|504:200|541:280|504:360|422:368,1,266.666666666667,10|0
328,368,170548,5,0
328,368,170672,1,2
184,368,171046,1,0
88,368,171296,2,0,B|11:352|11:240|90:224,1,200,10|0
104,296,171794,1,0
176,232,172044,1,0
176,232,172168,1,2
96,104,172543,1,0
88,192,172792,2,2,B|8:184|-29:104|8:24|90:16,1,266.666666666667,10|0
184,16,173540,5,0
184,16,173665,1,2
328,16,174039,1,0
424,16,174288,2,0,B|501:32|501:144|422:160,1,200,8|0
408,88,174787,1,2
336,152,175036,1,0
336,152,175161,1,2
416,280,175535,1,0
424,192,175784,2,2,B|504:200|541:280|504:360|422:368,1,266.666666666667,8|0
328,368,176533,5,0
328,368,176657,1,2
184,368,177031,1,0
88,368,177281,2,0,B|8:360|-29:280|8:200|90:192,1,266.666666666667,10|2
184,192,178029,1,0
184,192,178154,1,2
328,192,178528,1,0
256,256,178777,1,10
136,136,179151,2,2,B|232:65|280:65|378:138,1,266.666666666667,2|4
40,192,191495,5,0
40,192,191614,1,4
256,312,191990,1,0
472,192,192366,2,2,B|486:120|423:58|350:72,1,200,10|0
256,72,192993,1,0
256,72,193118,1,2
208,208,193494,1,0
304,208,193745,1,6
160,328,194247,5,8
256,352,194498,1,0
256,352,194623,1,4
352,328,194874,1,0
384,184,195250,2,2,B|288:140|224:140|126:185,1,266.666666666667,2|0
256,224,196002,1,0
256,224,196128,1,2
208,88,196504,1,0
304,88,196755,1,6
56,112,197507,5,0
56,112,197632,2,0,B|-12:144|-12:240|58:273,1,200,4|0
456,272,198385,2,0,B|524:240|524:144|454:111,1,200,8|0
176,320,199137,2,0,B|208:388|304:388|337:318,2,200,4|0|8
256,24,200266,1,0
156,96,200516,5,0
156,96,200642,2,0,B|364:96,1,200,6|0
356,192,201269,1,0
356,192,201394,2,0,B|148:192,1,200,14|0
168,288,202021,1,0
168,288,202146,2,0,B|208:341|304:341|345:287,2,200,6|0|4
256,248,203150,1,8
256,248,203275,1,0
512,288,203651,6,0,B|520:208|496:152|430:119,1,200,4|0
344,80,204278,1,10
144,288,204780,1,0
0,288,205156,2,2,B|-8:208|16:152|82:119,1,200,4|0
168,80,205783,1,6
256,344,206661,5,6
256,200,207037,1,0
256,56,207413,1,8
144,64,207664,2,2,B|184:128|256:142|328:128|369:63,1,266.666666666667,2|6
304,192,208541,1,0
208,192,208792,1,6
48,192,209670,5,4
152,16,210046,1,0
360,16,210422,1,8
464,192,210798,1,0
360,368,211175,1,6
152,368,211551,1,0
256,264,211927,1,14
328,192,212178,1,0
256,120,212429,1,0
184,192,212679,1,6
256,208,213056,12,4,215689
