osu file format v6

[General]
AudioFilename: Trans-Siberian Orchestra - 09 - Christmas Nights In Blue.mp3
AudioLeadIn: 0
PreviewTime: 35746
Countdown: 0
SampleSet: Soft
StackLeniency: 0.7
Mode: 0
LetterboxInBreaks: 1

[Editor]
Bookmarks: 11931,59946,71856,119856,131788,156832,179650,191614,215689
DistanceSpacing: 0.600000023841858
BeatDivisor: 3
GridSize: 8

[Metadata]
Title:Christmas Nights In Blue
Artist:Trans-Siberian Orchestra
Creator:MetalMario201
Version:Easy
Source:
Tags:winter blues new york

[Difficulty]
HPDrainRate:3
CircleSize:4
OverallDifficulty:3
SliderMultiplier:1.2
SliderTickRate:1

[Events]
//Background and Video events
0,0,"background3.jpg"
//Break Periods
2,60146,70416
2,120056,130348
2,179850,190174
//Storyboard Layer 0 (Background)
//Storyboard Layer 1 (Fail)
//Storyboard Layer 2 (Pass)
//Storyboard Layer 3 (Foreground)
//Storyboard Sound Samples
//Background Colour Transformations
3,100,163,162,255

[TimingPoints]
80.0898068782494,370.37037037037,4,2,0,90,1,0
11931,374.064837905237,4,2,0,90,1,0
17541,-100,4,1,0,70,0,0
18477,-100,4,2,0,90,0,0
18851,-100,4,1,0,70,0,0
19225,-100,4,2,0,90,0,0
20721,-100,4,1,0,70,0,0
21469,-100,4,2,0,90,0,0
21843,-100,4,1,0,70,0,0
22217,-100,4,2,0,90,0,0
29449,-100,4,1,0,70,0,0
30447,-100,4,2,0,90,0,0
30821,-100,4,1,0,70,0,0
31195,-100,4,2,0,90,0,0
32691,-100,4,1,0,70,0,0
33439,-100,4,2,0,90,0,0
33813,-100,4,1,0,70,0,0
34187,-100,4,2,0,90,0,0
35682,-100,4,1,0,70,0,0
35871,376.175548589342,4,1,0,70,1,1
58817,-100,4,2,0,90,0,0
59946,372.208436724566,4,2,0,90,1,0
71856,373.831775700935,4,2,0,90,1,0
77463,-100,4,1,0,70,0,0
78398,-100,4,2,0,90,0,0
78771,-100,4,1,0,70,0,0
79145,-100,4,2,0,90,0,0
80641,-100,4,1,0,70,0,0
81388,-100,4,2,0,90,0,0
81762,-100,4,1,0,70,0,0
82136,-100,4,2,0,90,0,0
89550,-100,4,1,0,70,0,0
90360,-100,4,2,0,90,0,0
90734,-100,4,1,0,70,0,0
91108,-100,4,2,0,90,0,0
92603,-100,4,1,0,70,0,0
95781,376.175548589342,4,1,0,70,1,1
118727,-100,4,2,0,90,0,0
119856,372.902423865755,4,2,0,90,1,0
137755,374.064837905237,4,2,0,90,1,0
185635,-100,4,1,0,70,0,0
191614,376.175548589342,4,1,0,70,1,1
212679,-100,4,2,0,90,0,0
215689,374.064837905237,4,2,0,90,1,0

[HitObjects]
0,64,11931,2,2,B|136:96|104:192|72:288|211:320,1,360,2|0
256,264,13427,1,2
256,192,13801,1,0
256,120,14175,1,2
384,156,14923,5,2
384,84,15297,1,0
456,96,15671,2,2,B|520:120|528:192|520:264|454:289,1,240
384,300,16793,1,0
384,228,17167,1,2
464,104,17916,5,6
512,156,18290,1,6
512,228,18664,1,0
464,280,19038,1,4
436,344,19412,2,2,B|68:344,1,360,2|0
48,280,20908,5,6
0,228,21282,1,6
0,156,21656,1,0
48,104,22030,1,4
76,40,22404,2,2,B|444:40,1,360,2|0
472,104,23901,5,4
472,176,24275,1,0
472,248,24649,1,2
328,248,25397,2,0,B|304:169|208:169|183:250,1,200,2|2
40,104,26893,5,2
40,176,27267,1,0
40,248,27641,1,2
184,248,28389,2,2,B|208:169|304:169|329:250,1,200
48,104,29886,5,6
0,156,30260,1,6
0,228,30634,1,0
48,280,31008,1,4
76,344,31382,2,2,B|444:344,1,360,2|0
464,280,32878,5,6
512,228,33252,1,6
512,156,33626,1,0
464,104,34000,1,4
436,40,34374,2,2,B|68:40,1,360,2|0
64,120,35871,5,4
64,264,36623,1,12
156,368,37375,2,0,B|364:368,1,200,0|4
356,192,38880,6,0,B|148:192,1,200,6|8
156,16,40385,2,2,B|364:16,1,200,2|6
448,156,41889,5,4
448,228,42265,1,0
384,192,42642,1,8
128,192,43394,1,4
64,228,43770,1,0
64,156,44146,1,8
152,72,44899,6,0,B|200:4|313:4|361:74,2,240,4|12|4
356,224,47156,5,4
356,296,47532,1,0
356,368,47908,2,0,B|148:368,1,200,4|0
156,192,49413,2,0,B|364:192,1,200,2|6
356,16,50918,6,0,B|148:16,1,200,6|8
176,88,51921,2,2,B|344:88,1,160,2|6
256,176,53049,1,6
0,168,53927,6,4,B|17:352|192:400|320:400|495:352|512:165,1,720
424,144,56936,6,6,B|416:16|256:-56|96:16|88:146,1,480
256,208,58817,12,4,59946
512,64,71856,6,2,B|376:96|408:192|440:288|301:320,1,360,2|0
256,264,73351,1,2
256,192,73725,1,0
256,120,74098,1,10
128,156,74846,5,2
128,84,75220,1,0
56,96,75594,2,2,B|-8:120|-16:192|-8:264|58:289,1,240,10|2
128,300,76715,1,0
128,228,77089,1,10
48,104,77837,5,6
0,156,78211,1,6
0,228,78584,1,0
48,280,78958,1,4
76,344,79332,2,2,B|444:344,1,360,2|0
464,280,80827,5,6
512,228,81201,1,6
512,156,81575,1,0
464,104,81949,1,4
436,40,82323,2,2,B|68:40,1,360,2|0
56,112,83818,6,0,B|-23:136|-23:232|58:257,1,200,6|2
184,312,85313,2,0,B|208:391|304:391|329:310,1,200,2|2
472,104,86809,5,2
472,176,87183,1,0
472,248,87556,1,10
368,192,88304,2,2,B|344:319|168:319|143:190,1,320
464,104,89799,5,6
512,156,90173,1,6
512,228,90547,1,0
464,280,90921,1,4
436,344,91295,2,2,B|68:344,1,360,2|0
48,280,92790,5,6
0,224,93164,1,6
24,156,93538,2,2,B|24:112|56:48|136:48|152:48|152:48|216:48,1,240,2|6
256,168,94908,2,0,B|328:168|368:144|377:86,1,160,2|2
448,120,95781,5,4
448,192,96157,1,0
448,264,96533,1,12
356,368,97285,2,0,B|148:368,1,200,0|4
156,192,98790,6,0,B|364:192,1,200,6|8
356,16,100295,2,2,B|148:16,1,200,2|6
96,200,101799,5,4
120,268,102175,1,0
184,304,102552,1,8
256,320,102928,1,0
328,304,103304,1,4
392,268,103680,1,0
416,200,104056,1,8
360,72,104809,6,0,B|312:4|199:4|151:74,2,240,4|12|4
156,224,107066,5,4
156,296,107442,1,0
156,368,107818,2,0,B|364:368,1,200,4|0
356,192,109323,2,0,B|148:192,1,200,2|6
156,16,110828,6,0,B|364:16,1,200,6|8
336,88,111831,2,2,B|168:88,1,160,2|6
256,176,112959,1,6
512,168,113837,6,4,B|495:352|320:400|192:400|17:352|0:165,1,720
88,144,116846,6,6,B|96:16|256:-56|416:16|424:146,1,480
256,208,118727,12,4,119856
144,48,131788,6,0,B|256:-16|256:120|370:47,2,240,2|2|2
256,184,134026,1,2
256,256,134399,1,0
184,248,134772,6,2,B|184:328|256:353|328:328|328:246,3,240,2|0|2|2
376,188,137382,5,0
352,120,137755,1,2
292,80,138129,1,0
220,80,138503,1,2
160,120,138877,1,0
136,188,139251,1,2
168,328,139999,2,2,B|240:386|272:386|346:327,1,200,0|2
328,128,141495,6,2,B|328:48|256:23|184:48|184:130,2,240,0|2|2
364,192,143365,5,0
292,192,143740,1,6
220,192,144114,1,0
148,192,144488,1,2
128,312,145111,2,2,B|224:380|288:380|386:311,1,280
392,240,146358,1,0
328,200,146732,6,2,B|328:280|256:305|184:280|184:198,3,240,2|0|2|2
120,168,149351,5,0
184,128,149725,1,2
256,120,150099,1,0
328,128,150473,1,2
392,168,150847,1,0
448,120,151221,2,2,B|384:24|256:12|128:24|63:122,1,440,2|2
296,360,153465,5,2
256,192,154213,1,0
216,24,154961,1,2
144,32,155336,5,0
88,80,155710,2,0,B|104:120|176:122|176:104|176:86|248:88|264:129,1,200,4|8
368,128,156832,1,0
424,176,157206,2,0,B|408:216|336:218|336:200|336:182|264:184|248:225,1,200,2|8
144,232,158328,5,0
88,280,158702,2,0,B|104:320|176:322|176:304|176:286|248:288|264:329,1,200,2|8
256,192,159824,1,0
184,176,160198,2,2,B|208:97|304:97|329:178,1,200,2|10
480,120,161321,5,0
480,192,161695,2,0,B|480:224|480:224|480:264|448:296|408:296|408:296|344:296,1,200,4|8
256,296,162817,1,0
256,224,163191,2,0,B|256:192|256:192|256:152|224:120|184:120|184:120|120:120,1,200,2|8
32,120,164313,5,0
32,192,164687,2,0,B|32:224|32:224|32:264|64:296|104:296|104:296|168:296,1,200,2|8
256,296,165809,1,0
256,224,166183,2,2,B|256:192|256:192|256:152|288:120|328:120|328:120|392:120,1,200,2|10
392,328,167306,5,0
328,360,167680,1,6
256,368,168054,1,0
184,360,168428,1,10
120,328,168802,1,0
156,264,169176,2,0,B|364:264,1,200,2|8
428,192,170298,5,0
356,192,170672,2,0,B|148:192,1,200,2|8
84,120,171794,1,0
156,120,172168,2,0,B|364:120,1,200,2|8
340,216,173291,5,0
412,216,173665,2,0,B|420:296|372:344|290:336,1,200,4|8
220,264,174787,1,0
220,336,175161,2,0,B|140:344|92:296|100:214,1,200,2|8
96,80,176283,5,2
160,40,176657,2,2,B|240:6|271:6|354:41,1,200,2|8
256,88,177779,1,2
328,104,178154,2,2,B|416:200|320:337|192:337|96:200|186:102,1,480,0|4
100,23,191614,6,0,B|348:23,1,240,4|8
484,24,193118,1,4
487,99,193494,1,0
487,99,193745,1,12
484,192,194247,5,0
412,192,194623,2,0,B|164:192,1,240,6|8
28,192,196128,1,6
31,267,196504,1,0
31,267,196755,1,14
192,228,197632,5,4
192,300,198008,1,0
256,336,198385,1,8
320,300,198761,1,0
256,264,199137,1,4
320,228,199513,1,0
256,192,199889,1,8
152,72,200642,6,0,B|200:4|313:4|361:74,3,240,4|12|4|4
340,216,203651,6,0,B|419:240|419:336|338:361,1,200,4|2
244,360,204780,1,8
172,360,205156,2,0,B|93:336|93:240|174:215,1,200,2|6
184,48,206661,5,6
256,48,207037,1,0
328,48,207413,1,8
344,192,208165,2,2,B|280:249|232:249|167:191,1,200,2|6
0,216,209670,6,4,B|17:32|192:-16|320:-16|495:32|512:219,1,720
256,208,212679,12,4,215689
