osu file format v9

[General]
AudioFilename: Trans-Siberian Orchestra - Christmas Eve Sarajevo.mp3
AudioLeadIn: 0
PreviewTime: 52243
Countdown: 0
SampleSet: Normal
StackLeniency: 0
Mode: 0
LetterboxInBreaks: 1
SkinPreference:Default

[Editor]
Bookmarks: 6068,17228,32628,40485,48392,56380,64163,71905,86824,106100,125680,133748,149402,156987,164813,176352
DistanceSpacing: 0.8
BeatDivisor: 4
GridSize: 8

[Metadata]
Title:Christmas Eve Sarajevo 12/24
Artist:Trans-Siberian Orchestra
Creator:kingcobra52
Version:Hard
Source:
Tags:

[Difficulty]
HPDrainRate:5
CircleSize:5
OverallDifficulty:6
ApproachRate:6
SliderMultiplier:1.2
SliderTickRate:1

[Events]
//Background and Video events
0,0,"untitledrwet.jpg"
//Break Periods
2,26487,31984
2,76137,78286
2,83557,86028
2,91621,105502
2,118618,124844
//Storyboard Layer 0 (Background)
//Storyboard Layer 1 (Fail)
//Storyboard Layer 2 (Pass)
//Storyboard Layer 3 (Foreground)
//Storyboard Sound Samples
//Background Colour Transformations
3,100,163,162,255

[TimingPoints]
7168,365.853658536585,4,2,1,40,1,0
21802,370.37037037037,4,2,1,39,1,0
26246,387.096774193548,4,2,1,41,1,0
27928,451.127819548872,4,2,1,40,1,0
28940,491.803278688525,4,2,1,40,1,0
33304,322.754168908015,3,1,1,40,1,0
56542,324.324324324324,3,1,1,40,1,0
64325,320.855614973262,3,1,1,40,1,0
68175,322.58064516129,3,1,1,40,1,0
75916,322.581152811342,4,1,1,40,1,0
91401,320.850645161289,4,2,1,41,1,0
110672,322.754168908015,4,2,1,40,1,0
114545,322.754168908015,4,1,1,40,1,0
168767,-100,4,1,1,40,0,1
184259,-100,4,1,1,40,0,0

[Colours]
Combo1 : 248,252,252
Combo2 : 255,255,255

[HitObjects]
56,56,6802,1,0
88,144,7167,2,0,B|156:122|160:48,1,120
256,48,7899,1,0
328,112,8265,1,0
392,184,8631,2,0,B|396:229|364:266|304:272,1,120,0|0
232,296,9363,1,0
168,216,9728,1,0
112,296,10094,5,0
56,216,10460,1,0
80,128,10826,1,0
152,80,11192,1,0
240,56,11558,2,2,B|324:20|409:64|434:104|448:160,1,240
448,224,12655,1,0
384,296,13021,2,2,B|320:344|248:328|160:248,1,240
96,192,14119,1,0
32,120,14485,2,2,B|56:67|130:40|191:58|232:120,1,240
328,112,15582,1,0
424,112,15948,2,2,B|424:240,2,120
424,112,17046,5,0
328,112,17411,1,2
320,208,17777,1,0
264,288,18143,1,0
176,328,18509,1,0
80,304,18875,1,2
32,224,19241,1,0
48,128,19607,1,0
120,64,19972,1,0
216,48,20338,6,2,B|236:76|263:75|276:35|304:43|328:72,1,120
400,120,21070,1,0
472,184,21436,1,0
400,248,21802,2,2,B|272:248,1,120
280,344,22542,2,2,B|408:344,1,120
400,248,23283,6,0,B|480:220|440:128,1,120
392,72,24024,1,0
296,72,24394,1,0
216,128,24764,2,2,B|80:128,1,120
160,192,25505,2,2,B|160:320,1,120
160,312,26246,5,2
64,264,33304,6,0,B|123:304|192:264,1,120,0|0
176,176,33949,1,0
176,176,34110,1,0
176,176,34272,2,0,B|233:206|312:168,1,120,0|0
384,176,34917,1,0
384,176,35079,1,0
384,176,35240,2,0,B|386:247|312:296,1,120
240,312,35886,1,0
240,312,36047,1,0
240,312,36208,2,0,B|177:334|120:296,1,120
64,224,36854,1,0
64,176,37015,1,0
64,128,37177,6,0,B|192:128,1,120
248,56,37822,1,0
296,56,37983,1,0
344,56,38145,2,0,B|480:56,1,120,0|0
464,152,38790,1,0
424,184,38952,1,0
384,216,39113,2,0,B|280:304,1,120
192,296,39759,1,0
160,264,39920,1,0
128,224,40081,2,0,B|48:128,1,120
48,32,40727,5,4
48,32,41050,1,4
424,32,41695,1,4
424,32,42018,1,4
424,312,42663,1,4
424,312,42986,1,4
48,312,43632,1,4
48,312,43954,1,4
192,64,44923,6,0,B|258:96|320:64,1,120
304,168,45568,1,0
304,216,45730,1,0
304,264,45891,2,0,B|245:294|188:264,1,120,0|0
96,256,46536,1,0
96,208,46698,1,0
96,160,46859,2,0,B|138:157|160:159|147:120|163:119|208:120,1,120
296,120,47505,1,0
296,168,47666,1,0
296,216,47827,2,0,B|254:219|233:218|246:257|230:258|185:257,1,120
104,304,48473,5,4
104,304,48796,1,4
408,56,49441,1,4
408,56,49764,1,4
104,56,50409,1,4
104,56,50732,1,4
408,304,51378,1,4
408,304,51700,1,4
80,256,52669,6,0,B|52:191|96:128,1,120
144,64,53314,1,0
192,64,53476,1,0
240,64,53637,2,0,B|297:94|356:64,1,120,0|0
360,160,54283,1,0
312,160,54444,1,0
264,160,54605,2,0,B|225:160|209:161|222:200|200:198|152:200,1,120
64,200,55251,1,0
64,248,55412,1,0
112,248,55574,2,0,B|128:288|192:320|224:312,1,120
304,312,56219,1,0
392,280,56542,5,0
392,184,56866,2,0,B|392:96,1,60
392,72,57190,1,0
296,72,57514,1,0
296,168,57839,2,0,B|224:168,1,60
184,168,58163,1,0
184,72,58487,1,0
184,168,58812,2,0,B|120:168,1,60
72,168,59136,1,0
72,264,59460,1,0
168,264,59785,2,0,B|240:264,1,60
280,264,60109,1,0
368,224,60433,5,4
432,152,60758,2,4,B|463:125|432:88,1,60
424,56,61082,1,0
320,56,61406,1,4
224,56,61731,2,4,B|200:80|226:112,1,60
248,152,62055,1,4
144,160,62379,1,4
48,160,62704,2,4,B|24:186|48:216,1,60
80,248,63028,1,4
176,248,63352,1,4
264,248,63677,2,4,B|328:296,1,60
352,312,64001,1,0
424,248,64325,5,2
424,152,64645,2,0,B|424:72,1,60
424,40,64966,2,0,B|360:40,1,60
312,40,65287,1,2
216,40,65608,2,0,B|144:40,1,60
104,40,65929,2,0,B|104:120,1,60
104,144,66250,1,2
200,144,66570,2,4,B|200:208,3,60
200,248,67212,1,4
272,312,67533,1,4
312,288,67693,1,4
352,312,67854,1,4
256,192,68175,12,4,69787
256,192,70110,12,4,71723
112,88,72045,6,0,B|184:88,5,60
192,128,73013,2,0,B|256:128,5,60
280,168,73981,2,0,B|352:168,5,60
360,208,74949,2,4,B|440:208,5,60
464,208,75916,1,4
72,152,79464,5,0
128,72,79786,2,0,B|200:56|240:120,1,120
288,184,80432,1,0
344,256,80754,2,0,B|365:320|448:320,1,120
440,224,81399,1,0
432,128,81722,1,4
368,48,82045,1,4
272,40,82367,1,4
176,64,82690,1,4
104,128,83012,1,4
88,224,83335,1,4
416,64,87206,5,0
416,160,87528,2,0,B|416:296,1,120
320,280,88174,1,0
320,184,88496,2,0,B|184:184,1,120
104,184,89141,1,0
104,280,89464,1,4
104,184,89786,1,4
104,88,90109,1,4
200,88,90432,1,4
296,88,90754,1,4
392,88,91077,1,4
384,136,91238,1,4
352,168,91401,5,4
192,312,106801,6,2,B|251:347|320:312,1,120
368,248,107443,1,2
312,168,107764,2,2,B|257:136|192:168,1,120
136,88,108406,1,2
56,144,108726,2,2,B|15:202|56:264,1,120
128,312,109368,1,2
224,312,109689,2,2,B|280:360|336:312,1,120
408,248,110331,1,2
352,168,110672,6,2,B|296:40,1,120
208,48,111317,1,2
112,56,111640,2,2,B|48:176,1,120
80,256,112285,1,2
160,312,112608,2,2,B|296:256,1,120
360,232,113254,1,2
272,200,113576,2,2,B|160:152,1,120
161,152,114060,1,2
161,152,114222,1,2
256,192,114545,12,4,118418
88,40,126164,5,2
184,40,126486,2,0,B|312:40,1,120
400,40,127132,1,2
400,136,127455,2,0,B|264:136,1,120
184,136,128100,1,2
184,232,128423,2,0,B|312:232,1,120
400,232,129068,1,2
456,312,129391,1,2
352,312,129714,1,2
256,312,130037,6,0,L|203:336|144:312,1,120,0|0
72,248,130682,1,2
40,160,131005,2,0,L|95:123|168:152,1,120
232,176,131650,1,2
312,128,131973,2,0,B|416:64,1,120
464,144,132619,1,2
496,232,132941,2,0,B|384:304,1,120,0|2
344,296,133426,1,2
296,296,133587,1,2
208,272,133910,5,0
128,216,134233,2,0,B|80:168,1,60
56,136,134555,1,0
144,136,134878,1,0
232,128,135201,2,0,B|296:72,1,60
312,56,135524,1,0
408,56,135846,1,0
408,152,136169,2,0,B|344:152,1,60
344,200,136492,1,0
408,272,136815,1,0
304,272,137137,2,0,B|256:320,1,60
216,312,137460,1,0
120,296,137783,5,4
120,200,138106,2,4,B|151:173|120:136,1,60
88,120,138428,1,0
144,40,138751,1,4
224,88,139074,2,4,B|248:112|280:86,1,60
312,56,139397,1,4
384,120,139719,1,4
456,184,140042,2,4,B|480:210|456:240,1,60
424,280,140365,1,4
320,280,140688,1,4
224,280,141010,2,4,B|168:224,1,60
144,200,141333,1,0
144,112,141656,5,2
240,104,141979,2,0,L|240:24,1,60
287,46,142301,2,0,L|287:110,1,60
336,104,142624,1,2
408,160,142947,2,0,L|496:160,1,60
472,208,143270,2,0,L|408:208,1,60
408,256,143592,1,2
312,264,143915,2,4,B|312:328,3,60
264,328,144561,1,4
168,328,144883,1,4
120,328,145045,1,4
120,280,145206,1,4
256,192,145529,12,4,147143
256,192,147465,12,4,149079
136,192,150370,5,0
216,136,150693,1,0
256,160,150854,1,0
296,136,151016,1,0
416,288,152307,5,0
320,288,152629,1,0
280,320,152791,1,0
240,288,152952,1,0
232,200,153275,5,0
136,192,153598,1,0
96,224,153759,1,0
56,192,153921,1,0
56,96,154243,5,0
128,32,154566,1,0
168,64,154727,1,0
208,96,154889,1,0
272,24,155212,5,4
368,40,155534,1,4
400,72,155696,1,4
432,104,155857,1,4
432,200,156180,1,4
360,264,156503,1,4
312,264,156664,1,4
312,312,156825,1,4
216,312,157148,5,2
120,312,157471,2,0,L|56:264,1,60
64,224,157794,2,0,L|128:192,1,60
160,176,158116,1,2
240,128,158439,2,0,L|288:80,1,60
328,88,158762,2,0,L|376:152,1,60
392,168,159084,1,2
392,264,159407,2,4,B|312:264,3,60
280,264,160053,1,4
184,264,160375,1,4
152,232,160537,1,4
120,200,160698,1,4
256,192,161021,12,4,162635
256,192,162957,12,4,164571
256,40,164894,6,4,C|256:104,5,60
256,144,165862,2,4,C|256:208,5,60
256,248,166831,2,4,C|256:312,5,60
256,352,167799,2,4,L|184:352,5,60
144,352,168767,5,4
88,272,169090,1,4
56,232,169251,1,4
88,192,169413,1,4
88,96,169735,1,4
184,96,170058,1,4
224,64,170220,1,4
264,96,170381,1,4
360,96,170704,5,4
416,176,171026,1,4
440,216,171188,1,4
416,256,171349,1,4
336,312,171672,1,4
240,312,171995,1,4
200,336,172156,1,4
160,304,172317,1,4
88,240,172640,5,4
160,184,172963,1,4
200,160,173124,1,4
240,136,173286,1,4
336,136,173609,1,4
432,136,173931,1,4
464,96,174093,1,4
432,56,174254,1,0
432,136,174577,1,4
432,232,174900,1,4
456,272,175061,1,4
432,312,175222,1,4
336,312,175545,1,4
240,312,175868,1,4
240,264,176029,1,4
240,216,176191,1,4
240,312,176513,5,4
144,312,176836,2,4,B|80:256,1,60
96,224,177159,2,4,B|152:184,1,60
184,160,177482,1,4
152,64,177804,2,4,B|224:32,1,60
256,40,178127,2,4,B|328:80,1,60
344,88,178450,1,4
416,144,178773,2,4,B|416:216,1,60
408,248,179095,2,4,B|352:312,1,60
336,328,179418,1,4
240,328,179741,2,4,L|152:328,1,60
176,280,180064,2,4,L|104:280,1,60
112,232,180386,1,4
256,192,180709,12,4,184259
208,56,184905,5,0
304,56,185228,1,4
48,296,185873,5,0
144,296,186196,1,4
464,296,186841,5,0
368,296,187164,1,4
256,192,188132,12,4,192006
