osu file format v5

[General]
AudioFilename: 14. Fur Elise.mp3
AudioLeadIn: 0
PreviewTime: -1
Countdown: 1
SampleSet: Soft

[Metadata]
Title:Fur Elise
Artist:Trans Siberian Orchestra
Creator:joaowojcikiewicz
Version:Normal

[Difficulty]
HPDrainRate:4
CircleSize:5
OverallDifficulty:4
SliderMultiplier:1.4
SliderTickRate:1

[Events]
//Background and Video events
0,0,"colver.JPG"
//Break Periods
//Storyboard Layer 0 (Background)
//Storyboard Layer 1 (Failing)
//Storyboard Layer 2 (Passing)
//Storyboard Layer 3 (Foreground)
//Storyboard Sound Samples
//Background Colour Transformations
3,100,163,162,255

[TimingPoints]
557,228.220620420913,4,2,0,100

[HitObjects]
128,96,5806,5,0
160,96,6034,1,0
128,96,6262,1,0
160,96,6490,1,0
128,96,6718,1,0
160,96,6947,1,0
128,96,7175,1,0
160,96,7403,1,0
128,96,7631,1,0
128,192,8316,5,0
160,192,8544,1,0
192,192,8772,1,0
224,192,9001,1,0
320,192,9685,5,0
352,192,9914,1,0
384,192,10142,1,0
416,192,10370,1,0
224,192,11283,5,0
288,192,11511,1,0
352,192,11739,1,0
416,192,11968,1,0
224,256,12652,5,0
160,256,12880,1,0
224,256,13109,1,0
224,192,13337,1,0
352,128,14022,5,0
416,128,14250,1,0
352,128,14478,1,0
288,128,14706,1,0
128,64,15391,5,0
128,128,15619,1,0
128,192,15847,1,0
192,192,16076,1,0
320,64,17445,5,0
320,128,18129,1,0
320,192,18358,1,0
320,256,18814,1,0
192,256,19271,5,0
192,192,19499,1,0
192,256,19727,1,0
192,192,19955,1,0
192,256,20183,1,0
192,192,20412,1,0
192,256,20640,1,0
192,192,20868,1,0
192,256,21096,1,0
192,192,21325,1,0
192,256,21553,1,0
192,192,21781,1,0
192,256,22009,1,0
192,192,22237,1,0
320,256,22694,2,0,B|480:256,1,140
32,32,23379,5,0
32,96,23607,1,0
96,96,23835,1,0
160,96,24063,1,0
352,96,24748,5,0
352,160,24976,1,0
352,224,25204,1,0
352,288,25433,1,0
256,192,26574,12,0,32279
