osu file format v12

[General]
AudioFilename: Traktion - Amethyst [Mission ASCII].mp3
AudioLeadIn: 0
PreviewTime: -1
Countdown: 1
SampleSet: Normal
StackLeniency: 0.7
Mode: 0
LetterboxInBreaks: 1
WidescreenStoryboard: 0

[Editor]
DistanceSpacing: 2
BeatDivisor: 16
GridSize: 8

[Metadata]
Title:Amethyst
TitleUnicode:Amethyst
Artist:Trakton
ArtistUnicode:Trakton
Creator:mebins
Version:Insane
Source:Mission ASCII
Tags:
BeatmapID:286684
BeatmapSetID:109943

[Difficulty]
HPDrainRate:5
CircleSize:4
OverallDifficulty:7
ApproachRate:9
SliderMultiplier:1.6
SliderTickRate:2

[Events]
//Background and Video events
0,0,"maxresdefault.jpg",0,0
//Break Periods
2,97901,118170
//Storyboard Layer 0 (Background)
//Storyboard Layer 1 (Fail)
//Storyboard Layer 2 (Pass)
//Storyboard Layer 3 (Foreground)
//Storyboard Sound Samples
//Background Colour Transformations
3,100,163,162,255

[TimingPoints]
0,337.078651685393,4,1,0,100,1,0

[HitObjects]
216,280,10562,1,0,0:0:0:0:
224,280,10646,1,0,0:0:0:0:
232,280,10730,1,0,0:0:0:0:
240,280,10814,1,0,0:0:0:0:
248,280,10899,1,0,0:0:0:0:
320,256,11067,1,0,0:0:0:0:
368,192,11236,1,0,0:0:0:0:
400,120,11404,1,0,0:0:0:0:
376,48,11573,1,0,0:0:0:0:
296,40,11742,1,0,0:0:0:0:
232,88,11910,1,0,0:0:0:0:
152,64,12079,1,0,0:0:0:0:
128,144,12247,1,0,0:0:0:0:
160,216,12416,1,0,0:0:0:0:
216,272,12584,1,0,0:0:0:0:
296,272,12753,1,0,0:0:0:0:
296,272,13090,6,0,P|384:272|416:208,1,160
376,144,13596,2,0,P|344:128|256:224,1,160
136,248,14270,2,0,P|80:176|104:80,1,160
136,48,14944,2,0,P|248:16|312:32,1,160
352,64,15450,2,0,P|384:128|288:264,1,240
136,312,16292,1,0,0:0:0:0:
128,304,16377,1,0,0:0:0:0:
120,296,16461,1,0,0:0:0:0:
112,288,16545,1,0,0:0:0:0:
56,208,16629,1,0,0:0:0:0:
112,152,16798,1,0,0:0:0:0:
192,152,16967,1,0,0:0:0:0:
240,216,17135,1,0,0:0:0:0:
304,168,17304,1,0,0:0:0:0:
384,160,17472,1,0,0:0:0:0:
392,240,17641,2,0,P|336:312|256:336,1,160
192,336,18146,2,0,P|120:320|72:216,1,160
88,16,18989,2,0,P|56:96|88:176,1,160
144,208,19495,2,0,P|200:248|360:192,1,240
424,16,20337,2,0,P|456:96|424:176,1,160
368,208,20843,2,0,P|312:248|152:192,1,240
136,56,21686,1,0,0:0:0:0:
144,56,21770,1,0,0:0:0:0:
152,56,21854,1,0,0:0:0:0:
160,56,21939,1,0,0:0:0:0:
136,128,22023,1,0,0:0:0:0:
208,160,22192,1,0,0:0:0:0:
144,208,22360,1,0,0:0:0:0:
88,264,22529,1,0,0:0:0:0:
160,304,22697,1,0,0:0:0:0:
360,272,22866,2,0,L|320:200,1,80
321,202,23203,1,0,0:0:0:0:
392,168,23371,2,0,L|432:256,1,80
425,240,23708,1,0,0:0:0:0:
392,168,23877,1,0,0:0:0:0:
432,104,24046,1,0,0:0:0:0:
352,96,24214,1,0,0:0:0:0:
288,48,24383,1,0,0:0:0:0:
264,120,24551,1,0,0:0:0:0:
184,144,24720,1,0,0:0:0:0:
88,184,24888,1,0,0:0:0:0:
152,224,25057,1,0,0:0:0:0:
136,304,25225,1,0,0:0:0:0:
208,336,25394,1,0,0:0:0:0:
280,304,25563,1,0,0:0:0:0:
384,312,25731,2,0,L|320:216,1,80
339,245,26068,5,0,0:0:0:0:
416,256,26237,1,0,0:0:0:0:
424,216,26321,1,0,0:0:0:0:
432,176,26405,1,0,0:0:0:0:
424,136,26490,1,0,0:0:0:0:
400,104,26574,1,0,0:0:0:0:
328,64,26742,1,0,0:0:0:0:
248,64,26911,1,0,0:0:0:0:
200,128,27079,1,0,0:0:0:0:
152,64,27248,1,0,0:0:0:0:
104,128,27417,1,0,0:0:0:0:
96,208,27585,1,0,0:0:0:0:
160,264,27754,1,0,0:0:0:0:
96,312,27922,1,0,0:0:0:0:
168,344,28091,1,0,0:0:0:0:
232,296,28259,1,0,0:0:0:0:
288,352,28428,1,0,0:0:0:0:
368,352,28596,2,0,L|328:256,1,80
337,278,28933,1,0,0:0:0:0:
416,256,29102,2,0,L|456:344,1,80
449,328,29439,1,0,0:0:0:0:
416,256,29608,1,0,0:0:0:0:
376,192,29776,1,0,0:0:0:0:
304,160,29945,1,0,0:0:0:0:
224,184,30113,1,0,0:0:0:0:
184,248,30282,1,0,0:0:0:0:
264,248,30450,1,0,0:0:0:0:
224,312,30619,1,0,0:0:0:0:
184,248,30788,1,0,0:0:0:0:
152,176,30956,1,0,0:0:0:0:
240,112,31125,1,0,0:0:0:0:
240,120,31209,1,0,0:0:0:0:
240,128,31293,1,0,0:0:0:0:
240,136,31377,1,0,0:0:0:0:
240,144,31462,1,0,0:0:0:0:
240,152,31546,1,0,0:0:0:0:
240,160,31630,1,0,0:0:0:0:
240,168,31715,1,0,0:0:0:0:
240,176,31799,1,0,0:0:0:0:
240,184,31883,1,0,0:0:0:0:
240,192,31967,1,0,0:0:0:0:
240,200,32052,1,0,0:0:0:0:
240,216,32136,1,0,0:0:0:0:
88,248,32473,1,0,0:0:0:0:
184,320,32642,1,0,0:0:0:0:
304,320,32810,1,0,0:0:0:0:
368,216,32979,1,0,0:0:0:0:
296,120,33147,1,0,0:0:0:0:
176,120,33316,1,0,0:0:0:0:
112,216,33484,1,0,0:0:0:0:
240,216,33653,1,0,0:0:0:0:
168,120,33821,1,0,0:0:0:0:
240,216,33990,1,0,0:0:0:0:
296,120,34158,1,0,0:0:0:0:
240,216,34327,1,0,0:0:0:0:
360,216,34496,1,0,0:0:0:0:
240,216,34664,1,0,0:0:0:0:
312,312,34833,1,0,0:0:0:0:
240,216,35001,1,0,0:0:0:0:
152,304,35170,1,0,0:0:0:0:
240,216,35338,1,0,0:0:0:0:
168,120,35507,1,0,0:0:0:0:
72,48,35675,1,0,0:0:0:0:
64,168,35844,1,0,0:0:0:0:
168,224,36013,1,0,0:0:0:0:
80,304,36181,1,0,0:0:0:0:
192,344,36350,1,0,0:0:0:0:
312,328,36518,2,0,P|312:280|240:192,1,160
328,88,37024,1,0,0:0:0:0:
312,88,37108,1,0,0:0:0:0:
296,88,37192,1,0,0:0:0:0:
280,88,37277,1,0,0:0:0:0:
264,88,37361,1,0,0:0:0:0:
248,88,37445,1,0,0:0:0:0:
232,88,37529,1,0,0:0:0:0:
216,88,37614,1,0,0:0:0:0:
200,88,37698,1,0,0:0:0:0:
192,88,37782,1,0,0:0:0:0:
192,296,37867,1,0,0:0:0:0:
80,264,38035,1,0,0:0:0:0:
16,160,38204,1,0,0:0:0:0:
120,112,38372,1,0,0:0:0:0:
184,216,38541,1,0,0:0:0:0:
304,192,38709,1,0,0:0:0:0:
344,80,38878,1,0,0:0:0:0:
464,104,39046,1,0,0:0:0:0:
456,224,39215,1,0,0:0:0:0:
440,232,39299,1,0,0:0:0:0:
424,240,39384,1,0,0:0:0:0:
408,248,39468,1,0,0:0:0:0:
392,256,39552,1,0,0:0:0:0:
376,264,39636,1,0,0:0:0:0:
360,272,39721,1,0,0:0:0:0:
344,280,39805,1,0,0:0:0:0:
328,288,39889,1,0,0:0:0:0:
208,304,40058,1,0,0:0:0:0:
24,112,40226,1,0,0:0:0:0:
120,184,40395,1,0,0:0:0:0:
240,192,40563,1,0,0:0:0:0:
328,112,40732,1,0,0:0:0:0:
368,224,40900,1,0,0:0:0:0:
448,312,41069,1,0,0:0:0:0:
472,192,41238,1,0,0:0:0:0:
368,224,41406,1,0,0:0:0:0:
328,112,41575,1,0,0:0:0:0:
240,192,41743,1,0,0:0:0:0:
120,184,41912,1,0,0:0:0:0:
32,104,42080,1,0,0:0:0:0:
32,224,42249,1,0,0:0:0:0:
120,312,42417,1,0,0:0:0:0:
128,312,42502,1,0,0:0:0:0:
136,312,42586,1,0,0:0:0:0:
136,312,42670,1,0,0:0:0:0:
144,312,42754,1,0,0:0:0:0:
152,312,42839,1,0,0:0:0:0:
160,312,42923,1,0,0:0:0:0:
168,312,43007,1,0,0:0:0:0:
176,312,43092,1,0,0:0:0:0:
296,328,43260,5,0,0:0:0:0:
416,328,43429,1,0,0:0:0:0:
352,224,43597,1,0,0:0:0:0:
248,152,43766,1,0,0:0:0:0:
176,240,43934,1,0,0:0:0:0:
72,184,44103,1,0,0:0:0:0:
144,88,44271,1,0,0:0:0:0:
248,32,44440,2,0,L|352:48,1,80
327,44,44777,1,0,0:0:0:0:
336,168,44946,2,0,L|424:168,1,80
416,168,45283,1,0,0:0:0:0:
480,272,45451,2,0,L|544:320,2,80
304,312,45957,1,0,0:0:0:0:
192,272,46125,1,0,0:0:0:0:
288,200,46294,1,0,0:0:0:0:
176,160,46463,1,0,0:0:0:0:
72,216,46631,1,0,0:0:0:0:
96,336,46800,1,0,0:0:0:0:
216,360,46968,1,0,0:0:0:0:
304,312,47137,1,0,0:0:0:0:
424,288,47305,2,0,P|424:176|392:176,1,160
296,168,47811,1,0,0:0:0:0:
272,168,47895,1,0,0:0:0:0:
248,168,47979,1,0,0:0:0:0:
224,168,48064,1,0,0:0:0:0:
208,168,48148,1,0,0:0:0:0:
88,160,48317,1,0,0:0:0:0:
8,72,48485,1,0,0:0:0:0:
128,64,48654,1,0,0:0:0:0:
248,56,48822,1,0,0:0:0:0:
312,160,48991,1,0,0:0:0:0:
376,56,49159,1,0,0:0:0:0:
416,168,49328,1,0,0:0:0:0:
360,264,49497,1,0,0:0:0:0:
312,328,49665,1,0,0:0:0:0:
272,264,49855,1,0,0:0:0:0:
224,264,50002,1,0,0:0:0:0:
208,264,50086,1,0,0:0:0:0:
192,264,50171,1,0,0:0:0:0:
176,264,50255,1,0,0:0:0:0:
56,320,50466,1,0,0:0:0:0:
72,320,50550,1,0,0:0:0:0:
88,320,50634,1,0,0:0:0:0:
104,320,50718,1,0,0:0:0:0:
120,320,50803,1,0,0:0:0:0:
352,312,51013,1,0,0:0:0:0:
272,224,51182,1,0,0:0:0:0:
160,176,51350,1,0,0:0:0:0:
64,248,51519,1,0,0:0:0:0:
56,128,51688,1,0,0:0:0:0:
168,80,51856,1,0,0:0:0:0:
280,120,52025,1,0,0:0:0:0:
376,192,52193,1,0,0:0:0:0:
384,80,52362,1,0,0:0:0:0:
272,32,52657,1,0,0:0:0:0:
272,32,52994,1,0,0:0:0:0:
72,80,53352,2,0,P|160:56|248:120,1,200
264,264,54016,1,0,0:0:0:0:
264,104,54206,1,0,0:0:0:0:
136,192,54353,1,0,0:0:0:0:
144,352,54543,1,0,0:0:0:0:
416,192,54880,1,0,0:0:0:0:
408,32,55070,1,0,0:0:0:0:
248,32,55386,1,0,0:0:0:0:
240,192,55723,1,0,0:0:0:0:
232,96,56039,2,0,P|272:24|376:152,2,320
136,312,57619,1,0,0:0:0:0:
232,184,57872,1,0,0:0:0:0:
352,80,58082,1,0,0:0:0:0:
472,184,58293,1,0,0:0:0:0:
352,200,58504,1,0,0:0:0:0:
352,336,58714,1,0,0:0:0:0:
80,104,58925,2,0,L|160:208|160:208,1,130
320,160,59462,2,0,P|288:96|440:80,2,280
376,264,61074,2,0,P|352:336|256:192,1,360
32,88,62180,2,0,P|96:216|248:56,1,440
448,80,63328,2,0,P|432:200|288:96,1,370
184,192,64466,2,0,L|184:72,1,120
96,96,64877,6,0,P|152:16|264:72,1,240
112,184,65888,2,0,P|168:256|216:224,2,160
224,224,66731,2,0,P|256:160|176:96,1,160
224,216,67215,2,0,P|280:240|288:264,1,90
328,240,67552,2,0,P|352:264|400:232,1,80
320,160,67911,2,0,P|344:136|392:168,1,80
488,88,68248,2,0,P|480:32|424:24,1,120
368,32,68690,2,0,P|264:24|224:24,1,120
160,64,69048,2,0,P|176:112|224:112,2,80
136,184,69680,2,0,P|144:256|240:248,1,160
376,304,70270,1,0,0:0:0:0:
440,160,70734,1,0,0:0:0:0:
224,64,71281,1,0,0:0:0:0:
144,208,71619,6,0,L|208:136,1,80
272,112,71935,2,0,L|328:176,1,80
224,208,72272,2,0,L|288:264,1,80
176,272,72609,2,0,L|240:328,1,80
320,344,73082,2,0,P|376:320|368:224,1,160
344,144,73630,2,0,P|288:72|216:56,1,160
144,128,74147,2,0,P|112:184|240:256,1,240
296,216,74789,2,0,L|352:264|352:264,2,70
264,304,75231,2,0,P|176:232|232:152,2,200
264,176,76443,2,0,P|336:200|344:296,1,160
248,160,77012,2,0,L|248:112,1,40
248,120,77181,1,0,0:0:0:0:
136,176,77265,6,0,L|104:112,1,40
192,296,77455,1,0,0:0:0:0:
272,312,77623,1,0,0:0:0:0:
352,296,77792,1,0,0:0:0:0:
376,216,77960,1,0,0:0:0:0:
384,136,78129,1,0,0:0:0:0:
376,56,78297,1,0,0:0:0:0:
320,24,78466,2,0,L|256:56,1,70
240,104,78803,1,0,0:0:0:0:
216,216,78972,1,0,0:0:0:0:
144,184,79140,1,0,0:0:0:0:
72,224,79330,2,0,P|48:328|80:344,1,160
160,320,79751,2,0,L|160:272,1,40
184,280,79920,2,0,L|184:328,1,40
208,320,80088,2,0,L|208:264,1,40
264,272,80362,2,0,P|312:248|304:208,1,80
360,176,80699,2,0,L|304:168,1,40
328,48,81036,2,0,P|256:24|240:40,1,80
216,88,81373,2,0,P|256:120|320:112,1,80
272,208,81710,2,0,P|216:240|144:176,1,160
146,189,82363,1,0,0:0:0:0:
96,256,82511,2,0,P|136:304|160:304,2,80
296,192,83059,2,0,P|272:144|216:128,1,80
168,112,83396,6,0,P|120:120|88:216,2,160
152,192,84260,2,0,P|216:200|280:104,1,160
200,128,84765,2,0,P|232:64|328:88,1,160
344,136,85208,2,0,P|344:184|320:192,1,80
288,216,85461,2,0,P|328:240|352:232,1,40
344,264,85629,2,0,P|328:304|312:312,1,40
376,328,85861,2,0,P|416:328|464:208,1,190
360,128,86430,2,0,P|320:72|264:80,1,120
296,112,86872,2,0,P|224:176|184:128,1,160
232,80,87378,2,0,P|184:40|112:72,1,120
96,136,87904,2,0,P|64:184|80:200,1,80
144,224,88242,2,0,P|176:168|152:128,4,80
88,280,89084,2,0,P|128:320|224:264,1,160
144,232,89590,2,0,P|168:144|232:168,1,180
208,248,90138,2,0,P|288:272|320:192,1,160
280,104,90644,2,0,P|320:144|352:128,1,80
344,64,90981,2,0,P|408:176|336:200,1,240
296,280,91655,1,0,0:0:0:0:
216,296,91844,2,0,P|256:200|320:224,1,160
368,232,92350,2,0,P|376:288|272:352,1,160
224,336,92856,2,0,P|168:344|168:256,1,160
157,232,93340,2,0,P|112:168|120:152,4,80
240,248,94183,2,0,P|280:240|304:176,1,80
303,210,94499,2,0,P|320:144|280:96,1,130
256,56,94962,2,0,P|200:40|168:64,1,80
136,112,95300,2,0,P|136:192|176:200,1,120
176,320,95847,2,0,P|224:336|240:296,1,80
248,240,96185,2,0,P|200:208|160:224,1,80
168,128,96522,2,0,P|208:56|312:280,1,560
256,64,118770,6,0,L|360:56,1,80
304,120,119107,1,0,0:0:0:0:
464,144,119276,1,0,0:0:0:0:
432,304,119444,1,0,0:0:0:0:
272,280,119613,1,0,0:0:0:0:
136,200,119781,1,0,0:0:0:0:
88,48,119950,1,0,0:0:0:0:
240,32,120119,1,0,0:0:0:0:
280,184,120287,1,0,0:0:0:0:
240,328,120456,1,0,0:0:0:0:
240,328,120624,1,0,0:0:0:0:
392,288,120793,1,0,0:0:0:0:
416,120,120961,1,0,0:0:0:0:
320,56,121130,1,0,0:0:0:0:
232,144,121298,1,0,0:0:0:0:
368,232,121467,1,0,0:0:0:0:
432,320,121635,1,0,0:0:0:0:
432,320,121804,1,0,0:0:0:0:
480,208,121973,1,0,0:0:0:0:
336,144,122141,1,0,0:0:0:0:
120,168,122310,1,0,0:0:0:0:
120,168,122478,1,0,0:0:0:0:
240,272,122647,1,0,0:0:0:0:
304,128,122815,1,0,0:0:0:0:
304,128,122984,1,0,0:0:0:0:
248,56,123152,2,0,L|160:64,1,80
208,120,123489,2,0,L|160:184,1,80
128,296,123827,2,0,P|176:320|224:296,1,80
248,200,124164,1,0,0:0:0:0:
368,192,124332,1,0,0:0:0:0:
248,200,124501,1,0,0:0:0:0:
304,304,124669,1,0,0:0:0:0:
248,200,124838,1,0,0:0:0:0:
176,304,125006,1,0,0:0:0:0:
248,200,125175,1,0,0:0:0:0:
184,96,125344,1,0,0:0:0:0:
248,200,125512,1,0,0:0:0:0:
312,96,125681,1,0,0:0:0:0:
248,200,125849,1,0,0:0:0:0:
192,96,126018,1,0,0:0:0:0:
248,200,126186,1,0,0:0:0:0:
128,200,126355,1,0,0:0:0:0:
248,200,126523,1,0,0:0:0:0:
176,296,126692,1,0,0:0:0:0:
248,200,126860,1,0,0:0:0:0:
320,296,127029,1,0,0:0:0:0:
248,200,127198,1,0,0:0:0:0:
368,200,127366,1,0,0:0:0:0:
248,200,127535,1,0,0:0:0:0:
168,112,127703,1,0,0:0:0:0:
80,192,127872,1,0,0:0:0:0:
152,288,128040,1,0,0:0:0:0:
248,200,128209,1,0,0:0:0:0:
320,296,128377,1,0,0:0:0:0:
368,200,128546,1,0,0:0:0:0:
304,96,128715,1,0,0:0:0:0:
208,32,128883,2,0,P|136:56|112:88,1,80
80,192,129220,2,0,P|96:272|104:280,1,80
152,288,129557,1,0,0:0:0:0:
264,320,129726,1,0,0:0:0:0:
360,256,129894,1,0,0:0:0:0:
456,128,130063,1,0,0:0:0:0:
456,128,130231,1,0,0:0:0:0:
320,48,130400,1,0,0:0:0:0:
320,48,130569,1,0,0:0:0:0:
160,56,130737,1,0,0:0:0:0:
256,184,130906,1,0,0:0:0:0:
256,184,131074,1,0,0:0:0:0:
96,184,131243,1,0,0:0:0:0:
136,264,131411,1,0,0:0:0:0:
240,320,131580,1,0,0:0:0:0:
360,288,131748,1,0,0:0:0:0:
424,184,131917,1,0,0:0:0:0:
352,88,132085,1,0,0:0:0:0:
240,56,132254,2,0,P|192:48|152:72,1,80
144,176,132591,2,0,P|160:256|168:256,1,80
240,280,132928,2,0,P|288:280|304:248,1,80
272,88,133265,2,0,P|320:128|320:168,2,80
272,88,133771,1,0,0:0:0:0:
192,176,133940,1,0,0:0:0:0:
256,280,134108,1,0,0:0:0:0:
312,144,134277,1,0,0:0:0:0:
312,144,134445,1,0,0:0:0:0:
312,144,134614,2,0,P|312:216|288:224,1,80
264,104,134951,2,0,P|208:96|192:112,1,80
120,200,135288,2,0,P|144:232|208:240,1,80
256,280,135625,2,0,P|304:288|352:248,1,80
344,152,135962,2,0,P|400:192|384:224,1,80
352,80,136299,2,0,P|272:32|224:64,1,160
304,216,136805,2,0,P|264:264|232:248,1,80
168,176,137142,2,0,P|112:184|112:224,1,80
208,264,137479,2,0,P|224:280|304:256,1,80
256,168,137816,2,0,P|336:136|384:192,1,160
304,272,138322,2,0,P|288:288|224:280,1,80
248,168,138659,2,0,P|208:144|104:224,1,160
192,280,139165,2,0,P|248:312|312:256,1,160
240,160,139670,2,0,P|296:128|384:160,2,160
120,192,140513,1,0,0:0:0:0:
64,88,140681,1,0,0:0:0:0:
176,56,140850,1,0,0:0:0:0:
216,168,141019,1,0,0:0:0:0:
336,144,141187,1,0,0:0:0:0:
280,40,141356,1,0,0:0:0:0:
400,24,141524,1,0,0:0:0:0:
432,136,141693,6,0,L|392:240,1,80
328,304,142030,2,0,L|240:264,1,80
256,272,142367,1,0,0:0:0:0:
120,192,142535,1,0,0:0:0:0:
256,272,142704,1,0,0:0:0:0:
456,136,142872,1,0,0:0:0:0:
456,136,143041,1,0,0:0:0:0:
456,136,143210,1,0,0:0:0:0:
304,160,143378,1,0,0:0:0:0:
160,48,143547,1,0,0:0:0:0:
304,160,143715,1,0,0:0:0:0:
424,24,143884,1,0,0:0:0:0:
424,152,144052,1,0,0:0:0:0:
304,160,144221,2,0,P|280:200|352:272,1,160
488,264,144726,2,0,P|448:336|416:336,1,120
344,328,145064,1,0,0:0:0:0:
288,328,145148,1,0,0:0:0:0:
232,320,145232,1,0,0:0:0:0:
144,272,145401,2,0,P|104:232|128:184,1,80
200,136,145738,2,0,P|240:176|232:224,1,80
232,320,146075,2,0,P|296:336|296:344,1,80
392,264,146412,2,0,P|408:200|384:184,1,80
376,80,146749,2,0,P|312:48|248:112,1,160
184,200,147255,2,0,P|232:248|248:240,1,80
272,136,147592,2,0,P|304:136|328:176,1,80
232,248,147929,2,0,P|248:288|304:288,1,80
336,280,148245,2,0,P|328:224|288:224,1,80
376,112,148561,2,0,P|312:56|288:56,1,110
240,168,148919,2,0,P|288:224|368:216,1,160
464,104,149446,2,0,P|472:208|432:248,1,160
320,240,149952,2,0,P|296:200|320:176,1,80
320,56,150289,2,0,P|304:104|328:128,1,80
319,123,150542,2,0,P|296:176|336:208,3,80
328,248,151131,2,0,P|376:288|312:320,1,160
200,272,151637,2,0,P|184:224|272:224,1,160
360,144,152143,2,0,P|296:88|216:104,2,160
320,256,152985,2,0,P|264:296|200:232,1,160
104,176,153476,2,0,L|48:136,1,40
104,176,153644,2,0,L|136:136,1,40
176,256,153828,2,0,P|208:312|288:272,1,160
240,168,154355,2,0,P|312:136|360:184,1,150
288,328,154824,2,0,P|352:336|376:280,1,130
296,208,155203,2,0,P|216:232|208:272,1,120
152,288,155682,2,0,L|96:288,1,40
80,240,155851,2,0,P|32:200|40:160,1,80
64,72,156188,2,0,L|128:32|128:32,1,40
160,48,156356,2,0,L|224:80,1,40
176,248,156525,2,0,P|216:296|304:304,1,150
448,280,157031,2,0,P|448:208|424:200,2,80
336,320,157536,2,0,P|256:328|240:256,1,160
232,240,158210,2,0,P|256:168|328:184,1,160
272,80,158716,2,0,P|216:72|192:88,1,80
272,176,159053,2,0,P|312:176|344:224,1,80
216,200,159390,1,0,0:0:0:0:
112,256,159559,1,0,0:0:0:0:
216,312,159727,1,0,0:0:0:0:
256,192,159896,1,0,0:0:0:0:
344,288,160064,1,0,0:0:0:0:
416,200,160233,1,0,0:0:0:0:
296,136,160402,1,0,0:0:0:0:
408,104,160570,1,0,0:0:0:0:
296,56,160739,2,0,L|384:16,1,80
248,16,161076,2,0,L|208:88,1,80
104,32,161413,2,0,L|120:112,1,80
96,232,161750,1,0,0:0:0:0:
192,304,161918,1,0,0:0:0:0:
208,184,162087,5,0,0:0:0:0:
296,264,162256,1,0,0:0:0:0:
208,184,162424,1,0,0:0:0:0:
328,168,162593,1,0,0:0:0:0:
208,184,162761,1,0,0:0:0:0:
272,88,162930,1,0,0:0:0:0:
208,184,163098,1,0,0:0:0:0:
144,88,163267,1,0,0:0:0:0:
208,192,163435,1,0,0:0:0:0:
88,200,163604,1,0,0:0:0:0:
168,288,163773,1,0,0:0:0:0:
208,184,163941,1,0,0:0:0:0:
264,288,164110,1,0,0:0:0:0:
320,184,164278,1,0,0:0:0:0:
320,184,164447,1,0,0:0:0:0:
272,88,164615,1,0,0:0:0:0:
152,88,164784,1,0,0:0:0:0:
208,184,164952,1,0,0:0:0:0:
88,200,165121,1,0,0:0:0:0:
168,288,165289,1,0,0:0:0:0:
208,184,165458,1,0,0:0:0:0:
432,176,165627,1,0,0:0:0:0:
432,176,165795,1,0,0:0:0:0:
432,176,165964,1,0,0:0:0:0:
432,296,166132,1,0,0:0:0:0:
312,304,166301,1,0,0:0:0:0:
80,256,166469,1,0,0:0:0:0:
80,256,166554,1,0,0:0:0:0:
80,256,166638,2,0,P|48:208|64:160,1,80
88,88,166975,2,0,B|160:40|144:48,1,40
120,128,167143,2,0,L|152:168,1,40
144,159,167312,1,0,0:0:0:0:
256,200,167481,1,0,0:0:0:0:
288,80,167649,1,0,0:0:0:0:
176,40,167818,1,0,0:0:0:0:
288,80,167986,1,0,0:0:0:0:
256,200,168155,1,0,0:0:0:0:
408,120,168323,1,0,0:0:0:0:
408,120,168492,1,0,0:0:0:0:
368,232,168660,1,0,0:0:0:0:
312,336,168829,1,0,0:0:0:0:
200,296,168998,1,0,0:0:0:0:
88,248,169166,1,0,0:0:0:0:
128,136,169335,1,0,0:0:0:0:
184,32,169503,1,0,0:0:0:0:
312,88,169672,1,0,0:0:0:0:
312,88,169840,1,0,0:0:0:0:
312,88,170009,1,0,0:0:0:0:
312,88,170177,1,0,0:0:0:0:
312,88,170346,1,0,0:0:0:0:
248,200,170514,1,0,0:0:0:0:
128,136,170683,1,0,0:0:0:0:
192,32,170852,1,0,0:0:0:0:
128,136,171020,1,0,0:0:0:0:
248,200,171189,1,0,0:0:0:0:
312,88,171357,1,0,0:0:0:0:
256,192,171573,12,0,173932,0:0:0:0:
