osu file format v13

[General]
AudioFilename: Traktion - Ultimatum [Fire Dance Ultimatum].mp3
AudioLeadIn: 0
PreviewTime: 73594
Countdown: 0
SampleSet: Soft
StackLeniency: 0.8
Mode: 0
LetterboxInBreaks: 1
StoryFireInFront: 0
WidescreenStoryboard: 1

[Editor]
DistanceSpacing: 1
BeatDivisor: 4
GridSize: 8
TimelineZoom: 1.299997

[Metadata]
Title:Ultimatum [Fire Dance/Ultimatum]
TitleUnicode:Ultimatum [Fire Dance/Ultimatum]
Artist:Traktion
ArtistUnicode:Traktion
Creator:TheForgotten5
Version:Normal
Source:
Tags:dnb drum and bass
BeatmapID:401066
BeatmapSetID:163687

[Difficulty]
HPDrainRate:4
CircleSize:3
OverallDifficulty:4
ApproachRate:5
SliderMultiplier:1.49999990463257
SliderTickRate:1

[Events]
//Background and Video events
0,0,"futuristic-metropolis-23274-1920x1080.jpg",0,0
//Break Periods
2,30668,44268
2,105668,119268
//Storyboard Layer 0 (Background)
//Storyboard Layer 1 (Fail)
//Storyboard Layer 2 (Pass)
//Storyboard Layer 3 (Foreground)
//Storyboard Sound Samples
//Background Colour Transformations
3,100,163,162,255

[TimingPoints]
468,468.75,4,2,0,60,1,0
45468,-100,4,2,0,60,0,1
73593,-100,4,2,0,60,0,0
165468,-100,4,2,0,60,0,1
193358,-100,4,2,0,60,0,0

[Colours]
Combo1 : 255,128,64
Combo2 : 0,255,255
Combo3 : 255,128,255
Combo4 : 255,255,0
Combo5 : 0,255,0

[HitObjects]
56,256,15468,5,4,0:0:0:0:
192,320,15936,1,8,0:0:0:0:
256,184,16405,1,0,0:0:0:0:
392,248,16874,1,8,0:0:0:0:
472,120,17343,6,0,B|512:192|512:192|512:272|512:272,2,149.999990463257,0|8|0,0:0|0:0|0:0,0:0:0:0:
336,56,18749,1,8,0:0:0:0:
280,192,19218,1,0,0:0:0:0:
152,112,19686,1,8,0:0:0:0:
24,192,20155,5,0,0:0:0:0:
152,272,20624,1,8,0:0:0:0:
280,192,21093,2,0,P|384:256|400:240,1,149.999990463257,0|8,0:0|0:0,0:0:0:0:
504,176,22030,1,0,0:0:0:0:
352,176,22499,1,8,0:0:0:0:
272,48,22968,6,0,P|168:96|152:144,1,149.999990463257,0|8,0:0|0:0,0:0:0:0:
128,272,23905,2,0,P|176:352|240:344,1,149.999990463257,0|8,0:0|0:0,0:0:0:0:
360,280,24843,2,0,P|368:208|336:136,1,149.999990463257,0|8,0:0|0:0,0:0:0:0:
208,64,25780,5,0,0:0:0:0:
208,216,26249,1,8,0:0:0:0:
360,216,26718,1,0,0:0:0:0:
360,64,27186,1,8,0:0:0:0:
256,176,27655,5,0,0:0:0:0:
152,64,28124,1,8,0:0:0:0:
152,216,28593,2,0,L|272:320,3,149.999990463257,0|8|0|8,0:0|0:0|0:0|0:0,0:0:0:0:
424,312,30468,5,4,0:0:0:0:
384,280,45468,5,4,0:0:0:0:
384,128,45936,1,8,0:0:0:0:
232,128,46405,1,0,0:0:0:0:
232,280,46874,1,8,0:0:0:0:
80,280,47343,5,0,0:0:0:0:
80,128,47811,1,8,0:0:0:0:
216,56,48280,1,0,0:0:0:0:
368,56,48749,2,0,L|368:208,1,149.999990463257,8|0,0:0|0:0,0:0:0:0:
248,296,49686,5,8,0:0:0:0:
128,208,50155,1,0,0:0:0:0:
248,120,50624,1,8,0:0:0:0:
368,208,51093,2,0,L|368:56,2,149.999990463257,0|8|0,0:0|0:0|0:0,0:0:0:0:
216,208,52499,1,8,0:0:0:0:
216,56,52968,5,0,0:0:0:0:
88,136,53436,1,8,0:0:0:0:
136,280,53905,1,0,0:0:0:0:
288,280,54374,1,8,0:0:0:0:
336,136,54843,6,0,P|411:190|420:273,1,149.999990463257,0|8,0:0|0:0,0:0:0:0:
320,344,55780,2,0,P|248:352|168:328,1,149.999990463257,0|8,0:0|0:0,0:0:0:0:
32,288,56718,2,0,P|48:216|96:144,1,149.999990463257,0|8,0:0|0:0,0:0:0:0:
208,64,57655,2,0,P|280:64|352:104,1,149.999990463257,0|8,0:0|0:0,0:0:0:0:
392,240,58593,2,0,B|369:316|425:316|489:300,2,149.999990463257,0|8|0,0:0|0:0|0:0,0:0:0:0:
392,96,59999,1,8,0:0:0:0:
240,120,60468,6,0,B|168:144|160:208|192:256,2,149.999990463257,0|8|0,0:0|0:0|0:0,0:0:0:0:
392,120,61874,5,8,0:0:0:0:
440,264,62343,1,0,0:0:0:0:
312,344,62811,1,8,0:0:0:0:
184,264,63280,1,0,0:0:0:0:
232,120,63749,1,8,0:0:0:0:
104,200,64218,6,0,B|48:272|48:272|112:320|112:320,1,149.999990463257,0|8,0:0|0:0,0:0:0:0:
248,304,65155,2,0,B|231:316|295:268|295:268|239:196,1,149.999990463257,0|8,0:0|0:0,0:0:0:0:
384,144,66093,2,0,B|333:79|333:79|400:24|400:24,2,149.999990463257,0|8|0,0:0|0:0|0:0,0:0:0:0:
344,288,67499,5,8,0:0:0:0:
272,160,67968,1,0,0:0:0:0:
400,88,68436,1,8,0:0:0:0:
472,216,68905,1,0,0:0:0:0:
344,288,69374,6,0,P|280:312|176:296,1,149.999990463257,8|0,0:0|0:0,0:0:0:0:
64,240,70311,2,0,P|120:200|216:184,1,149.999990463257,8|0,0:0|0:0,0:0:0:0:
344,208,71249,1,8,0:0:0:0:
496,208,71718,1,0,0:0:0:0:
424,80,72186,1,8,0:0:0:0:
344,208,72655,1,0,0:0:0:0:
272,80,73124,1,8,0:0:0:0:
256,192,73593,12,4,75468,0:0:0:0:
96,128,75936,5,8,0:0:0:0:
248,128,76405,1,0,0:0:0:0:
168,248,76874,1,8,0:0:0:0:
320,248,77343,1,0,0:0:0:0:
400,128,77811,5,8,0:0:0:0:
248,128,78280,2,2,L|160:128,2,74.9999952316285
248,200,78983,2,2,L|336:200,1,74.9999952316285
208,304,79686,1,8,0:0:0:0:
104,192,80155,1,0,0:0:0:0:
208,88,80624,5,8,0:0:0:0:
336,160,81093,1,0,0:0:0:0:
208,240,81561,1,8,0:0:0:0:
80,160,82030,1,0,0:0:0:0:
208,88,82499,1,8,0:0:0:0:
56,88,82968,5,0,0:0:0:0:
88,232,83436,1,8,0:0:0:0:
208,320,83905,1,0,0:0:0:0:
328,232,84374,1,8,0:0:0:0:
368,88,84843,1,0,0:0:0:0:
216,88,85311,1,8,0:0:0:0:
216,232,85780,6,2,L|216:312,2,74.9999952316285
152,192,86483,2,2,L|168:112,1,74.9999952316285
296,40,87186,1,8,0:0:0:0:
408,136,87655,1,0,0:0:0:0:
408,288,88124,1,8,0:0:0:0:
256,192,88358,12,4,90468,0:0:0:0:
320,88,90936,5,8,0:0:0:0:
168,88,91405,1,0,0:0:0:0:
272,200,91874,1,8,0:0:0:0:
120,200,92343,1,0,0:0:0:0:
224,312,92811,6,0,P|304:312|344:256,1,149.999990463257,8|0,0:0|0:0,0:0:0:0:
272,120,93749,2,0,P|368:88|416:120,1,149.999990463257,8|0,0:0|0:0,0:0:0:0:
408,256,94686,1,8,0:0:0:0:
256,256,95155,1,0,0:0:0:0:
104,256,95624,6,0,L|104:104,2,149.999990463257,8|0|8,0:0|0:0|0:0,0:0:0:0:
232,176,97030,2,0,L|232:328,2,149.999990463257,0|8|0,0:0|0:0|0:0,0:0:0:0:
232,24,98436,1,8,0:0:0:0:
384,40,98905,1,0,0:0:0:0:
416,184,99374,6,0,L|304:288,1,149.999990463257,8|0,0:0|0:0,0:0:0:0:
160,288,100311,2,0,L|48:184,1,149.999990463257,8|0,0:0|0:0,0:0:0:0:
136,72,101249,1,8,0:0:0:0:
248,168,101718,2,0,L|376:64,1,149.999990463257,0|8,0:0|0:0,0:0:0:0:
248,168,102655,1,0,0:0:0:0:
248,320,103124,1,8,0:0:0:0:
256,192,103593,12,4,105468,0:0:0:0:
72,152,120468,5,0,0:0:0:0:
200,232,120936,1,8,0:0:0:0:
328,152,121405,1,0,0:0:0:0:
456,224,121874,1,8,0:0:0:0:
456,72,122343,5,0,0:0:0:0:
328,152,122811,1,8,0:0:0:0:
200,72,123280,1,0,0:0:0:0:
72,152,123749,1,8,0:0:0:0:
184,256,124218,6,0,L|344:256,2,149.999990463257,0|8|0,0:0|0:0|0:0,0:0:0:0:
184,104,125624,2,0,L|24:104,2,149.999990463257,8|0|8,0:0|0:0|0:0,0:0:0:0:
336,104,127030,2,0,L|216:216,2,149.999990463257,0|8|0,0:0|0:0|0:0,0:0:0:0:
256,192,128085,12,4,134530,0:0:0:0:
104,48,134999,5,8,0:0:0:0:
256,48,135468,5,0,0:0:0:0:
256,200,135936,1,0,0:0:0:0:
256,352,136405,1,8,0:0:0:0:
408,328,136874,6,0,P|408:240|352:192,1,149.999990463257
232,128,137811,2,0,P|152:96|88:128,1,149.999990463257,0|8,0:0|0:0,0:0:0:0:
96,272,138749,1,0,0:0:0:0:
240,240,139218,1,0,0:0:0:0:
384,200,139686,6,0,L|440:256,2,74.9999952316285,0|0|8,0:0|0:0|0:0,0:0:0:0:
280,96,140624,1,0,0:0:0:0:
176,200,141093,2,0,L|272:320,2,149.999990463257,0|0|8,0:0|0:0|0:0,0:0:0:0:
272,88,142499,2,8,L|320:152,1,74.9999952316285,8|0,0:0|0:0,0:0:0:0:
360,208,142968,5,4,0:0:0:0:
272,328,143436,1,0,0:0:0:0:
192,200,143905,1,8,0:0:0:0:
120,328,144374,1,0,0:0:0:0:
96,176,144843,6,0,P|176:88|208:72,2,149.999990463257,0|0|8,0:0|0:0|0:0,0:0:0:0:
248,176,146249,1,0,0:0:0:0:
400,176,146718,1,0,0:0:0:0:
400,328,147186,1,0,0:0:0:0:
248,328,147655,5,8,0:0:0:0:
312,192,148124,1,0,0:0:0:0:
160,192,148593,2,0,L|8:192,2,149.999990463257,0|0|8,0:0|0:0|0:0,0:0:0:0:
240,64,149999,1,8,0:0:0:0:
88,64,150468,1,4,0:0:0:0:
160,192,150936,5,0,0:0:0:0:
248,312,151405,1,8,0:0:0:0:
336,192,151874,1,0,0:0:0:0:
416,64,152343,1,0,0:0:0:0:
264,64,152811,6,0,L|264:216,1,149.999990463257,0|8,0:0|0:0,0:0:0:0:
160,304,153749,2,0,L|56:192,1,149.999990463257
208,176,154686,2,0,L|352:128,1,149.999990463257,0|8,0:0|0:0,0:0:0:0:
432,256,155624,1,0,0:0:0:0:
280,256,156093,6,0,P|240:264|152:208,3,149.999990463257,0|0|8|8,0:0|0:0|0:0|0:0,0:0:0:0:
152,56,157968,1,4,0:0:0:0:
264,152,158436,1,0,0:0:0:0:
376,248,158905,1,8,0:0:0:0:
264,152,159374,5,0,0:0:0:0:
152,248,159843,1,0,0:0:0:0:
264,344,160311,2,0,L|416:344,2,149.999990463257,0|8|0,0:0|0:0|0:0,0:0:0:0:
112,320,161718,2,0,B|64:312|16:304|48:272|48:208,3,149.999990463257,0|0|8|0,0:0|0:0|0:0|0:0,0:0:0:0:
256,192,163593,12,4,165468,0:0:0:0:
72,48,165936,5,8,0:0:0:0:
200,120,166405,1,0,0:0:0:0:
72,208,166874,1,8,0:0:0:0:
200,288,167343,1,0,0:0:0:0:
320,208,167811,5,8,0:0:0:0:
200,120,168280,2,2,L|200:40,2,74.9999952316285
136,120,168983,2,2,L|136:208|136:208,1,74.9999952316285
128,328,169686,1,8,0:0:0:0:
280,328,170155,1,0,0:0:0:0:
376,216,170624,1,8,0:0:0:0:
256,192,170858,12,0,172968,0:0:0:0:
256,192,173436,5,8,0:0:0:0:
184,64,173905,1,0,0:0:0:0:
336,64,174374,1,8,0:0:0:0:
256,192,174843,1,0,0:0:0:0:
184,320,175311,5,8,0:0:0:0:
336,320,175780,1,0,0:0:0:0:
256,192,176249,1,8,0:0:0:0:
104,192,176718,2,0,B|96:120|152:88|192:88,1,149.999990463257,2|8,0:0|0:0,0:0:0:0:
324,88,177655,2,0,B|360:88|416:120|408:192,1,149.999990463257,2|8,0:0|0:0,0:0:0:0:
256,192,178358,12,0,180468,0:0:0:0:
328,304,180936,5,8,0:0:0:0:
448,224,181405,1,0,0:0:0:0:
328,144,181874,1,8,0:0:0:0:
448,64,182343,1,0,0:0:0:0:
328,144,182811,5,8,0:0:0:0:
200,64,183280,2,2,P|112:120|112:160,2,149.999990463257,2|10|2,0:0|0:0|0:0,0:0:0:0:
200,216,184686,1,8,0:0:0:0:
352,216,185155,1,0,0:0:0:0:
280,88,185624,1,8,0:0:0:0:
256,192,185858,12,0,187968,0:0:0:0:
96,192,188436,5,8,0:0:0:0:
248,192,188905,1,0,0:0:0:0:
400,192,189374,1,8,0:0:0:0:
320,64,189843,1,0,0:0:0:0:
168,64,190311,1,8,0:0:0:0:
168,216,190780,6,2,L|168:304,2,74.9999952316285
96,216,191483,2,2,L|96:136,1,74.9999952316285
248,88,192186,5,8,0:0:0:0:
320,192,192655,1,0,0:0:0:0:
392,88,193124,1,8,0:0:0:0:
256,192,193358,12,4,195468,0:0:0:0:
120,248,195936,5,8,0:0:0:0:
120,96,196405,1,0,0:0:0:0:
256,160,196874,1,8,0:0:0:0:
392,96,197343,1,0,0:0:0:0:
392,248,197812,1,8,0:0:0:0:
392,96,198280,6,0,P|304:160|296:224,1,149.999990463257,0|8,0:0|0:0,0:0:0:0:
152,248,199218,2,0,P|96:168|112:96,1,149.999990463257,0|8,0:0|0:0,0:0:0:0:
240,64,200155,1,0,0:0:0:0:
240,224,200624,1,8,0:0:0:0:
160,96,201093,6,0,B|200:144|200:144|304:144|304:144,1,149.999990463257,2|8,0:0|0:0,0:0:0:0:
312,256,202030,2,0,B|274:300|274:300|170:300|187:300,1,149.999990463257,2|8,0:0|0:0,0:0:0:0:
80,192,202968,5,0,0:0:0:0:
232,192,203436,1,8,0:0:0:0:
384,192,203905,1,0,0:0:0:0:
384,40,204374,1,8,0:0:0:0:
232,40,204843,6,0,B|144:40|144:40|144:120|144:120,1,149.999990463257,0|8,0:0|0:0,0:0:0:0:
144,256,205780,2,0,B|144:320|144:320|248:320|248:320,1,149.999990463257,0|8,0:0|0:0,0:0:0:0:
368,256,206718,5,0,0:0:0:0:
227,201,207186,1,8,0:0:0:0:
281,59,207655,1,0,0:0:0:0:
423,113,208124,1,8,0:0:0:0:
256,192,208593,12,0,210468,0:0:0:0:
