osu file format v13

[General]
AudioFilename: Traktion - Ultimatum [Fire Dance Ultimatum].mp3
AudioLeadIn: 0
PreviewTime: 73351
Countdown: 0
SampleSet: Soft
StackLeniency: 0.8
Mode: 0
LetterboxInBreaks: 1
StoryFireInFront: 0
WidescreenStoryboard: 1

[Editor]
DistanceSpacing: 1
BeatDivisor: 4
GridSize: 8
TimelineZoom: 1.099997

[Metadata]
Title:Ultimatum [Fire Dance/Ultimatum]
TitleUnicode:Ultimatum [Fire Dance/Ultimatum]
Artist:Traktion
ArtistUnicode:Traktion
Creator:TheForgotten5
Version:Insane
Source:
Tags:electro jumps stream DT double time
BeatmapID:398735
BeatmapSetID:163687

[Difficulty]
HPDrainRate:7
CircleSize:4
OverallDifficulty:7
ApproachRate:9
SliderMultiplier:2.69999990463257
SliderTickRate:2

[Events]
//Background and Video events
0,0,"futuristic-metropolis-23274-1920x1080.jpg",0,0
//Break Periods
2,30668,37368
2,105668,120102
//Storyboard Layer 0 (Background)
//Storyboard Layer 1 (Fail)
//Storyboard Layer 2 (Pass)
//Storyboard Layer 3 (Foreground)
//Storyboard Sound Samples
//Background Colour Transformations
3,100,163,162,255

[TimingPoints]
468,468.75,4,2,1,60,1,0
45468,-100,4,2,1,60,0,1
75468,-100,4,2,1,60,0,0
103593,-100,4,2,1,45,0,0
104061,-100,4,2,1,30,0,0
104530,-100,4,2,1,20,0,0
104999,-100,4,2,1,15,0,0
105468,-100,4,2,1,60,0,0
165468,-100,4,2,1,60,0,1
195468,-100,4,2,1,60,0,0

[Colours]
Combo1 : 74,185,138
Combo2 : 57,117,61
Combo3 : 214,134,54
Combo4 : 168,88,68

[HitObjects]
88,64,468,5,4,0:0:0:0:
248,192,702,1,0,0:0:0:0:
408,64,936,1,8,0:0:0:0:
248,64,1171,1,0,0:0:0:0:
248,190,1405,5,0,0:0:0:0:
225,316,1639,1,0,0:0:0:0:
367,341,1874,1,8,0:0:0:0:
389,215,2108,1,0,0:0:0:0:
248,192,2343,5,0,0:0:0:0:
106,218,2577,1,0,0:0:0:0:
128,344,2811,1,8,0:0:0:0:
270,319,3046,1,0,0:0:0:0:
248,192,3280,5,0,0:0:0:0:
416,72,3514,1,0,0:0:0:0:
248,192,3749,1,8,0:0:0:0:
416,312,3983,1,0,0:0:0:0:
248,192,4218,5,0,0:0:0:0:
88,112,4452,1,0,0:0:0:0:
192,256,4686,1,8,0:0:0:0:
160,72,4921,1,0,0:0:0:0:
112,256,5155,5,0,0:0:0:0:
240,112,5389,1,0,0:0:0:0:
72,192,5624,1,8,0:0:0:0:
64,48,5858,6,0,L|224:48,1,134.999995231628
472,336,6327,2,0,L|327:336|335:336,1,134.999995231628,0|8,0:0|0:0,0:0:0:0:
334,48,6796,2,0,L|488:48|480:48,1,134.999995231628
200,344,7264,2,0,L|56:344,1,134.999995231628,0|8,0:0|0:0,0:0:0:0:
360,168,7733,6,0,L|282:47,1,134.999995231628,0|0,0:0|0:0,0:0:0:0:
152,168,8202,2,0,L|230:47,1,134.999995231628,0|8,0:0|0:0,0:0:0:0:
464,336,8671,2,0,L|387:219,1,134.999995231628,0|0,0:0|0:0,0:0:0:0:
48,336,9139,2,0,L|125:219,1,134.999995231628,0|8,0:0|0:0,0:0:0:0:
80,121,9608,5,0,0:0:0:0:
157,328,9843,1,0,0:0:0:0:
224,192,10077,1,0,0:0:0:0:
13,258,10311,1,8,0:0:0:0:
224,192,10546,1,0,0:0:0:0:
432,240,10780,5,0,0:0:0:0:
224,192,11014,1,0,0:0:0:0:
464,104,11249,1,8,0:0:0:0:
256,56,11483,1,0,0:0:0:0:
88,128,11718,6,0,P|120:160|176:264,1,134.999995231628
344,248,12186,1,8,0:0:0:0:
256,168,12421,1,0,0:0:0:0:
344,248,12655,1,0,0:0:0:0:
328,96,12889,1,0,0:0:0:0:
344,248,13124,1,8,0:0:0:0:
400,24,13358,1,0,0:0:0:0:
176,104,13593,5,0,0:0:0:0:
344,248,13827,1,0,0:0:0:0:
144,320,14061,1,8,0:0:0:0:
176,104,14296,1,0,0:0:0:0:
144,320,14530,5,0,0:0:0:0:
352,328,14764,1,0,0:0:0:0:
256,160,14999,1,8,0:0:0:0:
472,160,15233,1,8,0:0:0:0:
272,296,15468,5,4,0:0:0:0:
72,160,15702,2,0,P|16:112|8:48,2,134.999995231628,0|8|0,0:0|0:0|0:0,0:0:0:0:
320,264,16405,5,0,0:0:0:0:
120,272,16639,1,0,0:0:0:0:
320,192,16874,1,8,0:0:0:0:
120,200,17108,1,0,0:0:0:0:
224,56,17343,5,0,0:0:0:0:
472,56,17577,2,0,P|464:136|432:200,1,134.999995231628,0|8,0:0|0:0,0:0:0:0:
264,320,18046,1,0,0:0:0:0:
40,320,18280,1,0,0:0:0:0:
264,192,18514,1,0,0:0:0:0:
40,64,18749,1,8,0:0:0:0:
120,248,18983,5,0,0:0:0:0:
296,152,19218,1,0,0:0:0:0:
120,248,19452,1,0,0:0:0:0:
40,64,19686,1,8,0:0:0:0:
208,40,19921,1,0,0:0:0:0:
384,104,20155,1,0,0:0:0:0:
464,256,20389,1,0,0:0:0:0:
208,40,20624,1,8,0:0:0:0:
464,256,20858,1,0,0:0:0:0:
264,272,21093,5,0,0:0:0:0:
72,288,21327,1,0,0:0:0:0:
464,256,21561,1,8,0:0:0:0:
136,72,21796,2,0,L|136:152,1,67.4999976158142
136,336,22147,2,0,L|136:254,1,67.4999976158142
288,144,22499,1,8,0:0:0:0:
40,224,22733,1,0,0:0:0:0:
288,296,22968,5,4,0:0:0:0:
40,224,23202,1,0,0:0:0:0:
288,144,23436,1,8,0:0:0:0:
288,296,23671,2,0,L|312:224,1,67.4999976158142
352,72,24022,6,0,L|328:152,1,67.4999976158142
288,296,24374,1,8,0:0:0:0:
88,336,24608,1,0,0:0:0:0:
48,144,24843,1,0,0:0:0:0:
240,96,25077,1,0,0:0:0:0:
48,144,25311,1,8,0:0:0:0:
352,144,25546,2,0,L|352:280,1,134.999995231628
40,72,26014,2,0,L|176:72,1,134.999995231628,0|8,0:0|0:0,0:0:0:0:
104,328,26483,1,0,0:0:0:0:
232,136,26718,6,0,L|152:256,1,134.999995231628
320,136,27186,1,8,0:0:0:0:
440,328,27421,2,0,L|365:215,1,134.999995231628
40,72,27889,1,0,0:0:0:0:
157,248,28124,2,0,L|237:128,1,134.999995231628,8|0,0:0|0:0,0:0:0:0:
440,328,28593,5,0,0:0:0:0:
40,72,28827,2,0,L|176:72|168:72,1,134.999995231628,0|8,0:0|0:0,0:0:0:0:
440,328,29296,2,0,L|440:256,1,67.4999976158142
338,68,29764,5,0,0:0:0:0:
401,241,29999,1,8,0:0:0:0:
228,304,30233,1,0,0:0:0:0:
165,131,30468,1,4,0:0:0:0:
64,64,37968,5,0,0:0:0:0:
208,64,38202,1,0,0:0:0:0:
112,136,38436,5,8,0:0:0:0:
256,136,38671,1,0,0:0:0:0:
168,208,38905,5,0,0:0:0:0:
312,208,39139,1,0,0:0:0:0:
208,280,39374,5,8,0:0:0:0:
360,280,39608,1,0,0:0:0:0:
144,280,39843,5,0,0:0:0:0:
424,280,40077,1,0,0:0:0:0:
104,208,40311,5,8,0:0:0:0:
376,208,40546,1,0,0:0:0:0:
144,136,40780,5,0,0:0:0:0:
424,136,41014,1,0,0:0:0:0:
216,104,41249,1,8,0:0:0:0:
32,208,41483,5,0,0:0:0:0:
56,232,41600,1,0,0:0:0:0:
88,248,41718,1,0,0:0:0:0:
119,259,41835,1,0,0:0:0:0:
152,268,41952,1,0,0:0:0:0:
185,275,42069,1,0,0:0:0:0:
218,279,42186,1,8,0:0:0:0:
252,278,42303,1,0,0:0:0:0:
285,273,42421,1,0,0:0:0:0:
316,259,42538,1,0,0:0:0:0:
341,237,42655,5,0,0:0:0:0:
352,206,42772,1,0,0:0:0:0:
341,175,42889,1,0,0:0:0:0:
312,159,43007,1,0,0:0:0:0:
281,171,43124,1,8,0:0:0:0:
272,202,43241,1,0,0:0:0:0:
283,234,43358,1,0,0:0:0:0:
305,259,43475,1,0,0:0:0:0:
334,277,43593,5,0,0:0:0:0:
367,282,43710,1,0,0:0:0:0:
395,265,43827,1,0,0:0:0:0:
402,233,43944,1,0,0:0:0:0:
398,200,44061,1,8,0:0:0:0:
376,176,44178,1,0,0:0:0:0:
344,152,44296,1,0,0:0:0:0:
312,144,44413,1,0,0:0:0:0:
280,160,44530,1,0,0:0:0:0:
72,56,45468,6,0,P|88:144|136:192,1,134.999995231628
272,328,45936,1,8,0:0:0:0:
432,176,46171,2,0,P|408:112|352:72,1,134.999995231628
216,160,46639,1,0,0:0:0:0:
216,160,46757,1,0,0:0:0:0:
216,160,46874,1,8,0:0:0:0:
64,88,47108,5,0,0:0:0:0:
64,88,47225,1,0,0:0:0:0:
64,88,47343,2,0,L|64:232,1,134.999995231628
248,144,47811,1,8,0:0:0:0:
168,320,48046,2,0,P|248:344|304:312,1,134.999995231628
424,184,48514,1,0,0:0:0:0:
232,216,48749,2,8,B|120:128|120:128,1,134.999995231628,8|0,0:0|0:0,0:0:0:0:
96,64,49100,1,0,0:0:0:0:
168,64,49218,6,0,P|248:96|320:64,1,134.999995231628
456,48,49686,1,8,0:0:0:0:
456,208,49921,1,0,0:0:0:0:
328,328,50155,6,0,P|264:320|176:272,1,134.999995231628
24,256,50624,1,8,0:0:0:0:
24,256,50741,2,0,L|24:328,2,67.4999976158142
26,258,51093,2,0,L|153:194,1,134.999995231628
464,256,51561,2,0,L|336:192,1,134.999995231628,8|0,0:0|0:0,0:0:0:0:
248,328,52030,5,0,0:0:0:0:
248,104,52264,1,0,0:0:0:0:
248,104,52499,2,0,L|176:104,3,67.4999976158142,8|0|0|0,0:0|0:0|0:0|0:0,0:0:0:0:
320,104,52968,1,4,0:0:0:0:
437,291,53202,6,0,L|325:203,1,134.999995231628,0|8,0:0|0:0,0:0:0:0:
232,296,53671,1,0,0:0:0:0:
24,296,53905,2,0,L|144:208,1,134.999995231628
132,216,54374,1,8,0:0:0:0:
280,296,54608,2,0,L|352:296,2,67.4999976158142
456,112,55077,6,8,P|384:128|328:184,1,134.999995231628,0|8,0:0|0:0,0:0:0:0:
32,160,55546,1,0,0:0:0:0:
248,320,55780,2,0,L|248:184,1,134.999995231628
248,185,56132,1,0,0:0:0:0:
248,185,56249,1,8,0:0:0:0:
452,54,56483,6,0,L|368:160,1,134.999995231628
448,320,56952,1,0,0:0:0:0:
248,50,57186,2,8,L|248:186,1,134.999995231628,8|0,0:0|0:0,0:0:0:0:
48,320,57655,1,0,0:0:0:0:
40,56,57889,2,0,L|160:200,1,134.999995231628,0|8,0:0|0:0,0:0:0:0:
256,344,58358,2,0,L|256:264,2,67.4999976158142
40,152,58827,6,0,L|157:85,1,134.999995231628,0|8,0:0|0:0,0:0:0:0:
256,344,59296,1,0,0:0:0:0:
353,86,59530,2,0,L|472:152,1,134.999995231628
112,264,59999,1,8,0:0:0:0:
112,264,60116,1,0,0:0:0:0:
112,264,60233,2,0,L|160:312,2,67.4999976158142
440,152,60702,6,0,P|376:64|344:72,1,134.999995231628,0|8,0:0|0:0,0:0:0:0:
256,304,61171,1,0,0:0:0:0:
64,136,61405,2,0,P|88:76|152:64,1,134.999995231628,0|0,0:0|0:0,0:0:0:0:
91,304,61874,2,0,L|24:304,2,67.4999976158142,8|0|0,0:0|0:0|0:0,0:0:0:0:
420,304,62343,6,0,L|488:304,2,67.4999976158142
64,136,62811,1,8,0:0:0:0:
64,136,63046,2,0,P|136:184|192:184,1,134.999995231628
464,168,63514,1,0,0:0:0:0:
256,272,63749,2,0,L|256:339,2,67.4999976158142,8|0|0,0:0|0:0|0:0,0:0:0:0:
256,96,64218,2,0,L|256:28,2,67.4999976158142
80,64,64686,5,8,0:0:0:0:
256,144,64921,1,0,0:0:0:0:
432,64,65155,2,0,P|336:96|304:160,1,134.999995231628
216,248,65624,2,0,L|288:248,2,67.4999976158142,8|0|0,0:0|0:0|0:0,0:0:0:0:
80,64,66093,2,0,P|152:160|160:184,1,134.999995231628,2|0,0:0|0:0,0:0:0:0:
158,174,66444,2,0,P|152:256|159:324,1,134.999995231628,2|0,0:0|0:0,0:0:0:0:
157,308,66796,2,0,L|244:170|244:170,1,134.999995231628,2|0,0:0|0:0,0:0:0:0:
264,120,67264,6,2,L|264:52,2,67.4999976158142,2|2|8,0:0|0:0|0:0,0:0:0:0:
264,256,67616,2,2,L|264:325,2,67.4999976158142
264,256,67968,5,0,0:0:0:0:
72,328,68202,2,0,P|128:288|152:224,1,134.999995231628,0|8,0:0|0:0,0:0:0:0:
144,56,68671,2,0,P|88:96|64:160,1,134.999995231628,0|0,0:0|0:0,0:0:0:0:
152,296,69139,2,2,L|215:272,2,67.4999976158142,2|2|8,0:0|0:0|0:0,0:0:0:0:
264,208,69491,2,2,L|199:181,2,67.4999976158142
376,208,69843,6,0,L|376:64,1,134.999995231628
96,144,70311,2,0,L|96:280,1,134.999995231628,8|0,0:0|0:0,0:0:0:0:
224,280,70780,2,0,L|296:280,2,67.4999976158142,0|0|0,0:0|0:0|0:0,0:0:0:0:
32,216,71249,1,8,0:0:0:0:
224,160,71483,2,0,L|360:200,1,134.999995231628
64,144,71952,5,0,0:0:0:0:
464,56,72186,1,8,0:0:0:0:
216,80,72421,2,0,P|296:128|296:200,1,134.999995231628
304,336,72889,2,0,P|200:320|176:288,1,134.999995231628,0|8,0:0|0:0,0:0:0:0:
128,120,73358,6,0,L|56:104,1,67.4999976158142
56,160,73593,2,0,L|56:296,1,134.999995231628,2|0,0:0|0:0,0:0:0:0:
120,288,73944,2,0,L|224:192,1,134.999995231628,2|0,0:0|0:0,0:0:0:0:
288,200,74296,2,0,L|387:291,1,134.999995231628,2|0,0:0|0:0,0:0:0:0:
400,144,74764,5,0,0:0:0:0:
400,144,74999,1,0,0:0:0:0:
400,144,75233,1,0,0:0:0:0:
400,40,75468,1,4,0:0:0:0:
184,64,75702,5,0,0:0:0:0:
312,200,75936,1,8,0:0:0:0:
128,168,76171,1,0,0:0:0:0:
304,80,76405,1,0,0:0:0:0:
208,248,76639,1,0,0:0:0:0:
400,256,76874,6,2,L|464:296,4,67.4999976158142
144,232,77577,1,0,0:0:0:0:
304,232,77811,1,8,0:0:0:0:
144,80,78046,1,0,0:0:0:0:
88,256,78280,6,2,P|184:304|224:296,3,134.999995231628
424,208,79218,1,0,0:0:0:0:
424,208,79335,1,0,0:0:0:0:
424,208,79452,1,0,0:0:0:0:
256,56,79686,5,8,0:0:0:0:
323,320,80038,2,2,L|256:320,1,67.4999976158142
192,192,80389,1,0,0:0:0:0:
424,208,80624,5,8,0:0:0:0:
256,56,80858,1,0,0:0:0:0:
40,112,81093,1,0,0:0:0:0:
256,56,81327,5,0,0:0:0:0:
88,200,81561,1,8,0:0:0:0:
256,336,81796,1,0,0:0:0:0:
88,200,82030,5,0,0:0:0:0:
256,56,82264,1,0,0:0:0:0:
424,208,82499,1,8,0:0:0:0:
224,264,82733,1,0,0:0:0:0:
104,96,82968,5,0,0:0:0:0:
280,152,83202,1,0,0:0:0:0:
456,96,83436,1,8,0:0:0:0:
280,32,83671,1,0,0:0:0:0:
104,96,83905,1,0,0:0:0:0:
40,272,84139,1,0,0:0:0:0:
200,176,84374,5,8,0:0:0:0:
214,149,84491,2,0,L|246:85,2,67.4999976158142,2|2|0,0:0|0:0|0:0,0:0:0:0:
200,176,84843,1,0,0:0:0:0:
232,336,85077,6,0,P|320:352|360:296,1,134.999995231628,0|8,0:0|0:0,0:0:0:0:
472,152,85546,1,0,0:0:0:0:
264,208,85780,2,2,P|328:136|344:64,1,134.999995231628
168,32,86249,2,2,P|120:72|80:136,1,134.999995231628,8|2,0:0|0:0,0:0:0:0:
64,312,86718,5,0,0:0:0:0:
240,272,86952,1,0,0:0:0:0:
376,144,87186,1,8,0:0:0:0:
216,40,87421,2,0,P|160:80|136:176,1,134.999995231628
128,312,87889,2,0,L|232:216,1,134.999995231628,0|8,0:0|0:0,0:0:0:0:
256,192,88241,5,0,0:0:0:0:
281,173,88358,1,0,0:0:0:0:
311,162,88475,1,0,0:0:0:0:
343,160,88593,1,0,0:0:0:0:
374,167,88710,1,0,0:0:0:0:
401,184,88827,1,0,0:0:0:0:
419,210,88944,1,0,0:0:0:0:
425,241,89061,1,8,0:0:0:0:
415,271,89178,5,0,0:0:0:0:
393,293,89296,1,0,0:0:0:0:
365,307,89413,1,0,0:0:0:0:
334,315,89530,1,0,0:0:0:0:
302,319,89647,1,0,0:0:0:0:
270,320,89764,1,0,0:0:0:0:
239,318,89882,1,0,0:0:0:0:
207,314,89999,1,8,0:0:0:0:
175,309,90116,1,0,0:0:0:0:
144,302,90233,1,0,0:0:0:0:
114,293,90350,1,0,0:0:0:0:
72,280,90468,6,0,L|72:136,1,134.999995231628
72,145,90936,1,8,0:0:0:0:
240,48,91171,1,0,0:0:0:0:
400,144,91405,1,0,0:0:0:0:
240,48,91639,1,0,0:0:0:0:
240,232,91874,6,0,L|240:312,4,67.4999976158142,8|2|2|2|2,0:0|0:0|0:0|0:0|0:0,0:0:0:0:
240,48,92577,1,0,0:0:0:0:
144,192,92811,1,8,0:0:0:0:
240,48,93046,1,0,0:0:0:0:
336,192,93280,2,2,L|336:48,2,134.999995231628,0|0|8,0:0|0:0|0:0,0:0:0:0:
352,328,93983,2,2,L|192:328,1,134.999995231628
192,80,94452,5,0,0:0:0:0:
192,288,94686,1,8,0:0:0:0:
72,184,94921,1,0,0:0:0:0:
192,288,95155,1,0,0:0:0:0:
192,288,95272,2,0,L|240:216,1,67.4999976158142,0|0,0:0|0:0,0:0:0:0:
336,48,95624,5,8,0:0:0:0:
464,192,95858,1,0,0:0:0:0:
336,112,96093,1,0,0:0:0:0:
336,264,96327,1,0,0:0:0:0:
256,56,96561,1,8,0:0:0:0:
256,312,96796,1,0,0:0:0:0:
176,112,97030,1,0,0:0:0:0:
176,264,97264,1,0,0:0:0:0:
48,192,97499,1,8,0:0:0:0:
256,312,97733,1,0,0:0:0:0:
256,56,97968,5,0,0:0:0:0:
120,152,98202,1,0,0:0:0:0:
392,152,98436,1,8,0:0:0:0:
184,312,98671,1,0,0:0:0:0:
256,56,98905,1,0,0:0:0:0:
328,312,99139,1,0,0:0:0:0:
256,224,99374,2,0,L|256:144,3,67.4999976158142,8|2|2|2,0:0|0:0|0:0|0:0,0:0:0:0:
256,156,99843,5,0,0:0:0:0:
256,336,100077,1,0,0:0:0:0:
408,176,100311,1,8,0:0:0:0:
104,176,100546,1,0,0:0:0:0:
256,336,100780,2,2,P|344:272|352:208,1,134.999995231628
416,48,101249,2,2,P|312:72|280:88,1,134.999995231628,8|2,0:0|0:0,0:0:0:0:
72,176,101718,5,0,0:0:0:0:
184,296,101952,1,0,0:0:0:0:
336,296,102186,1,8,0:0:0:0:
456,176,102421,2,0,L|376:176,1,67.4999976158142
388,176,102655,1,0,0:0:0:0:
352,32,102889,1,0,0:0:0:0:
200,32,103124,5,8,0:0:0:0:
161,44,103241,1,0,0:0:0:0:
124,60,103358,1,0,0:0:0:0:
90,82,103475,1,0,0:0:0:0:
61,110,103593,1,0,0:0:0:0:
43,146,103710,1,0,0:0:0:0:
40,186,103827,1,0,0:0:0:0:
55,223,103944,1,0,0:0:0:0:
82,253,104061,5,8,0:0:0:0:
116,275,104178,1,0,0:0:0:0:
153,291,104296,1,0,0:0:0:0:
193,301,104413,1,0,0:0:0:0:
233,305,104530,1,0,0:0:0:0:
273,305,104647,1,0,0:0:0:0:
313,299,104764,1,0,0:0:0:0:
352,288,104882,1,0,0:0:0:0:
389,270,104999,5,8,0:0:0:0:
421,246,105116,1,0,0:0:0:0:
448,216,105233,1,0,0:0:0:0:
466,180,105350,1,0,0:0:0:0:
477,141,105468,5,4,0:0:0:0:
256,104,120702,5,0,0:0:0:0:
176,240,120936,1,8,0:0:0:0:
344,240,121171,1,0,0:0:0:0:
352,192,121639,5,0,0:0:0:0:
176,112,121874,1,8,0:0:0:0:
176,272,122108,1,0,0:0:0:0:
256,280,122577,5,0,0:0:0:0:
336,136,122811,1,8,0:0:0:0:
176,136,123046,1,0,0:0:0:0:
176,192,123514,5,0,0:0:0:0:
336,288,123749,1,8,0:0:0:0:
336,104,123983,1,0,0:0:0:0:
336,192,124452,5,0,0:0:0:0:
256,24,124686,1,8,0:0:0:0:
176,192,124921,1,0,0:0:0:0:
256,360,125389,5,0,0:0:0:0:
336,192,125624,1,8,0:0:0:0:
176,192,125858,1,0,0:0:0:0:
96,360,126327,5,0,0:0:0:0:
176,192,126561,1,8,0:0:0:0:
256,360,126796,1,0,0:0:0:0:
256,32,127264,5,0,0:0:0:0:
416,32,127499,1,8,0:0:0:0:
336,192,127733,1,0,0:0:0:0:
160,88,127968,5,0,0:0:0:0:
160,304,128202,1,0,0:0:0:0:
160,88,128436,1,8,0:0:0:0:
320,176,128671,1,0,0:0:0:0:
112,112,128905,5,0,0:0:0:0:
232,296,129139,1,0,0:0:0:0:
248,64,129374,1,8,0:0:0:0:
112,240,129608,1,0,0:0:0:0:
352,152,129843,1,0,0:0:0:0:
112,80,130077,1,0,0:0:0:0:
352,0,130311,1,8,0:0:0:0:
352,152,130546,1,0,0:0:0:0:
112,80,130780,5,0,0:0:0:0:
112,240,131014,1,0,0:0:0:0:
352,152,131249,1,8,0:0:0:0:
112,80,131483,1,0,0:0:0:0:
0,24,131718,5,0,0:0:0:0:
0,74,131835,1,0,0:0:0:0:
0,125,131952,1,0,0:0:0:0:
2,175,132069,1,0,0:0:0:0:
8,226,132186,1,8,0:0:0:0:
25,273,132303,1,0,0:0:0:0:
67,296,132421,1,0,0:0:0:0:
112,274,132538,1,0,0:0:0:0:
143,234,132655,5,0,0:0:0:0:
166,189,132772,1,0,0:0:0:0:
184,142,132889,1,0,0:0:0:0:
203,95,133007,1,0,0:0:0:0:
231,53,133124,1,8,0:0:0:0:
277,35,133241,1,0,0:0:0:0:
324,53,133358,1,0,0:0:0:0:
360,88,133475,1,0,0:0:0:0:
388,130,133593,5,0,0:0:0:0:
400,184,133710,1,0,0:0:0:0:
384,232,133827,1,0,0:0:0:0:
344,264,133944,1,0,0:0:0:0:
296,288,134061,1,8,0:0:0:0:
248,304,134178,1,0,0:0:0:0:
200,312,134296,1,0,0:0:0:0:
152,296,134413,1,0,0:0:0:0:
112,264,134530,5,8,0:0:0:0:
104,88,134764,1,8,0:0:0:0:
256,192,134999,2,0,L|304:144,2,67.4999976158142
256,192,135468,5,0,0:0:0:0:
128,56,135702,2,0,B|48:112|48:112|48:256|48:256|48:336|48:336,1,269.999990463257
160,176,136405,1,8,0:0:0:0:
336,88,136639,1,0,0:0:0:0:
208,264,136874,6,0,L|184:192,4,67.4999976158142
248,64,137577,1,0,0:0:0:0:
24,160,137811,2,0,P|120:240|272:224,1,269.999990463257,0|8,0:0|0:0,0:0:0:0:
384,64,138514,1,0,0:0:0:0:
384,304,138749,6,0,L|264:232,1,134.999995231628
384,304,139218,1,0,0:0:0:0:
384,304,139452,1,0,0:0:0:0:
64,80,139686,1,0,0:0:0:0:
64,80,139921,2,0,P|144:136|144:168,2,134.999995231628,0|8|0,0:0|0:0|0:0,0:0:0:0:
264,80,140624,5,0,0:0:0:0:
264,296,140858,1,0,0:0:0:0:
472,296,141093,2,0,L|384:184,1,134.999995231628,2|0,0:0|0:0,0:0:0:0:
386,189,141444,2,0,L|263:264,1,134.999995231628,2|0,0:0|0:0,0:0:0:0:
271,259,141796,2,0,L|160:160,1,134.999995231628,2|8,0:0|0:0,0:0:0:0:
171,169,142264,1,0,0:0:0:0:
168,336,142499,6,0,P|80:280|80:232,1,134.999995231628
76,125,142968,2,0,P|105:66|168:48,1,134.999995231628,4|0,0:0|0:0,0:0:0:0:
392,96,143436,1,0,0:0:0:0:
392,304,143671,1,0,0:0:0:0:
136,96,143905,5,8,0:0:0:0:
72,304,144139,2,0,P|50:329|24:351,2,67.4999976158142,0|0|0,0:0|0:0|0:0,0:0:0:0:
232,128,144608,1,0,0:0:0:0:
72,304,144843,5,0,0:0:0:0:
296,264,145077,2,0,B|334:211|334:211|248:184,1,134.999995231628
32,128,145546,1,0,0:0:0:0:
232,128,145780,2,2,L|160:48,2,67.4999976158142,8|2|2,0:0|0:0|0:0,0:0:0:0:
256,320,146249,2,0,P|336:320|364:264,1,134.999995231628
432,112,146718,5,0,0:0:0:0:
248,232,146952,2,0,L|128:312,1,134.999995231628
352,320,147421,2,0,L|240:224,1,134.999995231628,0|8,0:0|0:0,0:0:0:0:
104,64,147889,1,0,0:0:0:0:
432,144,148124,6,0,L|432:224,2,67.4999976158142
308,61,148593,2,0,L|196:149,1,134.999995231628,2|0,0:0|0:0,0:0:0:0:
202,144,148944,2,0,L|310:230,1,134.999995231628,2|0,0:0|0:0,0:0:0:0:
307,228,149296,2,0,L|193:314,1,134.999995231628,2|8,0:0|0:0,0:0:0:0:
88,64,149764,5,0,0:0:0:0:
88,64,149999,1,8,0:0:0:0:
88,280,150233,1,8,0:0:0:0:
88,280,150468,2,0,P|152:296|256:272,1,134.999995231628
400,248,150936,1,0,0:0:0:0:
392,64,151171,2,2,L|459:64,2,67.4999976158142,2|2|8,0:0|0:0|0:0,0:0:0:0:
320,176,151639,2,2,L|400:176,2,67.4999976158142
56,120,152108,5,0,0:0:0:0:
56,120,152343,2,0,P|128:80|104:48,1,134.999995231628,0|0,0:0|0:0,0:0:0:0:
464,312,152811,2,0,P|392:272|416:240,1,134.999995231628,0|0,0:0|0:0,0:0:0:0:
192,264,153280,1,8,0:0:0:0:
192,264,153514,2,0,L|128:136,1,134.999995231628
192,264,153983,2,0,L|312:192,1,134.999995231628
64,72,154452,5,0,0:0:0:0:
192,264,154686,1,0,0:0:0:0:
376,152,154921,2,0,L|440:112,2,67.4999976158142,0|0|8,0:0|0:0|0:0,0:0:0:0:
192,264,155389,1,0,0:0:0:0:
64,72,155624,1,0,0:0:0:0:
256,72,155858,5,0,0:0:0:0:
256,344,156093,2,0,L|344:224,1,134.999995231628,2|0,0:0|0:0,0:0:0:0:
336,235,156444,2,0,L|193:208,1,134.999995231628,2|0,0:0|0:0,0:0:0:0:
203,210,156796,2,0,L|304:104,1,134.999995231628,2|8,0:0|0:0,0:0:0:0:
328,72,157264,1,0,0:0:0:0:
456,192,157499,5,8,0:0:0:0:
328,320,157733,1,8,0:0:0:0:
208,192,157968,2,0,B|232:160|192:136|256:56,1,134.999995231628
64,192,158436,5,0,0:0:0:0:
321,182,158671,2,0,L|321:102,2,67.4999976158142,0|0|8,0:0|0:0|0:0,0:0:0:0:
184,96,159139,2,0,L|184:24,2,67.4999976158142,0|0|2,0:0|0:0|0:0,0:0:0:0:
448,184,159608,1,0,0:0:0:0:
184,280,159843,5,0,0:0:0:0:
32,40,160077,2,0,P|64:112|160:96,1,134.999995231628
368,72,160546,1,0,0:0:0:0:
288,320,160780,1,8,0:0:0:0:
80,256,161014,2,0,P|16:192|16:144,2,134.999995231628,0|0|0,0:0|0:0|0:0,0:0:0:0:
288,296,161718,5,0,0:0:0:0:
456,184,161952,2,0,L|344:88,1,134.999995231628
256,248,162421,2,0,L|256:328,2,67.4999976158142,0|0|8,0:0|0:0|0:0,0:0:0:0:
384,272,162889,2,0,P|376:200|304:144,1,134.999995231628
192,248,163358,1,0,0:0:0:0:
40,160,163593,5,8,0:0:0:0:
72,120,163710,1,0,0:0:0:0:
120,96,163827,1,0,0:0:0:0:
168,80,163944,1,8,0:0:0:0:
224,80,164061,1,0,0:0:0:0:
272,96,164178,1,0,0:0:0:0:
320,120,164296,1,8,0:0:0:0:
360,152,164413,1,0,0:0:0:0:
384,200,164530,6,0,L|256:288,1,134.999995231628
259,286,164999,1,0,0:0:0:0:
259,286,165233,1,0,0:0:0:0:
128,240,165468,5,4,0:0:0:0:
352,112,165702,1,0,0:0:0:0:
120,160,165936,1,8,0:0:0:0:
360,192,166171,1,0,0:0:0:0:
168,96,166405,1,0,0:0:0:0:
328,264,166639,1,0,0:0:0:0:
328,96,166874,6,0,L|400:80,4,67.4999976158142,8|2|2|2|2,0:0|0:0|0:0|0:0|0:0,0:0:0:0:
256,248,167577,1,0,0:0:0:0:
168,96,167811,1,8,0:0:0:0:
304,192,168046,1,0,0:0:0:0:
120,152,168280,2,2,L|120:296,3,134.999995231628,2|2|10|0,0:0|0:0|0:0|0:0,0:0:0:0:
256,328,169218,5,0,0:0:0:0:
256,192,169452,1,0,0:0:0:0:
376,80,169686,1,8,0:0:0:0:
464,192,169921,2,0,L|376:192,1,67.4999976158142
296,96,170389,5,0,0:0:0:0:
440,0,170624,1,8,0:0:0:0:
456,48,170741,1,0,0:0:0:0:
459,99,170858,1,0,0:0:0:0:
427,138,170975,1,0,0:0:0:0:
377,149,171093,1,0,0:0:0:0:
326,148,171210,1,0,0:0:0:0:
275,141,171327,1,0,0:0:0:0:
224,133,171444,5,0,0:0:0:0:
173,127,171561,1,8,0:0:0:0:
121,127,171678,1,0,0:0:0:0:
71,137,171796,1,0,0:0:0:0:
31,169,171913,1,0,0:0:0:0:
20,218,172030,1,0,0:0:0:0:
42,263,172147,1,0,0:0:0:0:
86,288,172264,1,0,0:0:0:0:
137,292,172382,5,0,0:0:0:0:
184,264,172499,1,8,0:0:0:0:
216,224,172616,1,0,0:0:0:0:
240,176,172733,1,0,0:0:0:0:
272,136,172850,1,0,0:0:0:0:
312,112,172968,1,0,0:0:0:0:
456,320,173202,1,0,0:0:0:0:
304,184,173436,1,8,0:0:0:0:
456,48,173671,1,0,0:0:0:0:
152,48,173905,5,0,0:0:0:0:
304,184,174139,1,0,0:0:0:0:
152,320,174374,2,0,L|224:320,3,67.4999976158142,8|2|2|2,0:0|0:0|0:0|0:0,0:0:0:0:
152,320,174843,5,0,0:0:0:0:
24,184,175077,1,0,0:0:0:0:
152,48,175311,1,8,0:0:0:0:
24,184,175546,1,0,0:0:0:0:
264,48,175780,2,2,P|344:88|352:136,1,134.999995231628
352,257,176249,2,2,P|326:317|264:336,1,134.999995231628,8|2,0:0|0:0,0:0:0:0:
264,192,176718,5,0,0:0:0:0:
264,48,176952,1,0,0:0:0:0:
264,192,177186,1,8,0:0:0:0:
264,336,177421,1,0,0:0:0:0:
264,336,177538,2,0,L|328:304,1,67.4999976158142
336,128,177889,1,0,0:0:0:0:
184,32,178124,5,8,0:0:0:0:
142,61,178241,1,0,0:0:0:0:
114,102,178358,1,0,0:0:0:0:
116,151,178475,1,0,0:0:0:0:
154,184,178593,1,0,0:0:0:0:
203,196,178710,1,0,0:0:0:0:
253,195,178827,1,0,0:0:0:0:
303,187,178944,1,0,0:0:0:0:
352,174,179061,5,8,0:0:0:0:
401,161,179178,1,0,0:0:0:0:
451,152,179296,1,0,0:0:0:0:
499,163,179413,1,0,0:0:0:0:
512,207,179530,1,0,0:0:0:0:
496,252,179647,1,0,0:0:0:0:
454,279,179764,1,0,0:0:0:0:
404,287,179882,1,0,0:0:0:0:
355,277,179999,5,8,0:0:0:0:
313,249,180116,1,0,0:0:0:0:
299,202,180233,1,0,0:0:0:0:
321,156,180350,1,0,0:0:0:0:
368,160,180468,1,0,0:0:0:0:
440,288,180702,1,0,0:0:0:0:
256,288,180936,1,8,0:0:0:0:
72,288,181171,1,0,0:0:0:0:
256,288,181405,5,0,0:0:0:0:
256,128,181639,1,0,0:0:0:0:
88,64,181874,2,0,L|40:8,2,67.4999976158142,8|2|2,0:0|0:0|0:0,0:0:0:0:
168,192,182343,1,0,0:0:0:0:
256,336,182577,1,0,0:0:0:0:
400,336,182811,5,8,0:0:0:0:
488,192,183046,1,0,0:0:0:0:
427,37,183280,2,2,L|315:141,3,134.999995231628,2|2|10|2,0:0|0:0|0:0|0:0,0:0:0:0:
208,224,184218,5,0,0:0:0:0:
88,320,184452,1,0,0:0:0:0:
208,224,184686,1,8,0:0:0:0:
389,203,184921,2,0,L|368:272,1,67.4999976158142
369,267,185155,1,0,0:0:0:0:
200,288,185389,1,0,0:0:0:0:
32,240,185624,5,8,0:0:0:0:
48,204,185741,1,0,0:0:0:0:
68,171,185858,1,0,0:0:0:0:
92,141,185975,1,0,0:0:0:0:
121,115,186093,1,0,0:0:0:0:
153,93,186210,1,0,0:0:0:0:
189,77,186327,1,0,0:0:0:0:
226,67,186444,5,0,0:0:0:0:
264,63,186561,1,8,0:0:0:0:
303,66,186678,1,0,0:0:0:0:
340,78,186796,1,0,0:0:0:0:
372,100,186913,1,0,0:0:0:0:
397,130,187030,1,0,0:0:0:0:
413,165,187147,1,0,0:0:0:0:
419,203,187264,1,0,0:0:0:0:
414,241,187382,5,0,0:0:0:0:
397,276,187499,1,8,0:0:0:0:
364,296,187616,1,0,0:0:0:0:
326,295,187733,1,0,0:0:0:0:
291,278,187850,1,0,0:0:0:0:
261,254,187968,1,0,0:0:0:0:
72,280,188202,5,0,0:0:0:0:
224,280,188436,1,8,0:0:0:0:
72,208,188671,1,0,0:0:0:0:
224,208,188905,1,0,0:0:0:0:
72,136,189139,1,0,0:0:0:0:
224,136,189374,2,0,L|304:136,3,67.4999976158142,8|2|2|2,0:0|0:0|0:0|0:0,0:0:0:0:
448,136,189843,5,0,0:0:0:0:
296,136,190077,1,0,0:0:0:0:
448,208,190311,1,8,0:0:0:0:
296,208,190546,1,0,0:0:0:0:
448,280,190780,2,2,L|304:280,3,134.999995231628,2|2|10|2,0:0|0:0|0:0|0:0,0:0:0:0:
80,304,191718,5,0,0:0:0:0:
80,176,191952,1,0,0:0:0:0:
80,48,192186,1,8,0:0:0:0:
80,176,192421,1,0,0:0:0:0:
256,240,192655,1,0,0:0:0:0:
344,48,192889,1,0,0:0:0:0:
128,64,193124,5,8,0:0:0:0:
140,107,193241,1,0,0:0:0:0:
164,146,193358,1,0,0:0:0:0:
203,167,193475,1,0,0:0:0:0:
249,166,193593,1,0,0:0:0:0:
292,152,193710,1,0,0:0:0:0:
335,137,193827,1,0,0:0:0:0:
379,126,193944,1,0,0:0:0:0:
424,131,194061,5,0,0:0:0:0:
450,166,194178,1,0,0:0:0:0:
447,211,194296,1,0,0:0:0:0:
425,251,194413,1,0,0:0:0:0:
392,281,194530,1,0,0:0:0:0:
350,300,194647,1,0,0:0:0:0:
305,305,194764,1,0,0:0:0:0:
261,296,194882,1,0,0:0:0:0:
220,276,194999,5,0,0:0:0:0:
183,249,195116,1,0,0:0:0:0:
151,216,195233,1,0,0:0:0:0:
122,181,195350,1,0,0:0:0:0:
96,144,195468,1,4,0:0:0:0:
64,200,195936,5,8,0:0:0:0:
248,112,196171,1,0,0:0:0:0:
432,200,196405,1,0,0:0:0:0:
248,112,196639,1,0,0:0:0:0:
64,200,196874,1,8,0:0:0:0:
248,112,197108,5,0,0:0:0:0:
248,296,197343,1,0,0:0:0:0:
432,200,197577,1,0,0:0:0:0:
248,112,197811,1,8,0:0:0:0:
376,112,198046,2,0,L|352:184,1,67.4999976158142
354,176,198280,5,0,0:0:0:0:
376,304,198514,1,0,0:0:0:0:
136,304,198749,1,8,0:0:0:0:
136,112,198983,1,0,0:0:0:0:
376,112,199218,1,4,0:0:0:0:
256,208,199452,5,0,0:0:0:0:
136,112,199686,1,8,0:0:0:0:
256,208,199921,1,0,0:0:0:0:
136,304,200155,1,0,0:0:0:0:
256,208,200389,1,0,0:0:0:0:
376,304,200624,1,8,0:0:0:0:
256,208,200858,1,0,0:0:0:0:
376,112,201093,5,0,0:0:0:0:
256,208,201327,1,0,0:0:0:0:
136,112,201561,1,8,0:0:0:0:
256,208,201796,1,0,0:0:0:0:
136,304,202030,1,0,0:0:0:0:
256,208,202264,1,0,0:0:0:0:
376,304,202499,1,8,0:0:0:0:
256,208,202733,1,0,0:0:0:0:
104,200,202968,5,0,0:0:0:0:
152,72,203202,1,0,0:0:0:0:
352,72,203436,1,8,0:0:0:0:
152,136,203671,1,0,0:0:0:0:
352,136,203905,1,0,0:0:0:0:
152,200,204139,1,0,0:0:0:0:
352,200,204374,1,8,0:0:0:0:
152,264,204608,1,0,0:0:0:0:
352,264,204843,5,0,0:0:0:0:
256,248,205077,2,0,L|256:168,1,67.4999976158142
256,180,205311,1,8,0:0:0:0:
256,112,205546,1,0,0:0:0:0:
256,280,205780,5,0,0:0:0:0:
256,112,206014,1,0,0:0:0:0:
256,280,206249,1,8,0:0:0:0:
328,112,206483,1,0,0:0:0:0:
256,280,206718,5,0,0:0:0:0:
192,112,206952,1,0,0:0:0:0:
256,280,207186,1,8,0:0:0:0:
64,216,207421,1,0,0:0:0:0:
120,40,207655,5,0,0:0:0:0:
392,40,207889,1,0,0:0:0:0:
392,280,208124,1,8,0:0:0:0:
256,160,208358,1,0,0:0:0:0:
40,40,208593,5,0,0:0:0:0:
48,98,208710,1,0,0:0:0:0:
69,153,208827,1,0,0:0:0:0:
103,201,208944,1,0,0:0:0:0:
148,239,209061,1,8,0:0:0:0:
200,268,209178,1,0,0:0:0:0:
256,285,209296,1,0,0:0:0:0:
315,292,209413,1,0,0:0:0:0:
373,284,209530,5,0,0:0:0:0:
424,256,209647,1,0,0:0:0:0:
450,204,209764,1,0,0:0:0:0:
434,149,209882,1,0,0:0:0:0:
390,111,209999,1,8,0:0:0:0:
333,93,210116,1,0,0:0:0:0:
275,89,210233,1,0,0:0:0:0:
216,95,210350,1,0,0:0:0:0:
158,108,210468,5,4,0:0:0:0:
