osu file format v13

[General]
AudioFilename: Traktion - Ultimatum [Fire Dance Ultimatum].mp3
AudioLeadIn: 0
PreviewTime: 73594
Countdown: 0
SampleSet: Soft
StackLeniency: 0.8
Mode: 0
LetterboxInBreaks: 1
StoryFireInFront: 0
WidescreenStoryboard: 1

[Editor]
DistanceSpacing: 1
BeatDivisor: 4
GridSize: 8
TimelineZoom: 1.599997

[Metadata]
Title:Ultimatum [Fire Dance/Ultimatum]
TitleUnicode:Ultimatum [Fire Dance/Ultimatum]
Artist:Traktion
ArtistUnicode:Traktion
Creator:TheForgotten5
Version:Hard
Source:
Tags:dnb drum and bass electronic
BeatmapID:400076
BeatmapSetID:163687

[Difficulty]
HPDrainRate:6
CircleSize:4
OverallDifficulty:6
ApproachRate:8
SliderMultiplier:1.99999990463257
SliderTickRate:2

[Events]
//Background and Video events
0,0,"futuristic-metropolis-23274-1920x1080.jpg",0,0
//Break Periods
2,30668,37218
2,105668,119718
//Storyboard Layer 0 (Background)
//Storyboard Layer 1 (Fail)
//Storyboard Layer 2 (Pass)
//Storyboard Layer 3 (Foreground)
//Storyboard Sound Samples
//Background Colour Transformations
3,100,163,162,255

[TimingPoints]
468,468.75,4,2,0,60,1,0
45468,-100,4,2,0,60,0,1
75468,-100,4,2,0,60,0,0
103593,-100,4,2,0,60,0,0
103827,-100,4,2,0,60,0,0
104178,-100,4,2,0,50,0,0
104647,-100,4,2,0,40,0,0
105116,-100,4,2,0,30,0,0
105350,-100,4,2,0,60,0,0
165468,-100,4,2,0,60,0,1
193710,-100,4,2,0,60,0,1
193944,-100,4,2,0,50,0,1
194413,-100,4,2,0,40,0,1
194647,-100,4,2,0,30,0,1
194882,-100,4,2,0,60,0,1
195468,-100,4,2,0,60,0,0

[Colours]
Combo1 : 255,128,64
Combo2 : 0,255,255
Combo3 : 255,128,255
Combo4 : 255,255,0
Combo5 : 0,255,0

[HitObjects]
88,200,15468,5,4,0:0:0:0:
136,128,15702,1,0,0:0:0:0:
184,200,15936,1,8,0:0:0:0:
240,272,16171,1,0,0:0:0:0:
296,200,16405,1,0,0:0:0:0:
296,200,16639,1,0,0:0:0:0:
352,272,16874,1,8,0:0:0:0:
424,200,17108,1,0,0:0:0:0:
400,104,17343,6,0,P|296:96|184:136,1,199.999990463257,0|8,0:0|0:0,0:0:0:0:
120,176,18046,2,0,L|136:232,1,49.9999976158143
232,336,18514,1,0,0:0:0:0:
232,232,18749,1,8,0:0:0:0:
320,280,18983,1,0,0:0:0:0:
408,208,19218,6,0,L|408:104,1,99.9999952316285
360,24,19686,1,8,0:0:0:0:
312,112,19921,2,8,L|312:208,1,49.9999976158143,0|0,0:0|0:0,0:0:0:0:
208,216,20389,1,0,0:0:0:0:
208,16,20624,1,8,0:0:0:0:
176,128,20858,1,0,0:0:0:0:
64,160,21093,6,0,P|48:216|72:264,1,99.9999952316285,0|0,0:0|0:0,0:0:0:0:
120,336,21561,1,8,0:0:0:0:
224,336,21796,1,0,0:0:0:0:
320,336,22030,1,0,0:0:0:0:
272,248,22264,1,0,0:0:0:0:
376,248,22499,1,8,0:0:0:0:
448,312,22733,1,0,0:0:0:0:
488,224,22968,6,0,L|424:136,1,99.9999952316285
328,144,23436,2,8,L|392:232,1,99.9999952316285,8|0,0:0|0:0,0:0:0:0:
288,224,23905,2,0,L|224:136,1,99.9999952316285
128,144,24374,2,8,L|192:232,1,99.9999952316285,8|0,0:0|0:0,0:0:0:0:
88,256,24843,1,0,0:0:0:0:
192,256,25077,6,0,L|248:256|272:256,1,49.9999976158143,0|0,0:0|0:0,0:0:0:0:
88,256,25546,1,0,0:0:0:0:
88,152,25780,1,0,0:0:0:0:
176,104,26014,1,0,0:0:0:0:
88,152,26249,1,8,0:0:0:0:
176,200,26483,1,0,0:0:0:0:
176,304,26718,6,0,P|256:336|280:320,1,99.9999952316285
352,296,27186,2,0,P|392:240|384:200,1,99.9999952316285,8|0,0:0|0:0,0:0:0:0:
304,160,27655,5,0,0:0:0:0:
304,60,27889,1,0,0:0:0:0:
304,60,28124,1,8,0:0:0:0:
304,160,28358,1,0,0:0:0:0:
304,268,28593,2,0,L|408:268,1,99.9999952316285
304,268,29061,2,0,L|204:268,1,99.9999952316285,8|0,0:0|0:0,0:0:0:0:
104,272,29530,2,0,L|8:200,2,99.9999952316285,0|0|8,0:0|0:0|0:0,0:0:0:0:
192,328,30233,1,0,0:0:0:0:
232,232,30468,5,4,0:0:0:0:
256,192,37968,12,0,44530,0:0:0:0:
72,64,45468,5,4,0:0:0:0:
192,64,45702,2,8,L|296:64,1,99.9999952316285,0|8,0:0|0:0,0:0:0:0:
392,64,46171,1,0,0:0:0:0:
464,136,46405,1,0,0:0:0:0:
416,224,46639,5,0,0:0:0:0:
312,224,46874,2,0,L|200:224,1,99.9999952316285,8|0,0:0|0:0,0:0:0:0:
112,224,47343,5,0,0:0:0:0:
112,224,47577,2,8,P|80:168|96:144,1,99.9999952316285,0|8,0:0|0:0,0:0:0:0:
168,72,48046,2,0,P|208:40|256:80,1,99.9999952316285
344,96,48514,2,0,B|392:96|392:96|400:96,2,49.9999976158143,2|2|8,0:0|0:0|0:0,0:0:0:0:
344,200,48983,1,0,0:0:0:0:
344,304,49218,5,0,0:0:0:0:
256,248,49452,2,8,L|256:352,1,99.9999952316285,0|8,0:0|0:0,0:0:0:0:
152,344,49921,2,0,L|152:240,1,99.9999952316285
152,144,50389,1,0,0:0:0:0:
256,144,50624,2,0,L|256:200,3,49.9999976158143,2|2|2|2,0:0|0:0|0:0|0:0,0:0:0:0:
256,192,51093,12,8,52499,0:0:0:0:
64,160,52733,5,0,0:0:0:0:
64,160,52850,1,0,0:0:0:0:
64,160,52968,2,0,L|120:248,1,99.9999952316285
168,328,53436,2,8,L|296:328,1,99.9999952316285,8|0,0:0|0:0,0:0:0:0:
264,224,53905,2,0,L|224:184,2,49.9999976158143
360,256,54374,2,0,L|328:312,2,49.9999976158143,8|0|0,0:0|0:0|0:0,0:0:0:0:
416,176,54843,6,0,L|328:112,1,99.9999952316285
232,120,55311,2,0,L|144:184,1,99.9999952316285,8|0,0:0|0:0,0:0:0:0:
152,280,55780,2,0,L|248:208,1,99.9999952316285
136,184,56249,2,0,L|88:224,2,49.9999976158143,8|0|0,0:0|0:0|0:0,0:0:0:0:
232,144,56718,6,0,P|280:88|312:104,1,99.9999952316285
392,96,57186,2,0,P|456:120|456:160,1,99.9999952316285,8|0,0:0|0:0,0:0:0:0:
384,208,57655,1,0,0:0:0:0:
288,208,57889,1,0,0:0:0:0:
288,312,58124,1,8,0:0:0:0:
384,312,58358,1,0,0:0:0:0:
384,216,58593,6,0,P|312:240|304:232,2,99.9999952316285,0|0|8,0:0|0:0|0:0,0:0:0:0:
320,136,59296,1,0,0:0:0:0:
224,136,59530,1,0,0:0:0:0:
224,40,59764,1,0,0:0:0:0:
320,40,59999,2,0,L|376:40,2,49.9999976158143,8|0|0,0:0|0:0|0:0,0:0:0:0:
320,136,60468,6,0,P|352:200|336:240,1,99.9999952316285
248,232,60936,2,0,P|216:184|224:144,1,99.9999952316285,8|0,0:0|0:0,0:0:0:0:
120,128,61405,2,0,L|120:72,2,49.9999976158143
120,232,61874,2,0,L|120:304,2,49.9999976158143,8|0|0,0:0|0:0|0:0,0:0:0:0:
112,104,62343,6,0,L|216:104,1,99.9999952316285
401,104,62811,2,0,L|292:104,1,99.9999952316285,8|0,0:0|0:0,0:0:0:0:
216,168,63280,2,0,L|272:168,2,49.9999976158143
392,168,63749,2,0,L|336:168,2,49.9999976158143,8|0|0,0:0|0:0|0:0,0:0:0:0:
256,168,64218,6,0,L|256:272,1,99.9999952316285
256,168,64686,2,8,L|152:168,1,99.9999952316285,8|0,0:0|0:0,0:0:0:0:
256,168,65155,2,0,L|256:64,2,99.9999952316285,0|0|8,0:0|0:0|0:0,0:0:0:0:
356,168,65858,2,0,L|256:168,1,99.9999952316285,0|0,0:0|0:0,0:0:0:0:
256,192,66151,12,4,67499,0:0:0:0:
80,248,67733,6,0,L|112:200,1,49.9999976158143
160,208,67968,2,0,P|205:242|221:290,1,99.9999952316285
320,280,68436,2,8,P|344:232|384:208,1,99.9999952316285,8|0,0:0|0:0,0:0:0:0:
384,112,68905,2,0,P|336:88|328:40,1,99.9999952316285
224,48,69374,2,8,P|216:88|160:112,1,99.9999952316285,8|0,0:0|0:0,0:0:0:0:
104,56,69843,5,0,0:0:0:0:
104,160,70077,1,0,0:0:0:0:
104,264,70311,1,8,0:0:0:0:
192,216,70546,1,0,0:0:0:0:
280,176,70780,1,0,0:0:0:0:
344,248,71014,6,0,L|369:201,1,49.9999976158143
367,203,71249,2,8,B|367:143|367:143|359:103|319:87,2,99.9999952316285,8|0|0,0:0|0:0|0:0,0:0:0:0:
299,156,71952,2,0,L|189:156,1,99.9999952316285,0|8,0:0|0:0,0:0:0:0:
104,120,72421,2,0,L|206:75,1,99.9999952316285
296,80,72889,1,0,0:0:0:0:
400,80,73124,6,0,L|400:136,2,49.9999976158143,8|2|2,0:0|0:0|0:0,0:0:0:0:
400,184,73593,2,0,L|296:158,1,99.9999952316285
264,192,73944,2,0,L|176:128,1,99.9999952316285
144,160,74296,2,0,L|144:272,1,99.9999952316285
240,280,74764,1,0,0:0:0:0:
320,336,74999,1,0,0:0:0:0:
400,280,75233,1,0,0:0:0:0:
352,192,75468,5,4,0:0:0:0:
296,104,75702,1,0,0:0:0:0:
240,192,75936,1,8,0:0:0:0:
184,104,76171,1,0,0:0:0:0:
128,192,76405,1,0,0:0:0:0:
80,104,76639,1,0,0:0:0:0:
40,192,76874,6,0,L|40:248,2,49.9999976158143,8|2|2,0:0|0:0|0:0,0:0:0:0:
80,104,77343,1,0,0:0:0:0:
128,192,77577,1,0,0:0:0:0:
224,192,77811,1,8,0:0:0:0:
176,280,78046,1,0,0:0:0:0:
80,280,78280,2,2,P|104:336|152:352,2,99.9999952316285,0|0|8,0:0|0:0|0:0,0:0:0:0:
48,184,78983,1,2,0:0:0:0:
104,96,79218,6,0,P|136:160|168:168,1,99.9999952316285
224,96,79686,2,8,P|270:110|289:154,1,99.9999952316285,8|0,0:0|0:0,0:0:0:0:
288,256,80155,2,0,L|392:256,1,99.9999952316285
456,192,80624,6,0,L|456:88,1,99.9999952316285,8|0,0:0|0:0,0:0:0:0:
368,80,81093,1,0,0:0:0:0:
328,176,81327,1,0,0:0:0:0:
280,272,81561,1,8,0:0:0:0:
176,240,81796,1,0,0:0:0:0:
80,192,82030,2,0,L|80:88,3,99.9999952316285,0|0|8|0,0:0|0:0|0:0|0:0,0:0:0:0:
168,48,82968,6,0,L|256:104,1,99.9999952316285
352,112,83436,2,8,L|264:168,1,99.9999952316285,8|0,0:0|0:0,0:0:0:0:
168,176,83905,2,0,L|256:232,1,99.9999952316285
248,328,84374,2,0,L|320:368,2,49.9999976158143,8|2|2,0:0|0:0|0:0,0:0:0:0:
337,284,84843,2,0,L|249:228,1,99.9999952316285
152,216,85311,2,0,L|240:160,1,99.9999952316285,8|0,0:0|0:0,0:0:0:0:
336,136,85780,2,0,L|248:88,3,99.9999952316285,0|0|8|0,0:0|0:0|0:0|0:0,0:0:0:0:
152,56,86718,6,0,P|88:112|96:136,1,99.9999952316285
184,152,87186,2,0,P|216:192|184:224,1,99.9999952316285,8|0,0:0|0:0,0:0:0:0:
88,240,87655,2,0,P|64:280|112:328,1,99.9999952316285
192,312,88124,2,0,L|272:232,1,99.9999952316285,8|2,0:0|0:0,0:0:0:0:
262,241,88593,5,0,0:0:0:0:
352,320,88827,1,0,0:0:0:0:
352,320,88944,1,0,0:0:0:0:
352,320,89061,1,8,0:0:0:0:
432,264,89296,1,0,0:0:0:0:
352,200,89530,1,0,0:0:0:0:
256,204,89764,1,0,0:0:0:0:
152,200,89999,5,8,0:0:0:0:
152,104,90233,1,0,0:0:0:0:
256,104,90468,2,4,L|256:224,1,99.9999952316285,4|0,0:0|0:0,0:0:0:0:
160,208,90936,2,0,L|161:317,1,99.9999952316285,8|0,0:0|0:0,0:0:0:0:
264,312,91405,2,0,L|360:248,1,99.9999952316285
344,160,91874,2,2,L|344:54,2,99.9999952316285,10|2|2,0:0|0:0|0:0,0:0:0:0:
248,169,92577,5,0,0:0:0:0:
248,169,92811,1,8,0:0:0:0:
144,169,93046,1,0,0:0:0:0:
144,169,93280,2,2,P|152:112|184:73,3,99.9999952316285,2|2|8|2,0:0|0:0|0:0|0:0,0:0:0:0:
289,79,94218,1,0,0:0:0:0:
289,79,94452,1,0,0:0:0:0:
393,80,94686,5,8,0:0:0:0:
392,184,94921,1,0,0:0:0:0:
392,280,95155,1,0,0:0:0:0:
296,280,95389,1,0,0:0:0:0:
296,280,95507,1,0,0:0:0:0:
296,280,95624,2,0,L|187:280,1,99.9999952316285,8|0,0:0|0:0,0:0:0:0:
120,216,96093,5,0,0:0:0:0:
184,136,96327,1,0,0:0:0:0:
248,216,96561,1,8,0:0:0:0:
184,296,96796,1,0,0:0:0:0:
248,216,97030,1,0,0:0:0:0:
312,136,97264,1,0,0:0:0:0:
368,216,97499,1,8,0:0:0:0:
320,304,97733,6,0,L|224:256,1,99.9999952316285
136,216,98202,2,0,L|248:176,1,99.9999952316285,0|8,0:0|0:0,0:0:0:0:
320,144,98671,2,0,L|216:96,1,99.9999952316285
136,72,99139,2,0,P|104:128|120:168,3,99.9999952316285,0|8|2|2,0:0|0:0|0:0|0:0,0:0:0:0:
216,160,100077,2,0,L|304:232,1,99.9999952316285,0|8,0:0|0:0,0:0:0:0:
208,280,100546,2,0,L|288:352,2,99.9999952316285,0|0|0,0:0|0:0|0:0,0:0:0:0:
112,288,101249,1,8,0:0:0:0:
144,192,101483,2,0,P|96:184|48:208,1,99.9999952316285
112,288,101952,5,0,0:0:0:0:
208,192,102186,1,8,0:0:0:0:
304,96,102421,1,0,0:0:0:0:
305,96,102655,1,0,0:0:0:0:
208,192,102889,1,0,0:0:0:0:
112,288,103124,1,8,0:0:0:0:
256,288,103358,5,0,0:0:0:0:
392,288,103593,2,0,P|440:240|424:200,2,99.9999952316285
336,208,104296,2,0,P|320:136|352:120,1,99.9999952316285
433,127,104764,2,0,P|456:170|410:217,1,99.9999952316285
456,304,105233,1,0,0:0:0:0:
360,280,105468,1,4,0:0:0:0:
104,304,120468,5,0,0:0:0:0:
272,216,120936,1,8,0:0:0:0:
448,304,121405,1,0,0:0:0:0:
448,104,121874,1,8,0:0:0:0:
272,216,122343,1,0,0:0:0:0:
104,104,122811,1,8,0:0:0:0:
272,216,123280,1,0,0:0:0:0:
272,16,123749,1,8,0:0:0:0:
440,24,124218,6,0,P|472:80|448:104,1,99.9999952316285
352,104,124686,1,8,0:0:0:0:
352,208,124921,2,0,P|320:264|288:256,1,99.9999952316285
248,176,125389,1,0,0:0:0:0:
248,72,125624,2,8,P|296:32|336:64,1,99.9999952316285,8|0,0:0|0:0,0:0:0:0:
392,112,126093,5,0,0:0:0:0:
392,208,126327,2,8,P|376:248|304:248,1,99.9999952316285,0|8,0:0|0:0,0:0:0:0:
224,264,126796,1,0,0:0:0:0:
224,168,127030,2,0,P|224:144|160:104,1,99.9999952316285
88,160,127499,1,8,0:0:0:0:
88,256,127733,1,0,0:0:0:0:
256,192,127968,12,4,134530,0:0:0:0:
152,144,134999,5,0,0:0:0:0:
152,144,135116,1,0,0:0:0:0:
152,144,135233,1,0,0:0:0:0:
264,144,135468,2,0,L|312:240,2,99.9999952316285
264,144,136171,2,2,L|320:48,1,99.9999952316285,2|10,0:0|0:0,0:0:0:0:
314,57,136639,2,2,L|368:152,1,99.9999952316285
363,144,137108,2,0,L|312:240,1,99.9999952316285
136,200,137811,1,0,0:0:0:0:
136,80,138280,6,0,L|232:120,2,99.9999952316285,10|2|2,0:0|0:0|0:0,0:0:0:0:
136,80,138983,2,0,L|160:184,1,99.9999952316285
184,280,139452,1,0,0:0:0:0:
384,280,139921,5,0,0:0:0:0:
392,160,140155,2,8,L|312:96,3,99.9999952316285,8|0|0|8,0:0|0:0|0:0|0:0,0:0:0:0:
216,96,141093,2,0,L|144:168,1,99.9999952316285
192,216,141444,2,0,L|264:144,1,99.9999952316285
312,192,141796,2,0,L|240:264,1,99.9999952316285,0|8,0:0|0:0,0:0:0:0:
360,272,142499,5,0,0:0:0:0:
360,272,142733,1,0,0:0:0:0:
360,272,142968,2,4,L|360:168,1,99.9999952316285,4|0,0:0|0:0,0:0:0:0:
328,80,143436,1,0,0:0:0:0:
224,72,143671,2,0,P|176:96|152:144,1,99.9999952316285,0|8,0:0|0:0,0:0:0:0:
168,232,144139,6,0,L|168:288,2,49.9999976158143
224,152,144608,1,0,0:0:0:0:
304,216,144843,1,0,0:0:0:0:
304,120,145077,2,0,B|304:64|304:64|360:48,1,99.9999952316285
448,40,145546,1,0,0:0:0:0:
392,120,145780,6,0,B|448:120|448:120|448:184|448:184,3,99.9999952316285,8|0|0|0,0:0|0:0|0:0|0:0,0:0:0:0:
424,264,146718,1,0,0:0:0:0:
312,280,146952,1,0,0:0:0:0:
256,192,147186,1,0,0:0:0:0:
152,192,147421,1,0,0:0:0:0:
256,192,147655,6,0,L|256:88,3,99.9999952316285,8|0|0|0,0:0|0:0|0:0|0:0,0:0:0:0:
128,128,148593,6,0,L|200:56,1,99.9999952316285
128,128,148944,2,0,L|48:56,1,99.9999952316285
128,128,149296,2,0,L|128:232,1,99.9999952316285,0|8,0:0|0:0,0:0:0:0:
240,240,149999,5,0,0:0:0:0:
352,240,150233,2,0,L|408:240,2,49.9999976158143,0|0|4,0:0|0:0|0:0,0:0:0:0:
352,240,150702,1,0,0:0:0:0:
168,240,151171,5,0,0:0:0:0:
168,128,151405,2,0,L|272:128,3,99.9999952316285,8|0|0|0,0:0|0:0|0:0|0:0,0:0:0:0:
268,128,152343,1,0,0:0:0:0:
267,264,152577,1,0,0:0:0:0:
192,48,153046,5,0,0:0:0:0:
192,48,153280,2,0,P|168:72|216:104,2,99.9999952316285,8|0|0,0:0|0:0|0:0,0:0:0:0:
272,112,153983,1,0,0:0:0:0:
240,200,154218,1,0,0:0:0:0:
240,200,154335,1,0,0:0:0:0:
240,200,154452,2,0,L|344:200,1,99.9999952316285
344,312,154921,5,0,0:0:0:0:
248,272,155155,1,8,0:0:0:0:
344,224,155389,1,0,0:0:0:0:
248,184,155624,1,0,0:0:0:0:
344,136,155858,1,0,0:0:0:0:
344,136,156093,2,2,L|293:46,1,99.9999952316285
248,48,156444,2,2,L|195:133,1,99.9999952316285
224,176,156796,2,0,L|327:176,1,99.9999952316285,0|8,0:0|0:0,0:0:0:0:
392,288,157499,5,8,0:0:0:0:
320,224,157733,1,0,0:0:0:0:
240,288,157968,2,0,L|240:188,1,99.9999952316285,4|0,0:0|0:0,0:0:0:0:
160,248,158436,1,0,0:0:0:0:
152,152,158671,2,0,L|240:88,3,99.9999952316285,0|8|0|0,0:0|0:0|0:0|0:0,0:0:0:0:
336,96,159608,5,0,0:0:0:0:
328,200,159843,2,0,P|264:224|232:208,3,99.9999952316285
160,152,160780,2,0,L|160:256,1,99.9999952316285,8|0,0:0|0:0,0:0:0:0:
264,248,161249,1,0,0:0:0:0:
264,248,161483,1,0,0:0:0:0:
368,248,161718,5,0,0:0:0:0:
368,152,161952,2,0,L|264:152,1,99.9999952316285
168,152,162421,1,0,0:0:0:0:
168,248,162655,1,8,0:0:0:0:
256,200,162889,1,0,0:0:0:0:
344,152,163124,5,0,0:0:0:0:
344,152,163358,1,0,0:0:0:0:
344,256,163593,2,0,L|392:280,2,49.9999976158143
248,264,164061,1,0,0:0:0:0:
152,264,164296,2,0,P|104:216|128:184,1,99.9999952316285,0|8,0:0|0:0,0:0:0:0:
176,120,164764,1,0,0:0:0:0:
176,120,164999,1,0,0:0:0:0:
176,120,165233,1,0,0:0:0:0:
176,120,165468,6,4,L|262:62,1,99.9999952316285
360,64,165936,2,0,L|440:128,1,99.9999952316285,8|0,0:0|0:0,0:0:0:0:
440,224,166405,2,0,L|360:288,1,99.9999952316285
264,288,166874,2,0,L|168:232,2,99.9999952316285,8|2|2,0:0|0:0|0:0,0:0:0:0:
360,272,167577,6,0,P|384:216|352:192,1,99.9999952316285,0|8,0:0|0:0,0:0:0:0:
280,144,168046,2,0,P|224:144|224:184,1,99.9999952316285
256,272,168514,2,0,P|258:318|214:334,1,99.9999952316285,0|8,0:0|0:0,0:0:0:0:
144,256,168983,1,0,0:0:0:0:
160,160,169218,5,0,0:0:0:0:
200,72,169452,1,0,0:0:0:0:
288,112,169686,1,8,0:0:0:0:
248,200,169921,1,0,0:0:0:0:
248,200,170038,2,0,L|304:216,1,49.9999976158143
288,112,170389,1,0,0:0:0:0:
392,136,170624,5,8,0:0:0:0:
352,232,170858,2,0,L|416:216,2,49.9999976158143
280,304,171327,1,0,0:0:0:0:
176,304,171561,2,8,P|120:280|112:224,1,99.9999952316285,8|0,0:0|0:0,0:0:0:0:
112,152,172030,2,0,L|216:152,1,99.9999952316285
312,152,172499,2,8,P|368:128|368:96,1,99.9999952316285,8|0,0:0|0:0,0:0:0:0:
280,48,172968,5,4,0:0:0:0:
376,32,173202,1,0,0:0:0:0:
456,96,173436,1,8,0:0:0:0:
464,192,173671,1,0,0:0:0:0:
392,264,173905,5,0,0:0:0:0:
296,272,174139,1,0,0:0:0:0:
224,208,174374,2,0,L|136:120,2,99.9999952316285,8|0|0,0:0|0:0|0:0,0:0:0:0:
224,104,175077,5,0,0:0:0:0:
288,176,175311,1,8,0:0:0:0:
344,104,175546,1,0,0:0:0:0:
288,176,175780,1,0,0:0:0:0:
224,104,176014,1,0,0:0:0:0:
224,208,176249,5,8,0:0:0:0:
160,128,176483,1,0,0:0:0:0:
224,48,176718,1,0,0:0:0:0:
288,128,176952,1,0,0:0:0:0:
384,128,177186,5,8,0:0:0:0:
288,128,177421,1,0,0:0:0:0:
288,224,177655,1,0,0:0:0:0:
384,224,177889,1,0,0:0:0:0:
384,128,178124,1,8,0:0:0:0:
384,224,178358,6,0,P|344:272|296:280,1,99.9999952316285
304,184,178827,1,0,0:0:0:0:
288,88,179061,2,0,P|240:112|216:160,1,99.9999952316285,8|0,0:0|0:0,0:0:0:0:
168,240,179530,1,0,0:0:0:0:
208,336,179764,1,0,0:0:0:0:
312,344,179999,1,8,0:0:0:0:
368,256,180233,1,0,0:0:0:0:
264,248,180468,6,0,P|248:192|208:152,1,99.9999952316285
168,240,180936,2,0,P|120:216|104:168,1,99.9999952316285,8|0,0:0|0:0,0:0:0:0:
136,80,181405,2,0,L|248:56,1,99.9999952316285
336,48,181874,2,2,L|416:128,1,99.9999952316285,10|2,0:0|0:0,0:0:0:0:
304,144,182343,5,0,0:0:0:0:
304,160,182460,1,0,0:0:0:0:
304,176,182577,2,0,L|304:280,1,99.9999952316285,0|8,0:0|0:0,0:0:0:0:
304,277,183046,1,0,0:0:0:0:
208,280,183280,2,0,L|112:320,3,99.9999952316285,0|0|8|0,0:0|0:0|0:0|0:0,0:0:0:0:
112,216,184218,6,0,L|112:112,1,99.9999952316285
112,16,184686,2,0,L|216:56,1,99.9999952316285,8|0,0:0|0:0,0:0:0:0:
304,72,185155,1,0,0:0:0:0:
232,144,185389,1,0,0:0:0:0:
160,216,185624,1,8,0:0:0:0:
256,216,185858,2,0,B|288:264|288:264|352:264|352:264,1,99.9999952316285
416,232,186327,1,0,0:0:0:0:
392,136,186561,2,0,B|360:192|360:192|296:192|296:192,1,99.9999952316285,8|0,0:0|0:0,0:0:0:0:
256,128,187030,1,0,0:0:0:0:
256,224,187264,1,0,0:0:0:0:
152,224,187499,1,8,0:0:0:0:
152,128,187733,5,0,0:0:0:0:
152,128,187850,1,0,0:0:0:0:
152,128,187968,2,4,L|48:128,1,99.9999952316285,4|0,0:0|0:0,0:0:0:0:
56,224,188436,2,0,L|56:328,1,99.9999952316285,8|0,0:0|0:0,0:0:0:0:
160,320,188905,5,0,0:0:0:0:
248,272,189139,1,0,0:0:0:0:
336,224,189374,2,0,L|336:120,2,99.9999952316285,8|2|2,0:0|0:0|0:0,0:0:0:0:
400,304,190077,1,0,0:0:0:0:
312,352,190311,1,8,0:0:0:0:
268,262,190546,1,0,0:0:0:0:
168,264,190780,6,0,L|168:160,3,99.9999952316285,0|0|8|0,0:0|0:0|0:0|0:0,0:0:0:0:
264,200,191718,1,0,0:0:0:0:
336,272,191952,1,0,0:0:0:0:
408,200,192186,1,8,0:0:0:0:
336,128,192421,1,0,0:0:0:0:
240,128,192655,5,0,0:0:0:0:
144,128,192889,1,0,0:0:0:0:
72,200,193124,1,8,0:0:0:0:
144,264,193358,2,0,B|176:216|176:216|240:216|240:216,1,99.9999952316285
320,216,193827,1,0,0:0:0:0:
400,160,194061,6,0,B|360:128|360:128|296:128,1,99.9999952316285
256,208,194530,1,0,0:0:0:0:
192,128,194764,1,0,0:0:0:0:
96,160,194999,2,0,B|96:96|96:96|128:56|128:56,1,99.9999952316285
232,96,195468,5,4,0:0:0:0:
136,96,195702,1,0,0:0:0:0:
184,184,195936,1,8,0:0:0:0:
136,272,196171,1,0,0:0:0:0:
232,272,196405,5,0,0:0:0:0:
328,272,196639,1,0,0:0:0:0:
288,184,196874,1,8,0:0:0:0:
328,96,197108,1,0,0:0:0:0:
288,184,197343,5,0,0:0:0:0:
328,272,197577,1,0,0:0:0:0:
288,184,197811,1,8,0:0:0:0:
248,96,198046,1,0,0:0:0:0:
208,184,198280,5,0,0:0:0:0:
208,184,198397,1,8,0:0:0:0:
328,328,198749,2,8,P|352:280|344:232,1,99.9999952316285
344,136,199218,5,0,0:0:0:0:
288,216,199452,1,0,0:0:0:0:
248,304,199686,1,8,0:0:0:0:
208,216,199921,1,0,0:0:0:0:
184,120,200155,5,0,0:0:0:0:
368,224,200624,1,8,0:0:0:0:
184,224,201093,1,0,0:0:0:0:
184,224,201210,1,0,0:0:0:0:
184,224,201327,1,0,0:0:0:0:
216,128,201561,5,8,0:0:0:0:
312,160,201796,1,0,0:0:0:0:
272,248,202030,1,0,0:0:0:0:
272,248,202147,1,8,0:0:0:0:
168,152,202499,5,8,0:0:0:0:
168,248,202733,1,8,0:0:0:0:
272,248,202968,2,0,L|272:136,1,99.9999952316285
368,112,203436,5,8,0:0:0:0:
368,208,203671,1,0,0:0:0:0:
368,112,203905,1,0,0:0:0:0:
168,152,204374,5,8,0:0:0:0:
304,304,204843,1,0,0:0:0:0:
264,216,205077,6,0,P|264:160|224:152,1,99.9999952316285,0|8,0:0|0:0,0:0:0:0:
128,152,205546,1,0,0:0:0:0:
128,16,205780,1,0,0:0:0:0:
128,16,205897,1,8,0:0:0:0:
304,16,206249,5,8,0:0:0:0:
304,112,206483,1,8,0:0:0:0:
312,216,206718,2,0,P|360:256|400:232,1,99.9999952316285
392,344,207186,5,8,0:0:0:0:
296,320,207421,1,0,0:0:0:0:
192,344,207655,2,0,L|192:240,1,99.9999952316285
192,144,208124,5,8,0:0:0:0:
288,112,208358,1,0,0:0:0:0:
360,196,208593,2,0,B|312:212|312:212|264:196,1,99.9999952316285
256,288,209061,1,8,0:0:0:0:
152,288,209296,1,0,0:0:0:0:
152,192,209530,5,0,0:0:0:0:
152,192,209647,1,8,0:0:0:0:
152,192,209764,1,0,0:0:0:0:
152,88,209999,1,8,0:0:0:0:
240,128,210233,1,8,0:0:0:0:
280,40,210468,1,4,0:0:0:0:
