osu file format v12

[General]
AudioFilename: NDF.mp3
AudioLeadIn: 0
PreviewTime: 88301
Countdown: 0
SampleSet: Soft
StackLeniency: 0.7
Mode: 0
LetterboxInBreaks: 1
WidescreenStoryboard: 0

[Editor]
Bookmarks: 88375,132513,176651,220789,264927,309065,353203,397341,441479
DistanceSpacing: 0.8
BeatDivisor: 4
GridSize: 4
TimelineZoom: 1

[Metadata]
Title:The Near Distant Future
TitleUnicode:The Near Distant Future
Artist:Traktion
ArtistUnicode:Traktion
Creator:RLC
Version:Lapse
Source:
Tags:mission ascii ep
BeatmapID:260489
BeatmapSetID:97433

[Difficulty]
HPDrainRate:6
CircleSize:4
OverallDifficulty:8
ApproachRate:9
SliderMultiplier:1.9
SliderTickRate:2

[Events]
//Background and Video events
0,0,"ec66c1cf09dd8cb8437600b50e3f1c31.jpg",0,0
//Break Periods
2,66432,71150
2,243819,253219
//Storyboard Layer 0 (Background)
//Storyboard Layer 1 (Fail)
//Storyboard Layer 2 (Pass)
//Storyboard Layer 3 (Foreground)
//Storyboard Sound Samples
//Background Colour Transformations
3,100,163,162,255

[TimingPoints]
26,344.827586206897,4,2,0,50,1,0
55543,-100,4,1,0,50,0,0
56577,-100,4,2,0,50,0,0
61060,-100,4,1,0,50,0,0
62094,-100,4,2,0,50,0,0
64508,-100,4,1,0,50,0,0
71750,-117.647058823529,4,2,0,50,0,0
84508,-117.647058823529,4,2,0,15,0,0
84681,-117.647058823529,4,2,0,20,0,0
84853,-117.647058823529,4,2,0,25,0,0
85026,-117.647058823529,4,2,0,30,0,0
85198,-117.647058823529,4,2,0,35,0,0
85370,-117.647058823529,4,2,0,40,0,0
85543,-117.647058823529,4,2,0,50,0,0
86577,-200,4,2,0,20,0,0
86750,-200,4,2,0,15,0,0
86922,-153.846153846154,4,2,0,30,0,0
87094,-153.846153846154,4,2,0,20,0,0
87267,-153.846153846154,4,2,0,40,0,0
87439,-153.846153846154,4,2,0,30,0,0
87612,-125,4,2,0,50,0,0
87784,-125,4,2,0,40,0,0
87957,-111.111111111111,4,2,0,60,0,0
88301,-100,4,2,0,50,0,0
88646,-100,4,1,0,50,0,0
89336,-100,4,2,0,50,0,0
94163,-100,4,1,0,50,0,0
94853,-100,4,2,0,50,0,0
97957,-100,4,1,0,50,0,0
99336,-100,4,2,0,50,0,0
99681,-100,4,1,0,50,0,0
100370,-100,4,2,0,50,0,0
105198,-100,4,1,0,50,0,0
105888,-100,4,2,0,50,0,0
108991,-100,4,1,0,50,0,0
110370,-100,4,1,0,50,0,0
110888,-100,4,2,0,50,0,0
115888,-100,4,1,0,50,0,0
116405,-100,4,2,0,50,0,0
119163,-100,4,1,0,50,0,0
119508,-100,4,2,0,50,0,0
120715,-100,4,1,0,50,0,0
121922,-100,4,2,0,50,0,0
126922,-100,4,1,0,50,0,0
127439,-100,4,2,0,50,0,0
130198,-100,4,1,0,50,0,0
130543,-100,4,2,0,50,0,0
177784,-100,4,1,0,50,0,0
177957,-100,4,2,0,50,0,0
181060,-100,4,1,0,50,0,0
182094,-100,4,2,0,50,0,0
183301,-100,4,1,0,50,0,0
183560,-100,4,2,0,50,0,0
186750,-100,4,1,0,50,0,0
187612,-100,4,2,0,50,0,0
188991,-100,4,1,0,50,0,0
189508,-100,4,2,0,50,0,0
192267,-100,4,1,0,50,0,0
193129,-100,4,2,0,50,0,0
194508,-100,4,1,0,50,0,0
195026,-100,4,2,0,50,0,0
197784,-100,4,1,0,50,0,0
198646,-100,4,2,0,50,0,0
200026,-100,4,1,0,50,0,0
201750,-100,4,2,0,50,0,0
205543,-100,4,1,0,50,0,0
207267,-100,4,2,0,50,0,0
211060,-100,4,1,0,50,0,0
212784,-100,4,2,0,50,0,0
216577,-100,4,1,0,50,0,0
218129,-100,4,2,0,50,0,0
220715,-200,4,2,0,50,0,0
223474,-200,4,2,0,45,0,0
226232,-200,4,2,0,40,0,0
228991,-200,4,2,0,35,0,0
231750,-200,4,2,0,30,0,0
234508,-200,4,2,0,25,0,0
237267,-200,4,2,0,50,0,0
237353,-200,4,2,0,15,0,0
237957,-200,4,2,0,20,0,0
238646,-200,4,2,0,25,0,0
239336,-200,4,2,0,30,0,0
240026,-200,4,2,0,35,0,0
240715,-200,4,2,0,40,0,0
241405,-200,4,2,0,45,0,0
242094,-200,4,2,0,50,0,0
253819,-100,4,2,0,50,0,0
264853,-83.3333333333333,4,2,0,50,0,1
275888,-71.4285714285714,4,1,0,50,0,1
281405,-71.4285714285714,4,1,0,40,0,1
284163,-71.4285714285714,4,1,0,50,0,1
286922,-83.3333333333333,4,2,0,50,0,1
297957,-71.4285714285714,4,1,0,50,0,1
303474,-71.4285714285714,4,1,0,40,0,1
306232,-71.4285714285714,4,1,0,50,0,1
307612,-100,4,1,0,30,0,1
307957,-76.9230769230769,4,1,0,50,0,1
308301,-62.5,4,2,0,50,0,1
308991,-100,4,2,0,50,0,0
309336,-100,4,1,0,50,0,0
310026,-100,4,2,0,50,0,0
314853,-100,4,1,0,50,0,0
315543,-100,4,2,0,50,0,0
318646,-100,4,1,0,50,0,0
320026,-100,4,2,0,50,0,0
320370,-100,4,1,0,50,0,0
321060,-100,4,2,0,50,0,0
325888,-100,4,1,0,50,0,0
326577,-100,4,2,0,50,0,0
329681,-100,4,1,0,50,0,0
332094,-100,4,2,0,50,0,0
336577,-100,4,1,0,50,0,0
337612,-100,4,2,0,50,0,0
339853,-100,4,1,0,50,0,0
340198,-100,4,2,0,50,0,0
340715,-100,4,1,0,50,0,0
343129,-100,4,2,0,50,0,0
347612,-100,4,1,0,50,0,0
348646,-100,4,2,0,50,0,0
350888,-100,4,1,0,50,0,0
351232,-100,4,2,0,50,0,0
351750,-100,4,1,0,50,0,0
353129,-100,4,2,0,50,0,0
398474,-100,4,1,0,50,0,0
398819,-100,4,2,0,50,0,0
401405,-100,4,1,0,50,0,0
402784,-100,4,2,0,50,0,0
403991,-100,4,1,0,50,0,0
404336,-100,4,2,0,50,0,0
407612,-100,4,1,0,50,0,0
408301,-100,4,2,0,50,0,0
409508,-100,4,1,0,50,0,0
409853,-100,4,2,0,50,0,0
412439,-100,4,1,0,50,0,0
413819,-100,4,2,0,50,0,0
415026,-100,4,1,0,50,0,0
415370,-100,4,2,0,50,0,0
418646,-100,4,1,0,50,0,0
419336,-100,4,2,0,50,0,0
420543,-100,4,1,0,50,0,0
420888,-100,4,2,0,50,0,0
423474,-100,4,1,0,50,0,0
424853,-100,4,2,0,50,0,0
426060,-100,4,1,0,50,0,0
426405,-100,4,2,0,50,0,0
429681,-100,4,1,0,50,0,0
430370,-100,4,2,0,50,0,0
431750,-100,4,1,0,50,0,0
432439,-100,4,2,0,50,0,0
434508,-100,4,1,0,50,0,0
435888,-100,4,2,0,50,0,0
437267,-100,4,1,0,50,0,0
437957,-100,4,2,0,50,0,0
441750,-200,4,2,0,50,0,0
443301,-200,4,2,0,45,0,0
445543,-200,4,2,0,40,0,0
448819,-200,4,2,0,35,0,0
451060,-200,4,2,0,30,0,0
454508,-200,4,2,0,25,0,0
456922,-200,4,2,0,20,0,0
460715,-200,4,2,0,5,0,0

[Colours]
Combo1 : 91,91,255
Combo2 : 173,255,95
Combo3 : 128,0,128
Combo4 : 193,132,255
Combo5 : 253,0,253
Combo6 : 17,254,176
Combo7 : 0,0,255
Combo8 : 255,138,108

[HitObjects]
50,140,22094,6,0,P|105:149|158:136,1,95,0|0,1:0|0:0,0:0:0:0:
381,102,22439,2,0,P|326:93|273:106,1,95,4|0,0:2|0:0,0:0:0:0:
279,117,22698,1,0,0:0:0:0:
273,135,22784,1,0,0:0:0:0:
329,243,22957,1,0,1:0:0:0:
246,328,23129,2,0,P|194:339|100:290,1,142.5,0|2,0:0|0:2,0:0:0:0:
114,306,23474,21,0,1:0:0:0:
129,174,23646,2,0,L|73:85,1,95,2|0,0:0|0:0,0:0:0:0:
221,133,23991,2,0,L|213:31,1,95,2|0,0:0|0:0,0:0:0:0:
317,162,24336,1,2,1:2:0:0:
317,162,24422,1,2,0:2:0:0:
317,162,24508,2,0,L|352:55,1,95,0|2,0:0|0:0,0:0:0:0:
498,225,24853,22,0,P|450:214|386:234,1,95,0|0,1:0|0:0,0:0:0:0:
146,303,25198,2,0,P|194:314|258:294,1,95,4|0,0:2|0:0,0:0:0:0:
249,289,25457,1,0,0:0:0:0:
259,273,25543,1,0,0:0:0:0:
370,320,25715,1,0,1:0:0:0:
419,199,25888,2,0,L|405:92,1,95
288,30,26232,22,0,P|268:86|258:136,1,95,0|0,1:0|0:0,0:0:0:0:
128,307,26577,2,0,P|161:251|175:204,1,95,4|0,0:2|0:0,0:0:0:0:
170,222,26836,1,0,0:0:0:0:
170,222,26922,1,0,0:0:0:0:
365,329,27094,1,0,1:0:0:0:
250,370,27267,2,0,P|263:316|266:254,1,95,4|0,0:2|0:0,0:0:0:0:
368,222,27612,22,0,P|422:232|477:215,1,95,0|0,1:0|0:0,0:0:0:0:
176,296,27957,2,0,P|122:286|67:303,1,95,4|0,0:2|0:0,0:0:0:0:
74,311,28215,1,0,0:0:0:0:
65,327,28301,1,0,0:0:0:0:
20,210,28474,1,0,1:0:0:0:
101,110,28646,2,0,P|154:74|240:77,1,142.5,0|2,0:0|0:0,0:0:0:0:
230,73,28991,21,0,1:0:0:0:
351,128,29163,2,0,L|326:37,1,95,2|0,0:2|0:0,0:0:0:0:
318,278,29508,2,0,L|251:359,1,95,2|0,0:2|0:0,0:0:0:0:
273,192,29853,1,2,1:2:0:0:
273,192,29939,1,2,0:2:0:0:
273,192,30026,2,0,L|154:177,1,95,0|2,0:0|0:2,0:0:0:0:
53,161,30370,22,0,P|44:217|50:268,1,95,0|0,1:0|0:0,0:0:0:0:
208,379,30715,2,0,P|217:323|211:272,1,95,4|0,0:2|0:0,0:0:0:0:
207,266,30974,1,0,0:0:0:0:
201,247,31060,1,0,0:0:0:0:
303,115,31232,1,0,1:0:0:0:
408,224,31405,2,0,P|470:225|516:211,1,95
303,115,31750,22,0,B|253:108|253:107|202:115,1,95,0|0,1:0|0:0,0:0:0:0:
278,216,32094,1,4,0:2:0:0:
435,125,32267,1,0,0:0:0:0:
435,125,32353,1,0,0:0:0:0:
435,125,32439,1,0,0:0:0:0:
278,216,32612,2,0,L|304:320,1,95,4|4,1:2|0:2,0:0:0:0:
194,264,32957,1,0,0:0:0:0:
316,333,33129,22,0,L|425:314,1,95,0|0,1:0|0:0,0:0:0:0:
176,288,33474,2,0,L|76:309,1,95,4|0,0:2|0:0,0:0:0:0:
64,312,33732,1,0,0:0:0:0:
45,317,33819,1,0,0:0:0:0:
144,376,33991,1,0,1:0:0:0:
255,323,34163,2,0,P|269:277|249:172,1,142.5,0|2,0:0|0:2,0:0:0:0:
255,185,34508,21,0,1:0:0:0:
342,133,34681,2,0,L|436:87,1,95,2|0,0:2|0:0,0:0:0:0:
155,182,35026,2,0,L|52:168,1,95,2|0,0:2|0:0,0:0:0:0:
354,246,35370,1,2,1:2:0:0:
354,246,35457,1,2,0:2:0:0:
354,246,35543,2,0,L|459:264,1,95,0|2,0:0|0:2,0:0:0:0:
269,324,35888,22,0,P|217:314|158:324,1,95,0|0,1:0|0:0,0:0:0:0:
13,241,36232,2,0,P|65:251|124:241,1,95,4|0,0:2|0:0,0:0:0:0:
121,234,36491,1,0,0:0:0:0:
136,222,36577,1,0,0:0:0:0:
222,162,36750,1,0,1:0:0:0:
315,208,36922,1,0,0:0:0:0:
414,176,37094,21,0,0:0:0:0:
414,176,37181,1,0,0:0:0:0:
414,176,37267,2,0,P|433:126|428:65,1,95,0|0,1:0|0:0,0:0:0:0:
331,112,37612,2,0,P|308:67|254:33,1,95,4|0,0:2|0:0,0:0:0:0:
256,48,37870,1,0,0:0:0:0:
238,56,37957,1,0,0:0:0:0:
221,64,38043,1,0,0:0:0:0:
204,72,38129,1,0,1:0:0:0:
28,92,38301,2,0,L|133:103,1,95,4|0,0:2|0:0,0:0:0:0:
210,284,38646,22,0,P|158:311|110:313,1,95,0|0,1:0|0:0,0:0:0:0:
306,275,38991,2,0,P|360:283|399:321,1,95,4|0,0:2|0:0,0:0:0:0:
392,326,39250,1,0,0:0:0:0:
395,344,39336,1,0,0:0:0:0:
272,354,39508,1,0,1:0:0:0:
249,206,39681,2,0,L|233:55,1,142.5,0|2,0:0|0:2,0:0:0:0:
233,64,40026,21,0,1:0:0:0:
144,100,40198,2,0,P|93:85|34:86,1,95,2|0,0:2|0:0,0:0:0:0:
316,134,40543,2,0,P|365:110|425:105,1,95,2|0,0:2|0:0,0:0:0:0:
169,199,40888,1,2,1:2:0:0:
169,199,40974,1,2,0:2:0:0:
169,199,41060,2,0,P|112:215|70:247,1,95,0|2,0:0|0:2,0:0:0:0:
165,303,41405,22,0,B|249:262|264:338|358:291,1,190,0|4,1:0|0:2,0:0:0:0:
402,199,41922,1,0,0:0:0:0:
402,199,42008,1,0,0:0:0:0:
402,199,42094,2,0,P|350:189|297:203,1,95,0|0,0:0|1:0,0:0:0:0:
80,184,42439,2,0,P|132:194|185:180,1,95
254,131,42784,21,0,1:0:0:0:
346,82,42957,1,0,0:0:0:0:
227,113,43129,2,0,L|251:253,1,142.5,4|0,1:2|1:0,0:0:0:0:
251,253,43474,1,0,1:0:0:0:
393,158,43646,1,0,1:0:0:0:
199,97,43819,1,4,1:2:0:0:
420,130,43991,1,0,1:0:0:0:
168,83,44163,22,0,P|115:88|56:114,1,95,0|0,1:0|0:0,0:0:0:0:
272,65,44508,2,0,P|322:77|371:74,1,95,4|0,1:2|0:0,0:0:0:0:
384,72,44767,1,0,0:0:0:0:
402,66,44853,1,0,0:0:0:0:
419,59,44939,1,0,0:0:0:0:
436,50,45026,1,0,1:0:0:0:
502,222,45198,2,0,P|448:199|351:216,1,142.5,0|2,1:0|1:2,0:0:0:0:
366,208,45543,21,0,1:0:0:0:
183,304,45715,2,0,P|237:291|289:257,1,95,2|0,0:2|1:0,0:0:0:0:
261,83,46060,2,0,P|264:141|282:189,1,95,2|0,0:2|1:0,0:0:0:0:
360,301,46405,1,2,1:2:0:0:
360,301,46491,1,2,0:2:0:0:
360,301,46577,1,0,1:0:0:0:
358,124,46750,1,2,0:2:0:0:
174,192,46922,22,0,P|119:202|68:200,1,95,0|0,1:0|0:0,0:0:0:0:
256,218,47267,2,0,P|282:266|295:320,1,95,4|0,1:2|0:0,0:0:0:0:
292,304,47526,1,0,0:0:0:0:
292,304,47612,1,0,0:0:0:0:
241,133,47784,1,0,1:0:0:0:
241,133,47957,2,0,P|256:82|287:40,1,95,0|0,1:2|0:0,0:0:0:0:
496,61,48301,22,0,L|386:82,1,95,0|0,1:0|0:0,0:0:0:0:
331,230,48646,2,0,L|431:207,1,95,4|0,1:2|0:0,0:0:0:0:
389,44,48991,2,0,P|372:97|374:142,1,95,0|4,1:0|1:2,0:0:0:0:
496,289,49336,2,0,P|513:236|511:191,1,95,4|0,1:2|0:0,0:0:0:0:
277,103,49681,22,0,P|282:161|308:215,1,95,0|0,1:0|0:0,0:0:0:0:
496,289,50026,2,0,P|440:270|397:268,1,95,4|0,1:2|0:0,0:0:0:0:
385,270,50284,1,0,0:0:0:0:
367,276,50370,1,0,0:0:0:0:
349,284,50457,1,0,0:0:0:0:
333,295,50543,1,0,1:0:0:0:
113,286,50715,2,0,P|173:289|256:252,1,142.5,0|2,1:0|1:2,0:0:0:0:
248,258,51060,21,0,1:0:0:0:
95,171,51232,1,2,0:2:0:0:
183,23,51405,2,0,P|195:78|192:129,1,95,0|2,1:0|0:2,0:0:0:0:
174,209,51750,1,0,1:0:0:0:
285,122,51922,2,0,L|328:91,2,47.5,2|2|0,1:2|0:2|1:0,0:0:0:0:
174,209,52267,1,2,0:2:0:0:
235,339,52439,22,0,P|282:350|345:334,1,95,0|0,1:0|0:0,0:0:0:0:
497,280,52784,2,0,P|450:269|387:285,1,95,4|0,1:2|0:0,0:0:0:0:
404,276,53043,1,0,0:0:0:0:
404,276,53129,1,0,0:0:0:0:
451,368,53301,1,0,1:0:0:0:
464,89,53474,2,0,L|458:184,1,95,0|0,1:0|1:0,0:0:0:0:
458,184,53732,1,0,1:0:0:0:
458,184,53818,21,0,1:0:0:0:
368,129,53990,2,0,L|282:71,1,95,4|4,1:2|1:2,0:0:0:0:
274,181,54336,1,0,1:0:0:0:
274,181,54422,1,0,1:0:0:0:
274,181,54508,1,0,1:0:0:0:
428,56,54681,1,4,1:2:0:0:
434,215,54853,1,4,1:2:0:0:
276,150,55026,1,0,1:0:0:0:
413,244,55198,22,0,P|424:300|422:352,1,95,0|0,1:0|0:0,0:0:0:0:
286,119,55543,2,2,P|300:68|322:20,1,95,4|0,1:2|2:0,0:0:0:0:
335,287,55888,2,2,P|286:269|225:265,1,95,0|0,2:0|1:0,0:0:0:0:
21,180,56232,2,2,P|76:176|164:131,1,142.5,0|2,1:0|0:2,0:0:0:0:
154,139,56577,21,0,1:0:0:0:
111,264,56750,2,0,L|81:362,1,95,2|0,0:2|1:0,0:0:0:0:
234,236,57094,2,0,L|304:319,1,95,2|0,0:2|1:0,0:0:0:0:
278,123,57439,1,2,1:2:0:0:
278,123,57526,1,2,0:2:0:0:
278,123,57612,2,0,L|390:113,1,95,0|2,1:0|0:2,0:0:0:0:
463,218,57957,22,0,P|471:268|467:340,1,95,0|0,1:0|0:0,0:0:0:0:
285,360,58301,2,0,P|290:304|302:249,1,95,4|0,1:2|0:0,0:0:0:0:
297,266,58560,1,0,0:0:0:0:
297,266,58646,1,0,0:0:0:0:
139,182,58819,1,0,1:0:0:0:
139,182,58991,2,0,P|153:243|160:285,1,95,0|0,1:0|0:0,0:0:0:0:
41,85,59336,22,0,L|145:62,1,95,0|0,1:0|0:0,0:0:0:0:
326,137,59681,2,0,L|227:117,1,95,4|0,1:2|0:0,0:0:0:0:
232,118,59939,1,0,1:0:0:0:
232,118,60026,1,0,1:0:0:0:
352,229,60198,1,4,1:2:0:0:
410,81,60370,1,4,1:2:0:0:
424,173,60543,1,0,1:0:0:0:
499,97,60715,22,0,P|509:160|507:201,1,95,0|0,1:0|0:0,0:0:0:0:
408,358,61060,2,2,P|422:288|437:247,1,95,4|0,1:2|2:0,0:0:0:0:
351,149,61405,2,2,P|294:170|233:177,1,95,0|0,2:0|1:0,0:0:0:0:
25,147,61750,2,2,P|76:145|175:185,1,142.5,0|2,1:0|0:2,0:0:0:0:
161,175,62094,21,0,1:0:0:0:
267,82,62267,2,0,P|209:81|160:54,1,95,2|0,0:2|1:0,0:0:0:0:
58,265,62612,1,2,0:2:0:0:
75,257,62698,1,2,0:2:0:0:
92,248,62784,1,0,0:0:0:0:
196,258,62957,1,2,1:2:0:0:
136,343,63129,1,2,1:2:0:0:
291,283,63301,21,2,0:2:0:0:
287,264,63388,1,2,0:2:0:0:
284,245,63474,1,0,1:0:0:0:
393,131,63646,2,0,L|385:234,1,95,2|6,0:2|1:2,0:0:0:0:
225,169,63991,1,2,0:2:0:0:
232,151,64077,1,2,0:2:0:0:
239,133,64163,1,2,1:2:0:0:
246,115,64250,1,2,0:2:0:0:
253,97,64336,1,2,1:2:0:0:
132,128,64508,2,2,L|34:109,1,95,2|2,1:2|2:2,0:0:0:0:
185,261,64853,22,2,L|286:242,1,95,2|6,1:2|1:2,0:0:0:0:
62,237,65198,2,2,L|43:345,1,95,4|2,1:2|1:2,0:0:0:0:
322,321,65543,1,2,1:2:0:0:
322,321,65629,1,0,1:0:0:0:
322,321,65715,2,2,L|378:307,1,47.5,6|2,1:2|2:2,0:0:0:0:
416,284,65888,2,2,L|400:387,1,95,4|2,1:2|1:2,0:0:0:0:
509,251,66232,21,4,1:0:0:0:
179,183,71750,22,0,L|154:292,1,80.750001540184,2|0,0:0|0:0,0:0:0:0:
327,205,72094,2,0,L|352:96,1,80.750001540184,2|0,0:0|0:0,0:0:0:0:
247,105,72439,2,0,L|159:81,1,80.750001540184,2|0,0:0|0:0,0:0:0:0:
265,279,72784,2,0,L|353:303,1,80.750001540184,2|0,0:0|0:0,0:0:0:0:
170,190,73129,21,2,0:0:0:0:
341,221,73474,1,0,0:0:0:0:
162,222,73819,1,2,0:0:0:0:
347,255,74163,1,0,0:0:0:0:
151,252,74508,21,2,0:0:0:0:
142,281,75198,1,0,0:0:0:0:
133,309,75888,1,2,0:0:0:0:
123,337,76577,1,0,0:0:0:0:
205,231,77267,22,0,L|104:211,1,80.750001540184,2|0,0:0|0:0,0:0:0:0:
307,153,77612,2,0,L|408:173,1,80.750001540184,2|0,0:0|0:0,0:0:0:0:
217,141,77957,2,0,L|237:40,1,80.750001540184,2|0,0:0|0:0,0:0:0:0:
295,243,78302,2,0,L|275:344,1,80.750001540184,2|0,0:0|0:0,0:0:0:0:
176,232,78646,21,2,0:0:0:0:
324,223,78991,1,0,0:0:0:0:
148,207,79336,1,2,0:0:0:0:
354,202,79681,1,0,0:0:0:0:
122,183,80026,21,2,0:0:0:0:
93,158,80715,1,0,0:0:0:0:
68,130,81405,1,2,0:0:0:0:
46,105,82094,1,0,0:0:0:0:
100,181,82784,22,0,L|201:170,1,80.750001540184,2|0,0:0|0:0,0:0:0:0:
332,300,83129,2,0,L|318:205,1,80.750001540184,2|0,0:0|0:0,0:0:0:0:
199,284,83474,2,0,L|214:376,1,80.750001540184,2|0,0:0|0:0,0:0:0:0:
340,193,83819,2,0,L|440:178,1,80.750001540184,2|2,0:0|0:0,0:0:0:0:
419,181,84077,1,2,0:0:0:0:
419,181,84163,1,0,0:0:0:0:
358,101,84336,22,0,L|257:115,1,80.750001540184,2|2,0:2|1:2,0:0:0:0:
189,128,84681,1,0,1:0:0:0:
103,292,84853,22,0,P|89:246|82:198,1,80.750001540184,2|2,1:2|1:2,0:0:0:0:
246,268,85198,2,0,P|244:326|239:357,1,80.750001540184,2|0,1:2|1:2,0:0:0:0:
388,334,85543,21,4,1:2:0:0:
388,334,86577,22,0,L|325:339,1,47.5,2|0,0:0|0:0,0:0:0:0:
131,261,86922,2,0,L|204:267,1,61.7499971733095,2|0,0:0|0:0,0:0:0:0:
430,226,87267,2,0,L|349:238,1,61.7499971733095,2|0,0:0|0:0,0:0:0:0:
85,143,87612,2,0,L|180:168,1,76,2|0,0:0|0:0,0:0:0:0:
505,78,87957,2,0,L|419:116,1,85.4999973907472,2|0,0:0|0:0,0:0:0:0:
70,344,88301,22,0,P|56:299|45:242,1,95,4|0,1:1|0:0,0:0:0:0:
158,48,88646,2,2,P|178:99|161:199,1,142.5,0|0,1:0|1:0,0:0:0:0:
168,184,88991,1,4,2:2:0:0:
283,156,89163,2,2,L|356:142,2,47.5,0|0|2,0:0|2:0|1:1,0:0:0:0:
152,210,89508,1,0,0:0:0:0:
158,48,89681,22,0,P|120:104|111:149,1,95,4|0,1:3|0:0,0:0:0:0:
71,226,90026,1,0,1:0:0:0:
323,260,90198,21,2,0:2:0:0:
323,260,90284,1,2,0:2:0:0:
323,260,90370,1,4,1:2:0:0:
263,147,90543,1,2,1:2:0:0:
357,169,90715,1,4,1:2:0:0:
292,352,90888,1,2,0:2:0:0:
462,278,91060,22,0,L|445:174,1,95,4|0,1:3|0:0,0:0:0:0:
260,32,91405,1,0,1:0:0:0:
369,89,91577,1,2,0:2:0:0:
369,89,91663,1,2,0:2:0:0:
369,89,91750,2,0,P|431:95|486:81,1,95,4|0,0:2|1:0,0:0:0:0:
179,157,92094,2,0,P|131:167|87:189,1,95,0|0,1:0|0:0,0:0:0:0:
392,244,92439,22,0,P|408:294|410:349,1,95,4|0,1:3|0:0,0:0:0:0:
179,157,92784,2,0,P|180:108|196:49,1,95,0|0,1:0|0:2,0:0:0:0:
330,177,93129,21,8,1:3:0:0:
212,242,93301,1,4,1:2:0:0:
328,208,93474,21,4,1:3:0:0:
206,277,93646,1,4,0:2:0:0:
330,177,93819,22,0,P|391:165|438:164,1,95,4|0,1:1|0:0,0:0:0:0:
212,242,94163,2,2,P|162:278|60:267,1,142.5,0|0,1:0|1:0,0:0:0:0:
83,278,94508,1,4,2:2:0:0:
274,307,94681,2,2,L|332:315,2,47.5,0|0|2,1:0|2:0|1:0,0:0:0:0:
126,185,95026,1,0,0:0:0:0:
380,375,95198,22,0,P|401:322|393:265,1,95,4|0,1:3|0:0,0:0:0:0:
357,188,95543,1,0,1:0:0:0:
468,30,95715,21,2,0:2:0:0:
468,30,95801,1,2,0:2:0:0:
468,30,95888,1,4,1:2:0:0:
374,75,96060,1,2,1:2:0:0:
459,135,96232,1,4,1:2:0:0:
489,235,96405,1,2,0:2:0:0:
260,349,96577,22,0,P|254:298|250:251,2,95,4|0|0,1:3|0:0|1:0,0:0:0:0:
374,75,97094,2,0,B|404:115|418:161|418:161|402:213|368:266,1,190,4|0,1:3|1:0,0:0:0:0:
174,108,97612,2,0,P|231:97|286:87,1,95,4|0,1:3|0:0,0:0:0:0:
312,175,97957,21,0,0:0:0:0:
96,80,98129,2,0,L|38:57,2,47.5,4|2|2,0:3|0:2|0:2,0:0:0:0:
188,218,98474,1,8,0:3:0:0:
116,168,98646,22,2,B|149:138|149:138|250:119,1,142.5,4|2,0:3|0:2,0:0:0:0:
245,119,98991,2,2,P|268:171|255:232,1,95,4|2,0:3|0:2,0:0:0:0:
460,135,99336,22,0,P|407:138|355:108,1,95,4|0,1:0|0:0,0:0:0:0:
34,259,99681,2,2,P|88:223|172:213,1,142.5,0|0,1:0|1:0,0:0:0:0:
163,211,100026,1,4,2:2:0:0:
34,154,100198,2,2,L|19:90,2,47.5,0|0|2,1:0|2:0|1:0,0:0:0:0:
122,305,100543,1,0,0:0:0:0:
254,212,100715,22,0,P|262:154|257:94,1,95,4|0,1:3|0:0,0:0:0:0:
198,32,101060,1,0,1:0:0:0:
454,124,101232,21,2,0:2:0:0:
454,124,101319,1,2,0:2:0:0:
454,124,101405,1,4,1:2:0:0:
478,225,101577,1,2,1:2:0:0:
401,297,101750,1,4,1:2:0:0:
374,196,101922,1,2,0:2:0:0:
288,330,102094,22,0,P|236:323|173:331,1,95,4|0,1:3|0:0,0:0:0:0:
17,238,102439,2,0,P|66:248|170:230,1,142.5,0|0,1:0|1:0,0:0:0:0:
156,235,102784,1,4,0:2:0:0:
196,151,102957,1,0,1:0:0:0:
333,75,103129,2,0,P|274:65|220:77,1,95,0|0,1:0|0:0,0:0:0:0:
220,321,103474,22,0,P|279:331|333:319,1,95,4|0,1:3|0:0,0:0:0:0:
411,290,103819,1,0,1:0:0:0:
196,151,103991,21,2,0:2:0:0:
196,151,104077,1,2,0:2:0:0:
196,151,104163,1,8,1:3:0:0:
129,70,104336,1,4,1:2:0:0:
291,130,104508,1,4,1:3:0:0:
164,249,104681,1,4,0:2:0:0:
291,130,104853,22,0,P|345:120|397:114,1,95,4|0,1:0|0:0,0:0:0:0:
164,249,105198,2,2,P|121:217|13:196,1,142.5,0|0,1:0|1:0,0:0:0:0:
35,194,105543,1,4,2:2:0:0:
196,151,105715,2,2,L|202:86,2,47.5,0|0|2,1:0|2:0|1:0,0:0:0:0:
167,339,106060,1,0,0:0:0:0:
255,218,106232,22,0,L|361:221,1,95,4|0,1:3|0:0,0:0:0:0:
507,90,106577,2,0,L|404:110,1,95,0|2,1:0|0:2,0:0:0:0:
395,113,106836,1,2,0:2:0:0:
376,117,106922,1,4,0:2:0:0:
357,122,107008,1,0,0:0:0:0:
338,127,107094,1,2,1:2:0:0:
342,315,107267,2,0,P|348:263|351:203,1,95,4|2,1:2|0:2,0:0:0:0:
243,26,107612,22,0,P|247:78|256:126,2,95,4|0|0,1:3|0:0|1:0,0:0:0:0:
426,327,108129,2,0,B|446:289|457:241|457:241|442:190|408:156,1,190,4|0,1:3|1:0,0:0:0:0:
227,314,108646,2,0,L|332:299,1,95,4|0,0:3|0:0,0:0:0:0:
125,331,108991,21,4,0:3:0:0:
171,238,109163,2,0,L|198:184,2,47.5,4|2|2,0:3|0:2|0:2,0:0:0:0:
109,357,109508,1,8,0:3:0:0:
257,218,109681,22,2,P|202:212|145:143,1,142.5,4|2,0:3|0:2,0:0:0:0:
146,149,110026,2,2,P|89:133|32:137,1,95,4|2,0:3|0:2,0:0:0:0:
253,121,110370,22,2,P|306:112|357:76,1,95,4|0,1:0|2:0,0:0:0:0:
505,175,110715,2,2,P|434:167|379:186,1,95,4|2,1:2|0:2,0:0:0:0:
399,187,110974,1,2,0:2:0:0:
387,202,111060,1,0,0:2:0:0:
438,299,111232,1,2,1:2:0:0:
447,282,111319,1,2,0:2:0:0:
455,265,111405,1,4,1:2:0:0:
315,149,111577,1,2,0:2:0:0:
431,319,111750,22,0,B|367:323|367:323|315:355|315:355|234:362,1,190,0|4,1:0|1:2,0:0:0:0:
283,256,112267,1,2,0:2:0:0:
283,256,112439,2,0,B|312:235|312:235|385:232,1,95,0|2,1:0|1:2,0:0:0:0:
143,320,112784,2,0,B|114:341|114:341|41:344,1,95,4|2,1:2|0:2,0:0:0:0:
54,343,113043,1,2,0:2:0:0:
54,343,113129,1,4,1:0:0:0:
60,147,113301,22,0,L|82:262,1,95,2|4,0:2|1:2,0:0:0:0:
189,110,113646,1,2,0:2:0:0:
189,110,113732,1,2,0:2:0:0:
189,110,113819,2,0,L|195:215,1,95,0|2,0:0|1:2,0:0:0:0:
324,138,114163,2,0,L|310:252,1,95,4|2,1:2|0:2,0:0:0:0:
473,360,114508,22,0,L|463:250,1,95,4|2,1:0|0:2,0:0:0:0:
291,242,114853,2,0,P|353:239|389:225,1,95,4|2,1:2|0:2,0:0:0:0:
220,83,115198,2,0,P|212:142|223:186,1,95,4|0,1:1|1:0,0:0:0:0:
125,335,115543,2,0,P|176:304|200:266,1,95,6|0,1:2|0:0,0:0:0:0:
402,108,115888,22,2,L|295:126,1,95,4|0,1:0|2:0,0:0:0:0:
7,91,116232,2,2,L|114:73,1,95,4|2,1:2|0:2,0:0:0:0:
119,72,116491,1,2,0:2:0:0:
137,69,116577,1,0,0:0:0:0:
92,209,116750,1,2,1:2:0:0:
96,190,116836,1,2,0:2:0:0:
101,171,116922,1,4,1:2:0:0:
217,128,117094,1,2,0:2:0:0:
87,229,117267,22,0,B|149:219|149:219|208:243|208:243|282:233,1,190,0|4,1:0|1:2,0:0:0:0:
340,146,117784,1,2,0:2:0:0:
340,146,117957,2,0,B|308:137|308:137|238:149,1,95,0|2,1:0|1:2,0:0:0:0:
165,329,118301,2,0,B|197:338|197:338|267:326,1,95,4|2,1:2|0:2,0:0:0:0:
475,276,118646,22,0,P|483:335|479:384,2,95,4|2|4,1:0|0:2|1:2,0:0:0:0:
315,47,119163,2,2,B|283:83|260:124|260:124|261:176|275:243,1,190,2|2,2:2|1:1,0:0:0:0:
196,369,119681,2,0,P|195:320|181:262,1,95,2|2,1:1|0:2,0:0:0:0:
88,253,120026,21,4,1:0:0:0:
311,292,120198,2,0,L|375:300,2,47.5,6|2|4,0:2|0:2|0:2,0:0:0:0:
70,291,120543,1,2,0:2:0:0:
103,30,120715,22,2,P|97:62|120:168,1,142.5,4|2,0:2|2:2,0:0:0:0:
120,168,121060,2,2,P|185:152|232:152,1,95,4|2,0:2|2:2,0:0:0:0:
337,297,121405,22,2,P|290:248|267:208,1,95,4|0,1:0|2:0,0:0:0:0:
339,43,121750,2,2,P|320:107|296:147,1,95,4|2,1:2|0:2,0:0:0:0:
292,143,122008,1,2,0:2:0:0:
275,152,122094,1,0,0:0:0:0:
422,117,122267,1,2,1:2:0:0:
420,98,122353,1,2,0:2:0:0:
420,79,122439,1,4,1:2:0:0:
242,58,122612,1,2,0:2:0:0:
424,136,122784,22,0,P|362:165|311:236,1,142.5,0|0,1:0|1:0,0:0:0:0:
316,221,123129,1,4,1:2:0:0:
154,279,123301,2,0,P|206:282|258:268,1,95,6|0,1:2|0:0,0:0:0:0:
403,384,123646,2,0,P|388:326|360:282,1,95,6|4,1:2|1:2,0:0:0:0:
199,194,123991,21,2,0:2:0:0:
199,194,124077,1,2,0:2:0:0:
199,194,124163,1,4,1:0:0:0:
285,131,124336,2,0,L|373:71,1,95,2|4,0:2|1:2,0:0:0:0:
110,143,124681,1,2,0:2:0:0:
110,143,124767,1,2,0:2:0:0:
110,143,124853,2,0,L|3:102,1,95,0|2,0:0|1:2,0:0:0:0:
214,291,125198,2,0,L|228:384,1,95,4|2,1:2|0:2,0:0:0:0:
389,212,125543,22,0,P|334:195|273:204,1,95,4|2,1:0|0:2,0:0:0:0:
44,296,125888,2,0,P|99:278|136:251,1,95,4|2,1:2|0:2,0:0:0:0:
230,111,126232,2,0,P|205:167|209:223,1,95,4|6,1:0|1:2,0:0:0:0:
458,342,126577,2,0,P|483:286|479:230,1,95,4|2,1:2|0:2,0:0:0:0:
197,278,126922,22,2,P|146:291|89:276,1,95,4|0,1:0|2:0,0:0:0:0:
277,236,127267,2,2,P|328:223|385:238,1,95,4|2,1:2|0:2,0:0:0:0:
378,246,127526,1,2,0:2:0:0:
387,262,127612,1,0,0:0:0:0:
205,167,127784,1,2,1:2:0:0:
201,148,127870,1,2,0:2:0:0:
197,129,127957,1,4,1:2:0:0:
367,138,128129,1,2,0:2:0:0:
210,187,128301,22,0,P|145:196|59:147,1,142.5,0|0,1:0|1:0,0:0:0:0:
76,165,128646,1,4,1:2:0:0:
285,128,128819,1,6,1:2:0:0:
285,128,128991,2,0,P|299:77|296:23,1,95,0|6,1:0|1:2,0:0:0:0:
302,219,129336,2,0,P|338:264|388:283,1,95,4|2,1:2|0:2,0:0:0:0:
156,70,129681,22,0,P|100:78|41:93,2,95,4|2|4,1:0|0:2|1:2,0:0:0:0:
492,323,130198,2,2,B|397:347|403:272|307:302,1,190,2|2,2:2|1:1,0:0:0:0:
116,324,130715,2,0,P|178:333|230:313,1,95,2|2,1:1|0:2,0:0:0:0:
234,133,131060,22,0,P|232:186|243:234,1,95,4|2,1:0|0:2,0:0:0:0:
241,226,131319,1,2,0:2:0:0:
241,226,131405,1,4,0:2:0:0:
317,116,131577,1,2,0:2:0:0:
174,19,131750,21,4,1:1:0:0:
317,116,131922,1,4,1:2:0:0:
151,176,132094,21,0,1:2:0:0:
317,116,132267,1,4,0:2:0:0:
206,294,132439,22,0,P|148:307|76:309,1,95,4|2,1:1|0:0,0:0:0:0:
29,262,132784,1,0,1:0:0:0:
81,182,132957,2,0,P|91:129|93:67,1,95,2|0,0:0|0:0,0:0:0:0:
4,107,133301,1,2,1:2:0:0:
182,158,133474,2,0,L|282:136,1,95,0|0,1:0|0:0,0:0:0:0:
466,163,133819,21,0,1:0:0:0:
387,117,133991,2,0,P|368:167|361:220,1,95,2|0,0:2|1:0,0:0:0:0:
462,76,134336,2,0,L|481:21,2,47.5,2|2|4,0:2|0:2|0:2,0:0:0:0:
476,253,134681,1,2,1:2:0:0:
365,42,134853,1,4,1:2:0:0:
393,204,135026,1,2,0:2:0:0:
212,56,135198,22,0,P|159:68|96:74,1,95,4|2,1:2|0:2,0:0:0:0:
27,46,135543,1,0,1:0:0:0:
105,165,135715,2,0,L|118:271,1,95,2|0,0:2|0:0,0:0:0:0:
25,224,136060,1,2,1:2:0:0:
193,209,136232,2,0,L|293:197,1,95,0|0,1:0|0:0,0:0:0:0:
478,302,136577,21,0,1:0:0:0:
374,321,136750,2,0,P|383:264|406:220,1,95,2|0,0:2|1:0,0:0:0:0:
484,172,137094,1,2,1:2:0:0:
484,172,137181,1,2,1:2:0:0:
484,172,137267,1,4,1:2:0:0:
383,71,137439,1,2,1:2:0:0:
242,42,137612,1,4,1:2:0:0:
382,268,137957,22,0,P|376:325|369:364,2,95,4|2|0,1:0|0:2|1:0,0:0:0:0:
310,155,138474,2,0,P|242:191|101:179,1,190,2|2,0:2|1:2,0:0:0:0:
404,172,138991,2,0,P|450:142|501:127,1,95,0|0,1:0|0:0,0:0:0:0:
382,267,139336,21,0,1:0:0:0:
361,87,139508,2,0,L|355:18,2,47.5,2|2|0,0:2|0:2|1:0,0:0:0:0:
382,267,139853,1,2,0:2:0:0:
311,155,140026,2,0,P|257:156|205:177,1,95,4|2,0:2|1:2,0:0:0:0:
405,172,140370,2,0,P|459:171|511:150,1,95,4|2,1:2|0:2,0:0:0:0:
286,74,140715,22,0,P|196:88|104:165,1,190,4|0,1:2|1:0,0:0:0:0:
197,338,141232,2,0,P|287:324|379:247,1,190,2|2,0:2|1:2,0:0:0:0:
113,284,141750,2,0,P|63:248|6:244,1,95,0|0,1:0|0:0,0:0:0:0:
117,374,142094,21,0,1:0:0:0:
192,248,142267,2,0,L|218:191,2,47.5,2|2|0,0:2|0:2|1:0,0:0:0:0:
117,374,142612,1,2,0:2:0:0:
197,338,142784,2,0,P|256:343|319:367,1,95,4|2,1:2|1:2,0:0:0:0:
35,333,143129,1,4,1:2:0:0:
223,62,143474,22,0,L|203:166,1,95,4|2,1:0|0:2,0:0:0:0:
205,155,143732,1,2,0:2:0:0:
205,155,143819,1,0,1:0:0:0:
356,375,143991,2,0,L|376:271,1,95,2|2,0:2|0:2,0:0:0:0:
373,281,144249,1,2,0:2:0:0:
373,281,144336,1,2,1:2:0:0:
355,115,144508,1,0,1:2:0:0:
60,251,144853,22,0,P|124:259|178:243,1,95,0|2,1:0|0:2,0:0:0:0:
421,207,145198,2,0,P|357:199|303:215,1,95,0|2,1:0|0:2,0:0:0:0:
316,220,145457,1,2,0:2:0:0:
305,235,145543,1,4,0:2:0:0:
249,329,145715,1,2,1:2:0:0:
224,170,145888,2,0,L|214:60,1,95,4|2,1:2|0:2,0:0:0:0:
333,104,146232,22,0,P|400:91|441:48,1,95,4|2,1:2|0:2,0:0:0:0:
420,75,146491,1,2,0:2:0:0:
420,75,146577,1,0,1:0:0:0:
499,280,146750,2,0,P|461:235|396:219,1,95,2|2,0:2|0:2,0:0:0:0:
428,221,147008,1,2,0:2:0:0:
428,221,147094,1,2,1:2:0:0:
371,362,147267,1,0,1:0:0:0:
97,71,147612,22,0,P|71:111|51:163,1,95,0|2,1:0|0:2,0:0:0:0:
94,357,147957,2,0,L|140:265,1,95,0|2,1:0|0:2,0:0:0:0:
145,255,148215,1,2,0:2:0:0:
153,238,148301,1,4,0:2:0:0:
162,221,148388,1,0,0:2:0:0:
171,204,148474,1,2,1:2:0:0:
337,172,148646,2,0,P|361:236|368:273,1,95,4|2,1:2|0:2,0:0:0:0:
246,134,148991,22,0,P|313:147|445:71,1,190,4|0,1:0|1:0,0:0:0:0:
485,29,149508,1,2,0:2:0:0:
485,29,149594,1,2,0:2:0:0:
485,29,149681,1,0,0:0:0:0:
511,116,149853,1,2,1:2:0:0:
391,25,150026,1,4,1:2:0:0:
504,224,150198,21,2,0:2:0:0:
504,224,150284,1,2,0:2:0:0:
504,224,150370,2,0,P|448:208|394:207,1,95,4|2,1:0|0:2,0:0:0:0:
327,251,150715,1,0,1:0:0:0:
221,351,150888,1,2,0:2:0:0:
221,351,150974,1,2,0:2:0:0:
221,351,151060,2,0,P|277:367|331:368,1,95,0|2,0:0|1:2,0:0:0:0:
398,324,151405,1,4,1:2:0:0:
212,243,151577,21,2,0:2:0:0:
212,243,151663,1,2,0:2:0:0:
212,243,151750,1,4,1:0:0:0:
120,220,151922,2,0,L|9:195,1,95,2|4,0:2|1:2,0:0:0:0:
192,154,152267,1,2,0:2:0:0:
192,154,152353,1,2,0:2:0:0:
192,154,152440,1,4,1:1:0:0:
284,131,152612,2,0,L|395:106,1,95,2|4,1:2|1:2,0:0:0:0:
225,69,152957,21,2,0:2:0:0:
225,69,153043,1,2,0:2:0:0:
225,69,153130,1,4,1:0:0:0:
37,62,153302,2,0,L|129:82,1,95,2|4,0:2|1:2,0:0:0:0:
360,207,153646,1,2,0:2:0:0:
358,188,153732,1,2,0:2:0:0:
356,168,153819,1,4,1:1:0:0:
354,149,153905,1,2,0:2:0:0:
352,130,153991,1,6,1:2:0:0:
492,89,154163,2,0,P|479:151|475:182,1,95,4|0,1:2|0:0,0:0:0:0:
372,352,154508,22,0,L|262:339,1,95,4|2,1:0|0:2,0:0:0:0:
187,373,154853,1,0,1:0:0:0:
247,149,155026,2,0,P|256:201|262:261,1,95,2|0,0:2|0:0,0:0:0:0:
165,219,155370,1,4,1:2:0:0:
343,181,155543,1,0,1:0:0:0:
233,59,155715,21,6,0:2:0:0:
233,59,155801,1,2,0:2:0:0:
233,59,155888,2,0,L|117:81,1,95,0|2,1:0|0:2,0:0:0:0:
340,112,156232,2,0,L|456:90,1,95,4|2,1:2|0:2,0:0:0:0:
452,90,156491,1,2,0:2:0:0:
470,86,156577,1,0,0:0:0:0:
502,191,156750,1,2,1:2:0:0:
470,298,156922,1,4,1:2:0:0:
93,306,157267,22,0,P|100:250|112:198,1,95,4|2,1:0|0:2,0:0:0:0:
238,64,157612,2,0,P|253:127|260:219,1,142.5,0|2,1:0|0:2,0:0:0:0:
260,204,157957,2,0,P|307:220|374:211,1,95,0|4,0:0|1:2,0:0:0:0:
110,245,158301,2,0,P|53:236|-4:249,1,95,0|4,1:0|0:2,0:0:0:0:
201,265,158646,22,0,P|279:300|390:289,1,190,0|4,1:0|1:2,0:0:0:0:
381,292,159163,1,2,0:2:0:0:
478,154,159336,1,0,0:0:0:0:
478,154,159508,1,6,1:2:0:0:
468,252,159681,1,4,1:2:0:0:
468,252,159853,1,2,0:2:0:0:
385,83,160026,22,0,L|397:189,1,95,4|2,1:0|0:2,0:0:0:0:
476,77,160370,1,0,1:0:0:0:
306,144,160543,2,0,P|249:144|180:134,1,95,2|0,0:2|0:0,0:0:0:0:
70,116,160888,1,4,1:2:0:0:
190,62,161060,1,0,1:0:0:0:
130,184,161232,21,6,0:2:0:0:
130,184,161319,1,2,0:2:0:0:
130,184,161405,1,0,1:0:0:0:
67,264,161577,2,0,P|52:312|45:361,1,95,2|4,0:2|1:2,0:0:0:0:
265,302,161922,2,0,P|216:281|161:271,1,95,2|0,0:2|0:0,0:0:0:0:
365,332,162267,1,2,1:2:0:0:
338,221,162439,2,0,P|384:206|432:178,1,95,4|2,1:2|0:2,0:0:0:0:
211,81,162784,22,0,P|236:136|246:190,1,95,4|2,1:0|0:2,0:0:0:0:
0,207,163129,2,0,P|48:185|145:185,1,142.5,0|2,1:0|0:2,0:0:0:0:
136,182,163474,2,0,P|128:232|130:286,1,95,0|4,0:0|1:2,0:0:0:0:
234,339,163819,1,0,1:0:0:0:
240,151,163991,21,6,0:2:0:0:
240,151,164077,1,2,0:2:0:0:
240,151,164163,2,0,P|334:152|447:109,1,190,0|4,1:0|1:2,0:0:0:0:
424,122,164681,1,6,0:2:0:0:
349,58,164853,1,0,0:0:0:0:
349,58,165026,1,2,1:2:0:0:
407,214,165198,1,4,1:2:0:0:
407,214,165370,1,2,0:2:0:0:
269,104,165543,22,0,P|217:96|143:114,1,95,4|2,1:0|0:2,0:0:0:0:
78,142,165888,1,0,1:0:0:0:
38,332,166060,2,0,P|90:340|164:322,1,95,2|0,0:2|0:0,0:0:0:0:
229,294,166405,1,4,1:2:0:0:
479,168,166577,22,0,P|427:160|353:178,1,95,0|4,1:0|0:2,0:0:0:0:
288,206,166922,1,0,1:0:0:0:
310,363,167094,2,0,P|362:371|436:353,1,95,2|4,0:2|1:2,0:0:0:0:
501,325,167439,1,2,0:2:0:0:
398,135,167612,22,0,L|393:23,1,95,0|2,0:0|1:2,0:0:0:0:
184,179,167957,2,0,L|189:291,1,95,4|2,1:2|0:2,0:0:0:0:
38,265,168301,22,0,P|38:207|56:158,1,95,4|2,1:0|0:2,0:0:0:0:
97,78,168646,1,0,1:0:0:0:
281,191,168819,2,0,P|281:249|263:298,1,95,2|0,0:2|0:0,0:0:0:0:
222,378,169164,1,4,1:2:0:0:
141,250,169336,22,0,P|141:192|159:143,1,95,0|4,1:0|0:2,0:0:0:0:
200,63,169681,1,0,1:0:0:0:
384,176,169854,2,0,P|384:234|366:283,1,95,2|4,0:2|1:2,0:0:0:0:
197,353,170199,21,2,0:2:0:0:
197,353,170284,1,2,0:2:0:0:
197,353,170370,2,0,L|76:339,1,95,0|2,0:0|1:2,0:0:0:0:
260,273,170715,2,0,L|203:193,1,95,4|2,1:2|0:2,0:0:0:0:
353,237,171060,22,0,L|348:127,1,95,4|2,1:0|0:2,0:0:0:0:
342,37,171405,1,0,1:0:0:0:
77,93,171577,21,2,0:2:0:0:
77,93,171663,1,2,0:2:0:0:
77,93,171750,1,0,0:0:0:0:
173,53,171922,1,6,1:2:0:0:
245,128,172094,1,4,1:2:0:0:
148,255,172267,21,2,0:2:0:0:
148,255,172353,1,2,0:2:0:0:
148,255,172439,2,0,P|153:197|159:147,2,95,4|2|0,1:0|0:2|1:0,0:0:0:0:
324,352,172957,21,2,0:2:0:0:
324,352,173043,1,2,0:2:0:0:
324,352,173129,1,0,0:0:0:0:
428,354,173301,1,6,1:2:0:0:
465,255,173474,1,4,1:2:0:0:
230,229,173646,21,2,0:2:0:0:
230,229,173732,1,2,0:2:0:0:
230,229,173819,2,0,P|278:238|345:219,1,95,4|6,1:0|0:2,0:0:0:0:
416,183,174163,1,4,1:2:0:0:
270,61,174336,21,2,0:2:0:0:
270,61,174422,1,2,0:2:0:0:
270,61,174509,2,0,P|222:52|155:71,1,95,4|6,1:0|1:2,0:0:0:0:
84,107,174853,1,4,1:2:0:0:
45,302,175026,21,2,0:2:0:0:
45,302,175112,1,2,0:2:0:0:
45,302,175198,2,0,P|93:311|160:292,1,95,4|6,1:0|0:2,0:0:0:0:
294,148,175543,2,0,P|246:139|179:158,1,95,0|6,1:0|0:2,0:0:0:0:
317,287,175888,21,4,1:0:0:0:
340,290,175974,1,0,1:0:0:0:
419,193,176146,1,0,0:0:0:0:
396,196,176232,1,0,1:0:0:0:
477,278,176405,1,0,1:0:0:0:
446,100,176577,21,4,1:0:0:0:
300,214,176750,1,2,0:2:0:0:
446,100,176922,2,0,P|393:83|334:95,1,95,0|2,1:0|0:2,0:0:0:0:
340,100,177181,1,2,0:2:0:0:
326,113,177267,1,4,0:2:0:0:
300,214,177439,1,2,1:2:0:0:
128,132,177612,22,2,L|223:143,2,95,0|2|2,1:0|2:2|1:0,0:0:0:0:
33,115,178129,1,2,0:1:0:0:
201,61,178301,2,0,L|258:49,2,47.5,2|2|2,1:2|0:2|0:2,0:0:0:0:
33,115,178646,22,0,P|34:181|50:219,1,95,4|2,1:2|1:2,0:0:0:0:
117,304,178991,2,0,P|166:282|223:280,1,95,4|2,1:2|0:2,0:0:0:0:
382,352,179336,21,4,1:0:0:0:
253,358,179508,1,2,0:2:0:0:
320,294,179681,2,0,L|334:190,1,95,0|2,1:0|0:2,0:0:0:0:
336,181,179939,1,2,0:2:0:0:
339,162,180026,1,6,0:2:0:0:
342,143,180112,1,2,0:2:0:0:
346,124,180198,1,2,1:2:0:0:
512,212,180370,2,0,L|413:202,1,95,0|2,1:0|0:2,0:0:0:0:
248,187,180715,21,0,1:0:0:0:
264,93,180888,1,2,0:2:0:0:
233,183,181060,2,2,L|216:289,1,95,0|2,1:0|2:1,0:0:0:0:
276,101,181405,22,2,L|287:36,2,47.5,4|0|0,1:2|2:0|1:0,0:0:0:0:
338,184,181750,1,4,1:2:0:0:
166,105,181922,1,2,2:1:0:0:
63,238,182094,22,0,P|61:292|70:334,1,95,4|2,1:0|0:2,0:0:0:0:
251,313,182439,2,0,P|253:259|244:217,1,95,0|2,1:0|0:2,0:0:0:0:
237,201,182698,1,2,0:2:0:0:
230,183,182784,1,4,0:2:0:0:
164,280,182957,1,2,1:2:0:0:
339,251,183129,22,2,L|438:237,2,95,0|0|2,1:0|2:0|1:0,0:0:0:0:
164,280,183646,1,2,0:1:0:0:
256,316,183819,2,0,L|311:329,2,47.5,2|2|2,1:2|0:2|0:2,0:0:0:0:
81,340,184163,22,0,P|65:290|68:236,1,95,4|2,1:2|1:2,0:0:0:0:
258,170,184508,2,0,P|316:178|372:158,1,95,4|2,1:2|0:2,0:0:0:0:
178,122,184853,22,0,P|98:111|-5:170,1,190,4|0,1:0|1:0,0:0:0:0:
201,244,185370,1,2,0:2:0:0:
201,244,185457,1,2,0:2:0:0:
201,244,185543,2,0,P|249:269|299:279,1,95,4|2,0:2|1:2,0:0:0:0:
413,359,185888,2,0,P|427:306|426:255,1,95,0|2,1:0|0:2,0:0:0:0:
421,92,186232,22,0,P|375:121|341:159,1,95,0|2,1:0|0:2,0:0:0:0:
349,169,186491,1,2,0:2:0:0:
351,187,186577,1,0,1:0:0:0:
458,270,186750,22,2,L|447:169,1,95,4|4,2:2|1:2,0:0:0:0:
336,318,187094,2,2,L|325:376,2,47.5,0|0|4,1:0|2:0|1:2,0:0:0:0:
443,360,187439,1,2,2:1:0:0:
269,248,187612,22,0,P|210:237|154:253,1,95,4|2,1:0|0:2,0:0:0:0:
168,260,187870,1,2,0:2:0:0:
160,277,187957,1,0,1:0:0:0:
241,341,188129,1,2,0:2:0:0:
298,161,188301,2,0,L|409:148,1,95,4|2,0:2|1:2,0:0:0:0:
497,133,188646,1,0,1:0:0:0:
349,243,188819,1,2,0:2:0:0:
249,83,188991,22,2,P|195:73|137:88,1,95,0|0,1:0|2:0,0:0:0:0:
69,230,189336,2,2,P|123:240|181:225,1,95,0|0,1:0|0:0,0:0:0:0:
343,138,189681,22,0,L|452:114,1,95,4|2,1:2|1:2,0:0:0:0:
400,281,190026,2,0,L|320:231,1,95,4|2,1:2|0:2,0:0:0:0:
502,226,190370,21,4,1:0:0:0:
52,331,190715,1,0,1:0:0:0:
52,331,190888,1,2,0:2:0:0:
84,234,191060,2,0,P|129:265|147:319,1,95,4|2,0:2|1:2,0:0:0:0:
221,369,191405,2,0,P|250:318|297:293,1,95,0|2,1:0|0:2,0:0:0:0:
472,229,191750,22,0,P|424:232|375:211,1,95,0|2,1:0|0:2,0:0:0:0:
369,200,192008,1,2,0:2:0:0:
362,182,192094,1,0,1:0:0:0:
410,89,192267,1,2,2:1:0:0:
505,130,192439,1,4,1:2:0:0:
441,329,192612,21,2,1:0:0:0:
441,329,192784,2,2,L|335:349,1,95,4|2,1:2|2:1,0:0:0:0:
298,101,193129,22,0,L|190:81,1,95,4|2,1:0|0:2,0:0:0:0:
185,79,193388,1,2,0:2:0:0:
166,75,193474,1,0,1:0:0:0:
222,218,193646,1,2,0:2:0:0:
52,113,193819,2,0,P|39:170|47:220,1,95,4|2,0:2|1:2,0:0:0:0:
222,218,194163,2,0,P|176:186|124:177,1,95,0|2,1:0|0:2,0:0:0:0:
301,267,194508,22,2,P|354:265|401:239,1,95,4|0,1:0|2:0,0:0:0:0:
177,299,194853,2,2,P|122:293|61:305,1,95,0|2,1:0|0:2,0:0:0:0:
71,313,195112,1,2,0:2:0:0:
59,328,195198,1,4,1:2:0:0:
264,367,195370,1,2,1:2:0:0:
264,367,195543,2,0,L|260:260,1,95,4|2,1:2|0:2,0:0:0:0:
365,234,195888,22,0,P|429:237|475:224,1,95,4|2,1:0|0:2,0:0:0:0:
506,137,196232,1,4,1:2:0:0:
301,54,196405,1,2,0:2:0:0:
301,54,196491,1,2,0:2:0:0:
301,54,196577,2,0,L|181:72,1,95,4|2,1:0|1:2,0:0:0:0:
139,191,196922,2,0,L|259:173,1,95,4|2,1:2|0:2,0:0:0:0:
335,156,197267,21,4,1:0:0:0:
143,94,197439,2,0,L|83:82,2,47.5,6|2|4,0:2|0:2|1:2,0:0:0:0:
335,156,197784,1,2,2:2:0:0:
423,112,197957,22,2,L|436:166,3,47.5,4|0|4|0,1:0|2:0|1:2|2:0,0:0:0:0:
475,189,198301,2,2,P|421:206|375:249,1,95,4|0,1:2|2:0,0:0:0:0:
322,287,198646,21,4,1:0:0:0:
335,156,198819,2,0,L|340:99,2,47.5,2|2|4,0:2|0:2|1:2,0:0:0:0:
322,287,199163,1,2,0:2:0:0:
497,274,199336,2,0,P|436:271|394:298,1,95,0|2,0:0|1:2,0:0:0:0:
349,373,199681,1,4,1:2:0:0:
349,373,199853,1,2,0:2:0:0:
267,176,200026,22,2,L|146:205,1,95,4|0,1:0|2:0,0:0:0:0:
90,278,200370,1,4,1:2:0:0:
77,173,200543,1,0,2:0:0:0:
187,288,200715,22,2,P|175:338|141:380,1,95,0|4,1:0|1:2,0:0:0:0:
77,173,201060,2,2,P|89:123|123:81,1,95,4|4,1:0|2:2,0:0:0:0:
303,88,201405,22,2,P|370:110|475:73,1,142.5,4|2,1:0|1:2,0:0:0:0:
439,96,201750,1,4,1:2:0:0:
218,129,201922,1,6,1:2:0:0:
131,156,202094,2,0,P|75:156|28:178,1,95,0|2,0:0|1:2,0:0:0:0:
292,188,202439,2,0,P|340:216|378:261,1,95,4|2,1:2|0:2,0:0:0:0:
338,345,202784,21,4,1:0:0:0:
233,339,202957,1,2,0:2:0:0:
207,237,203129,1,4,1:2:0:0:
368,118,203301,21,2,0:2:0:0:
368,118,203474,2,0,P|387:63|390:16,1,95,2|4,1:2|1:2,0:0:0:0:
292,188,203819,2,0,P|297:246|310:292,1,95,4|4,1:0|0:2,0:0:0:0:
227,122,204163,22,0,P|162:136|52:106,1,142.5,4|2,1:0|1:2,0:0:0:0:
87,123,204508,1,4,1:2:0:0:
292,188,204681,1,6,1:2:0:0:
378,206,204853,2,0,P|446:203|487:183,1,95,0|2,0:0|1:2,0:0:0:0:
503,101,205198,1,4,1:2:0:0:
315,268,205370,1,2,0:2:0:0:
198,216,205543,22,2,P|145:248|108:292,1,95,4|0,1:0|0:0,0:0:0:0:
315,268,205888,2,2,P|345:312|359:363,1,95,4|0,1:2|0:0,0:0:0:0:
198,216,206232,2,2,P|182:163|177:109,1,95,0|4,1:0|1:2,0:0:0:0:
342,77,206577,2,2,P|338:129|321:176,1,95,4|4,1:0|0:2,0:0:0:0:
232,324,206922,22,2,P|172:330|124:314,1,95,4|2,1:0|2:2,0:0:0:0:
50,265,207267,1,4,1:2:0:0:
189,102,207439,22,0,P|180:152|167:212,2,95,2|0|2,0:2|0:0|1:2,0:0:0:0:
62,56,207957,2,0,P|65:108|73:164,1,95,4|2,1:2|0:2,0:0:0:0:
292,85,208301,22,0,P|349:66|400:71,1,95,4|2,1:0|0:2,0:0:0:0:
401,73,208560,1,2,0:2:0:0:
418,80,208646,1,4,1:2:0:0:
412,229,208819,2,0,P|355:248|304:243,1,95,2|2,0:2|1:2,0:0:0:0:
460,149,209163,2,0,L|515:141,2,47.5,4|0|4,1:2|0:0|1:0,0:0:0:0:
245,181,209508,1,4,0:2:0:0:
272,275,209681,21,4,1:0:0:0:
220,95,209853,2,0,L|207:33,2,47.5,2|2|4,0:2|0:2|1:2,0:0:0:0:
332,206,210198,1,2,0:2:0:0:
182,247,210370,2,0,P|124:245|66:226,1,95,0|2,0:0|1:2,0:0:0:0:
272,275,210715,2,0,P|328:269|385:276,1,95,4|2,1:2|0:2,0:0:0:0:
203,337,211060,21,4,1:0:0:0:
251,185,211232,1,2,0:0:0:0:
251,185,211319,1,0,0:0:0:0:
251,185,211405,1,4,1:2:0:0:
203,337,211577,1,2,0:0:0:0:
132,229,211750,22,2,P|128:169|137:125,1,95,0|4,1:0|1:2,0:0:0:0:
359,255,212094,2,2,P|363:315|354:359,1,95,4|4,1:0|0:2,0:0:0:0:
134,134,212439,22,2,P|197:147|273:105,1,142.5,0|2,1:1|1:2,0:0:0:0:
265,114,212784,1,4,1:2:0:0:
340,70,212957,1,6,1:2:0:0:
493,160,213129,2,0,P|450:151|398:123,1,95,0|2,0:0|1:2,0:0:0:0:
265,247,213474,2,0,P|308:209|327:165,1,95,4|2,1:2|0:2,0:0:0:0:
451,313,213819,22,0,P|412:268|396:207,1,95,4|2,1:0|0:2,0:0:0:0:
490,228,214163,1,4,1:2:0:0:
332,325,214336,1,2,0:2:0:0:
258,143,214508,2,0,L|251:238,2,95,2|4|4,1:2|1:2|1:0,0:0:0:0:
270,39,215026,1,4,0:2:0:0:
181,86,215198,21,4,1:0:0:0:
346,111,215370,2,0,L|411:116,2,47.5,2|2|4,0:2|0:2|1:2,0:0:0:0:
181,86,215715,1,2,0:2:0:0:
181,230,215888,2,0,P|245:241|297:208,1,95,0|2,0:0|1:2,0:0:0:0:
287,221,216146,1,2,0:2:0:0:
302,210,216232,1,4,1:2:0:0:
230,149,216405,1,2,0:2:0:0:
139,315,216577,22,2,P|81:316|32:335,1,95,4|0,1:0|0:0,0:0:0:0:
244,322,216922,2,2,P|291:319|344:296,1,95,4|0,1:2|0:0,0:0:0:0:
100,215,217267,2,2,P|88:165|94:107,1,95,0|4,1:0|1:2,0:0:0:0:
280,68,217612,2,2,P|282:111|270:161,1,95,4|4,1:0|0:2,0:0:0:0:
393,309,217957,22,2,P|431:264|446:213,2,95,4|6|4,1:0|2:2|1:2,0:0:0:0:
184,216,218474,21,2,0:2:0:0:
215,126,218646,1,4,1:0:0:0:
277,197,218819,1,6,1:2:0:0:
123,338,218991,21,4,1:2:0:0:
99,250,219163,1,2,0:2:0:0:
134,67,219336,22,0,L|114:175,1,95,0|0,1:0|0:2,0:0:0:0:
116,160,219594,1,0,0:2:0:0:
116,160,219681,1,0,0:0:0:0:
303,133,219853,1,0,0:0:0:0:
230,58,220026,22,0,L|210:166,1,95
212,151,220284,1,0,0:0:0:0:
212,151,220371,1,0,0:0:0:0:
344,272,220543,1,0,0:0:0:0:
372,186,220715,21,2,3:0:0:0:
153,357,221060,53,0,0:0:0:0:
153,357,221232,2,0,P|140:306|145:257,1,95,2|0,0:0|0:0,0:0:0:0:
204,218,221750,2,0,P|207:176|194:125,1,95,2|0,0:0|0:0,0:0:0:0:
127,88,222267,54,0,P|177:95|268:49,1,142.5,2|2,0:0|3:2,0:0:0:0:
342,38,222957,1,0,3:0:0:0:
454,150,223129,53,2,3:2:0:0:
372,123,223301,1,0,3:0:0:0:
340,210,223474,54,0,P|332:243|335:311,1,95,2|0,0:0|0:0,0:0:0:0:
285,362,223991,2,0,L|178:355,1,95,2|0,0:0|0:0,0:0:0:0:
114,350,224508,2,0,P|82:319|63:226,1,142.5,2|2,0:0|0:2,0:0:0:0:
80,96,225198,53,0,3:0:0:0:
16,153,225370,1,0,3:0:0:0:
164,129,225543,53,2,3:2:0:0:
179,212,225715,1,0,3:0:0:0:
241,79,225888,53,2,3:2:0:0:
317,116,226060,1,0,3:0:0:0:
311,256,226232,54,0,P|352:252|418:277,1,95,2|0,0:0|0:0,0:0:0:0:
473,237,226750,2,0,L|489:127,1,95,2|0,0:0|0:0,0:0:0:0:
425,96,227267,2,0,L|329:88,1,95,2|0,0:0|0:0,0:0:0:0:
259,116,227784,54,0,P|215:129|116:84,1,142.5,2|2,0:0|3:2,0:0:0:0:
48,64,228474,1,0,3:0:0:0:
5,203,228646,53,2,3:2:0:0:
86,175,228819,1,0,3:0:0:0:
140,339,228991,54,0,P|147:297|137:239,1,95,2|0,0:0|0:0,0:0:0:0:
191,190,229508,2,0,L|291:187,1,95,2|0,0:0|0:0,0:0:0:0:
344,142,230026,2,0,P|305:192|287:273,1,142.5,2|2,0:0|0:2,0:0:0:0:
368,292,230715,53,0,3:0:0:0:
388,375,230888,1,0,3:0:0:0:
496,290,231060,53,2,3:2:0:0:
512,206,231232,1,0,3:0:0:0:
436,43,231405,53,2,3:2:0:0:
451,126,231577,1,0,3:0:0:0:
359,81,231750,54,0,L|252:70,1,95,2|0,0:0|0:0,0:0:0:0:
188,63,232267,1,2,0:0:0:0:
361,166,232612,1,0,0:0:0:0:
361,166,232784,2,0,L|254:155,1,95,2|0,0:0|0:0,0:0:0:0:
190,148,233301,1,2,0:0:0:0:
370,254,233646,1,0,0:0:0:0:
370,254,233819,2,0,L|310:247,1,47.5,2|0,3:2|3:0,0:0:0:0:
243,238,234163,2,0,L|186:229,1,47.5,2|0,3:2|3:0,0:0:0:0:
84,174,234508,54,0,L|97:276,1,95,2|0,0:0|0:0,0:0:0:0:
110,343,235026,1,2,0:0:0:0:
165,139,235370,1,0,0:0:0:0:
165,139,235543,2,0,L|178:241,1,95,2|0,0:0|0:0,0:0:0:0:
191,308,236061,1,2,0:0:0:0:
263,287,236232,2,0,L|312:273,1,47.5,0|0,3:0|3:0,0:0:0:0:
377,175,236577,2,0,L|320:189,1,47.5,2|0,3:2|3:0,0:0:0:0:
421,282,236922,2,0,L|470:268,1,47.5,2|0,3:2|3:0,0:0:0:0:
487,181,237267,53,4,0:1:0:0:
256,192,237612,12,2,242784,0:3:0:0:
256,192,253819,85,0,1:0:0:0:
157,135,254508,1,0,1:0:0:0:
100,234,255198,1,0,1:0:0:0:
198,290,255888,1,0,1:0:0:0:
256,192,256577,53,0,1:0:0:0:
314,94,257267,1,0,1:0:0:0:
412,150,257957,1,0,1:0:0:0:
355,249,258647,1,0,1:0:0:0:
256,192,259336,53,0,1:0:0:0:
188,156,259681,1,0,1:0:0:0:
131,206,260026,1,0,1:0:0:0:
59,181,260370,1,0,1:0:0:0:
188,156,260715,53,0,1:0:0:0:
204,281,261060,1,0,1:0:0:0:
338,262,261405,1,0,1:0:0:0:
324,134,261750,1,0,1:0:0:0:
512,179,262094,54,0,P|462:188|402:176,1,95,0|0,1:0|1:0,0:0:0:0:
269,59,262439,2,0,P|319:50|379:62,1,95,0|0,1:0|1:0,0:0:0:0:
358,293,262784,2,0,P|308:302|248:290,1,95,0|0,1:0|1:0,0:0:0:0:
115,173,263129,2,0,P|165:164|225:176,1,95,0|0,1:0|1:0,0:0:0:0:
90,358,263474,53,0,1:0:0:0:
89,340,263560,1,0,1:0:0:0:
86,321,263647,1,0,1:0:0:0:
85,303,263733,1,0,1:0:0:0:
83,285,263819,1,0,1:0:0:0:
82,267,263905,1,0,1:0:0:0:
80,249,263991,1,0,1:0:0:0:
80,230,264078,1,0,1:0:0:0:
73,211,264164,37,0,1:0:0:0:
80,192,264250,1,0,1:0:0:0:
71,175,264336,1,0,1:0:0:0:
78,156,264422,1,0,1:0:0:0:
69,138,264509,1,0,1:0:0:0:
76,119,264595,1,0,1:0:0:0:
67,102,264681,1,0,1:0:0:0:
74,83,264767,1,0,1:0:0:0:
65,65,264853,54,0,P|131:74|184:46,1,113.999996520996,4|0,1:0|0:0,0:0:0:0:
254,36,265112,2,0,L|273:105,1,56.9999982604981,2|0,0:2|1:0,0:0:0:0:
459,99,265370,2,0,B|405:76|405:76|324:86,1,113.999996520996,6|0,0:3|0:0,0:0:0:0:
329,165,265629,2,0,L|399:155,1,56.9999982604981,2|0,0:2|1:0,0:0:0:0:
496,208,265888,54,0,L|482:330,1,113.999996520996,4|2,1:3|0:2,0:0:0:0:
483,321,266146,1,2,0:2:0:0:
483,321,266232,1,4,1:0:0:0:
319,333,266405,2,0,P|270:298|202:305,1,113.999996520996,6|0,0:3|1:0,0:0:0:0:
190,376,266663,2,0,P|222:376|256:369,1,56.9999982604981,2|0,0:2|0:0,0:0:0:0:
137,241,266922,54,0,L|-3:250,1,113.999996520996,6|4,0:3|1:2,0:0:0:0:
35,322,267181,2,0,L|66:377,1,56.9999982604981,2|0,0:2|1:0,0:0:0:0:
204,291,267439,1,4,0:2:0:0:
75,160,267612,54,0,P|118:119|183:101,1,113.999996520996,4|0,1:0|0:0,0:0:0:0:
167,187,267870,2,0,P|194:184|236:190,1,56.9999982604981,2|0,0:2|1:0,0:0:0:0:
368,299,268129,2,0,P|325:340|260:358,1,113.999996520996,6|0,0:3|0:0,0:0:0:0:
276,272,268387,2,0,P|249:275|207:269,1,56.9999982604981,2|0,0:2|1:0,0:0:0:0:
361,96,268646,54,0,L|342:217,1,113.999996520996,4|2,1:3|0:2,0:0:0:0:
343,208,268905,1,2,0:2:0:0:
343,208,268991,1,4,1:0:0:0:
512,78,269163,2,0,P|462:42|400:42,1,113.999996520996,6|0,0:3|1:0,0:0:0:0:
439,122,269422,2,0,L|427:188,1,56.9999982604981,2|0,0:2|0:0,0:0:0:0:
244,254,269681,54,0,L|270:124,1,113.999996520996,6|4,0:3|1:2,0:0:0:0:
216,87,269939,2,0,P|197:92|150:97,1,56.9999982604981,2|0,0:2|1:0,0:0:0:0:
348,74,270198,1,4,0:2:0:0:
475,273,270370,53,4,1:1:0:0:
352,303,270543,1,0,0:0:0:0:
344,324,270629,1,2,0:0:0:0:
250,245,270801,1,0,0:0:0:0:
232,259,270887,1,6,0:3:0:0:
224,144,271060,1,0,0:0:0:0:
201,147,271146,1,2,0:0:0:0:
244,40,271318,1,0,0:0:0:0:
223,32,271404,1,4,0:3:0:0:
378,73,271577,53,0,0:0:0:0:
399,81,271663,1,2,0:0:0:0:
306,185,271835,1,0,0:0:0:0:
317,205,271921,1,6,0:3:0:0:
161,213,272094,1,0,0:0:0:0:
155,234,272180,1,2,0:0:0:0:
56,114,272352,53,0,0:0:0:0:
46,135,272439,2,0,P|29:195|41:272,1,113.999996520996,4|0,1:2|1:0,0:0:0:0:
71,323,272698,2,0,L|14:330,1,56.9999982604981,2|4,0:0|1:2,0:0:0:0:
194,167,272957,1,2,0:0:0:0:
180,293,273129,53,4,1:0:0:0:
291,324,273301,1,0,0:0:0:0:
296,301,273388,1,2,0:0:0:0:
463,287,273560,1,0,0:0:0:0:
458,264,273647,1,6,0:3:0:0:
287,220,273819,1,0,0:0:0:0:
292,197,273906,1,2,0:0:0:0:
459,183,274078,1,0,0:0:0:0:
454,160,274163,1,4,0:3:0:0:
286,117,274336,53,0,0:0:0:0:
291,94,274423,1,2,0:0:0:0:
458,80,274595,1,0,0:0:0:0:
453,57,274682,1,6,0:3:0:0:
372,133,274853,1,0,0:0:0:0:
371,155,274939,1,2,0:0:0:0:
377,289,275112,53,0,0:0:0:0:
376,267,275198,2,0,L|240:252,1,113.999996520996,4|0,1:2|1:0,0:0:0:0:
190,284,275457,2,0,L|203:358,1,56.9999982604981,2|4,0:0|1:2,0:0:0:0:
266,165,275715,1,2,0:2:0:0:
82,155,275888,22,2,P|119:97|189:83,1,132.999995941162,4|0,1:0|2:0,0:0:0:0:
170,161,276146,2,0,L|161:241,1,66.4999979705811,2|0,2:0|1:0,0:0:0:0:
460,77,276405,2,2,B|396:62|394:96|322:91,1,132.999995941162,2|0,2:2|2:0,0:0:0:0:
432,159,276663,2,0,P|444:190|445:233,1,66.4999979705811,2|0,2:0|1:0,0:0:0:0:
263,330,276922,2,2,P|263:262|322:210,1,132.999995941162,4|2,1:2|2:0,0:0:0:0:
305,216,277181,1,2,2:0:0:0:
305,216,277267,1,4,1:0:0:0:
478,306,277439,54,2,L|327:294,1,132.999995941162,2|0,2:0|1:0,2:0:0:0:
263,330,277698,2,2,P|209:285|122:284,1,132.999995941162,2|0,2:0|2:0,0:0:0:0:
53,267,277957,2,2,P|23:208|29:129,1,132.999995941162,4|4,2:2|1:2,0:0:0:0:
134,125,278215,2,0,P|132:150|121:189,1,66.4999979705811,2|0,2:0|1:0,0:0:0:0:
13,351,278474,1,6,2:2:0:0:
158,337,278646,54,2,B|225:314|228:362|307:342,1,132.999995941162,0|0,1:0|2:0,0:0:0:0:
265,258,278905,2,0,L|253:188,1,66.4999979705811,2|0,2:0|0:0,0:0:0:0:
435,173,279163,2,2,P|426:221|358:264,1,132.999995941162,2|0,2:0|2:0,0:0:0:0:
350,180,279422,2,0,L|339:115,1,66.4999979705811,2|0,2:0|0:0,0:0:0:0:
127,59,279681,2,2,P|188:87|253:85,1,132.999995941162,4|2,0:2|2:0,0:0:0:0:
253,84,279939,1,2,2:0:0:0:
253,84,280026,1,4,0:0:0:0:
512,97,280198,54,2,P|451:69|386:71,1,132.999995941162,2|0,2:0|0:0,0:0:0:0:
327,149,280457,2,2,L|303:284,1,132.999995941162,2|0,2:0|2:0,0:0:0:0:
221,332,280715,2,2,P|156:334|95:306,1,132.999995941162,4|4,2:2|0:2,0:0:0:0:
190,250,280974,2,0,P|159:238|130:202,1,66.4999979705811,2|0,2:0|0:0,0:0:0:0:
366,368,281232,1,4,2:2:0:0:
215,165,281405,54,2,L|379:146,1,132.999995941162,4|0,0:0|0:0,0:0:0:0:
369,65,281663,2,2,L|277:76,1,66.4999979705811,2|0,0:2|0:0,0:0:0:0:
336,242,281922,2,2,P|402:222|436:162,1,132.999995941162,2|0,0:2|0:0,0:0:0:0:
488,246,282181,2,2,L|483:320,1,66.4999979705811,2|0,0:2|0:0,0:0:0:0:
347,149,282439,2,2,L|215:165,1,132.999995941162,0|2,0:0|0:2,0:0:0:0:
214,165,282698,1,2,0:2:0:0:
214,165,282784,1,4,0:0:0:0:
237,269,282957,54,2,P|166:261|117:198,1,132.999995941162,2|0,0:2|0:0,0:0:0:0:
70,169,283215,2,2,P|98:234|68:308,1,132.999995941162,2|0,0:2|0:0,0:0:0:0:
65,362,283474,2,2,P|107:304|186:293,1,132.999995941162,4|4,0:2|0:2,0:0:0:0:
228,382,283732,2,2,L|151:371,1,66.4999979705811,2|0,0:2|0:0,0:0:0:0:
214,165,283991,1,4,0:2:0:0:
361,360,284163,54,2,P|426:330|452:266,1,132.999995941162,4|2,0:0|0:2,0:0:0:0:
451,276,284422,1,2,0:2:0:0:
451,276,284508,1,0,0:0:0:0:
336,157,284681,2,2,P|271:187|245:251,1,132.999995941162,2|0,0:2|0:0,0:0:0:0:
245,240,284940,1,2,0:2:0:0:
245,240,285026,1,0,0:0:0:0:
353,259,285198,2,2,L|451:159,1,132.999995941162,4|2,0:2|0:2,0:0:0:0:
446,164,285457,1,2,0:2:0:0:
446,164,285543,1,4,0:0:0:0:
69,41,285715,54,2,P|46:108|61:170,1,132.999995941162,2|0,0:2|0:0,0:0:0:0:
141,212,285974,2,2,L|283:188,1,132.999995941162,2|0,0:2|0:0,0:0:0:0:
354,232,286232,2,2,P|367:290|344:357,1,132.999995941162,4|0,0:2|0:0,0:0:0:0:
249,361,286491,2,2,L|160:376,1,66.4999979705811,2|0,0:2|0:0,0:0:0:0:
233,111,286750,1,4,0:2:0:0:
321,170,286922,86,0,P|382:145|447:162,1,113.999996520996,4|0,1:0|0:0,0:0:0:0:
460,226,287181,2,0,P|429:233|393:224,1,56.9999982604981,2|0,0:0|0:0,0:0:0:0:
233,111,287439,1,6,0:3:0:0:
110,81,287612,1,0,0:0:0:0:
87,76,287698,1,2,0:0:0:0:
150,193,287870,1,0,0:0:0:0:
136,211,287957,1,4,0:3:0:0:
43,166,288129,1,2,0:0:0:0:
43,166,288215,1,2,0:0:0:0:
43,166,288301,1,4,1:0:0:0:
40,307,288474,54,0,P|96:293|162:311,1,113.999996520996,6|0,0:3|0:0,0:0:0:0:
208,251,288732,2,0,P|250:310|256:370,1,113.999996520996,2|0,0:0|0:0,0:0:0:0:
352,308,288991,1,6,0:3:0:0:
352,347,289077,1,2,0:0:0:0:
337,384,289163,1,4,0:0:0:0:
334,215,289336,1,2,0:0:0:0:
476,297,289508,1,4,0:0:0:0:
433,208,289681,54,0,P|415:147|431:91,1,113.999996520996,4|0,1:0|0:0,0:0:0:0:
499,58,289939,2,0,P|507:90|501:131,1,56.9999982604981,2|0,0:0|0:0,0:0:0:0:
476,297,290198,1,6,0:3:0:0:
334,215,290370,1,0,0:0:0:0:
312,206,290457,1,2,0:0:0:0:
237,332,290629,1,0,0:0:0:0:
259,323,290716,1,4,0:3:0:0:
180,237,290888,1,2,0:0:0:0:
159,247,290974,1,2,0:0:0:0:
138,257,291060,1,4,1:0:0:0:
64,168,291232,54,0,P|129:169|185:127,1,113.999996520996,6|0,0:3|0:0,0:0:0:0:
242,187,291491,2,0,P|264:132|253:60,1,113.999996520996,2|0,0:0|0:0,0:0:0:0:
355,82,291750,1,6,0:3:0:0:
346,43,291836,1,2,0:0:0:0:
320,12,291922,1,4,0:0:0:0:
345,181,292094,1,2,0:0:0:0:
499,127,292267,1,4,0:0:0:0:
460,295,292439,53,4,1:0:0:0:
375,269,292612,1,0,0:0:0:0:
369,291,292698,1,2,0:0:0:0:
402,184,292870,1,0,0:0:0:0:
408,162,292956,1,6,0:3:0:0:
283,242,293129,53,0,0:0:0:0:
277,264,293215,1,2,0:0:0:0:
310,157,293387,1,0,0:0:0:0:
316,135,293473,1,6,0:3:0:0:
192,214,293646,53,0,0:0:0:0:
186,236,293732,1,2,0:0:0:0:
219,129,293904,1,0,0:0:0:0:
225,107,293990,1,6,0:3:0:0:
100,187,294163,53,0,0:0:0:0:
94,209,294249,1,2,0:0:0:0:
127,102,294421,1,0,0:0:0:0:
133,80,294507,1,6,0:3:0:0:
155,314,294681,53,2,0:0:0:0:
155,314,294767,1,2,0:0:0:0:
155,314,294853,1,4,0:0:0:0:
328,163,295026,1,2,0:0:0:0:
195,197,295198,53,4,1:0:0:0:
235,110,295370,1,0,0:0:0:0:
244,89,295457,1,2,0:0:0:0:
251,276,295629,1,0,0:0:0:0:
264,294,295716,1,6,0:3:0:0:
104,202,295888,1,0,0:0:0:0:
81,204,295975,1,2,0:0:0:0:
291,185,296146,53,0,0:0:0:0:
313,182,296233,1,4,0:3:0:0:
155,281,296405,1,0,0:0:0:0:
146,302,296492,1,2,0:0:0:0:
145,117,296664,1,0,0:0:0:0:
132,98,296751,1,6,0:3:0:0:
251,276,296922,1,0,0:0:0:0:
264,294,297009,1,2,0:0:0:0:
235,110,297181,53,0,0:0:0:0:
244,89,297268,1,6,0:3:0:0:
197,198,297439,1,2,0:0:0:0:
197,198,297526,1,2,0:0:0:0:
197,198,297612,1,4,0:0:0:0:
393,168,297784,1,2,0:2:0:0:
295,185,297957,22,2,P|308:115|374:71,1,132.999995941162,4|0,1:0|2:0,0:0:0:0:
446,81,298215,2,0,P|472:105|487:139,1,66.4999979705811,2|0,2:0|0:0,0:0:0:0:
414,382,298474,2,2,L|396:248,1,132.999995941162,2|0,2:0|2:0,0:0:0:0:
316,266,298732,2,0,L|326:339,1,66.4999979705811,2|0,2:0|0:0,0:0:0:0:
51,133,298991,2,2,P|121:123|189:159,1,132.999995941162,4|2,1:2|2:2,0:0:0:0:
176,147,299250,1,2,2:2:0:0:
176,147,299336,1,4,0:0:0:0:
78,384,299508,54,2,L|100:248,1,132.999995941162,2|0,2:0|0:0,0:0:0:0:
191,236,299767,2,2,P|259:232|331:164,1,132.999995941162,2|0,2:0|2:0,0:0:0:0:
349,110,300026,2,2,P|413:102|487:144,1,132.999995941162,2|4,2:0|0:2,0:0:0:0:
402,189,300284,2,0,P|441:208|459:235,1,66.4999979705811,2|0,2:0|0:0,0:0:0:0:
209,134,300543,1,4,2:0:0:0:
176,326,300715,54,2,P|252:330|313:280,1,132.999995941162,4|0,0:0|2:0,0:0:0:0:
295,220,300974,2,0,L|306:151,1,66.4999979705811,2|0,2:0|0:0,0:0:0:0:
87,51,301232,2,2,L|116:200,1,132.999995941162,2|0,2:0|2:0,0:0:0:0:
144,255,301491,2,0,P|108:261|62:243,1,66.4999979705811,2|0,2:0|0:0,0:0:0:0:
248,88,301750,2,2,P|314:64|398:80,1,132.999995941162,4|2,0:2|2:0,0:0:0:0:
375,70,302008,1,2,2:0:0:0:
375,70,302094,1,4,0:0:0:0:
446,366,302267,54,2,L|463:227,1,132.999995941162,2|0,2:0|0:0,0:0:0:0:
507,151,302526,2,2,P|452:188|369:187,1,132.999995941162,2|0,2:0|2:0,0:0:0:0:
328,264,302784,2,2,P|266:213|203:204,1,132.999995941162,2|4,2:0|0:2,0:0:0:0:
135,252,303043,2,0,L|124:334,1,66.4999979705811,0|0,2:0|2:0,0:0:0:0:
355,343,303301,1,4,2:2:0:0:
292,71,303474,54,2,P|365:46|442:69,1,132.999995941162,4|0,0:0|0:0,0:0:0:0:
481,183,303732,2,2,L|468:257,1,66.4999979705811,2|0,0:2|0:0,0:0:0:0:
234,145,303991,2,2,P|182:101|106:94,1,132.999995941162,2|0,0:2|0:0,0:0:0:0:
45,206,304250,2,2,L|61:292,1,66.4999979705811,2|0,0:2|0:0,0:0:0:0:
279,366,304508,2,2,L|302:219,1,132.999995941162,4|2,0:2|0:2,0:0:0:0:
313,155,304767,1,2,0:2:0:0:
313,155,304853,1,4,0:0:0:0:
495,357,305026,54,2,P|423:372|360:339,1,132.999995941162,2|0,0:2|0:0,0:0:0:0:
381,197,305284,2,2,P|453:182|516:215,1,132.999995941162,2|0,0:2|0:0,0:0:0:0:
437,277,305543,2,2,L|289:265,1,132.999995941162,2|4,0:2|0:2,0:0:0:0:
198,300,305801,2,2,L|210:365,1,66.4999979705811,2|0,0:2|0:0,0:0:0:0:
262,151,306060,1,4,0:2:0:0:
27,115,306232,54,2,P|84:61|169:52,1,132.999995941162,4|0,0:0|0:2,0:0:0:0:
230,77,306491,2,2,L|321:92,1,66.4999979705811,2|0,0:2|0:0,0:0:0:0:
495,204,306750,2,2,P|438:150|353:141,1,132.999995941162,2|0,0:2|0:0,0:0:0:0:
295,179,307009,2,2,L|204:194,1,66.4999979705811,2|0,0:2|0:0,0:0:0:0:
32,289,307267,2,2,P|89:235|174:226,1,132.999995941162,4|2,0:2|0:2,0:0:0:0:
189,303,307526,37,2,0:2:0:0:
189,303,307612,2,2,B|256:320|256:274|336:309,1,142.5,4|2,1:3|2:1,0:0:0:0:
374,366,307957,2,2,P|348:281|421:220,1,185.249991519928,4|2,1:3|2:1,0:0:0:0:
393,131,308301,5,2,1:0:0:0:
393,131,308388,1,0,1:3:0:0:
393,131,308474,2,0,L|315:147,1,76,4|0,1:3|0:0,0:0:0:0:
227,167,308646,53,2,1:0:0:0:
98,297,308819,1,4,0:3:0:0:
57,115,308991,6,0,P|44:172|48:212,1,95,4|0,1:0|0:0,0:0:0:0:
178,373,309336,2,2,P|186:325|178:220,1,142.5,0|0,1:0|1:0,0:0:0:0:
180,231,309681,1,4,2:2:0:0:
91,327,309853,2,2,L|72:372,2,47.5,0|0|2,1:0|2:0|1:0,0:0:0:0:
164,195,310198,1,0,0:0:0:0:
281,254,310370,22,0,P|330:271|380:268,1,95,4|0,1:3|0:0,0:0:0:0:
472,236,310715,1,0,1:0:0:0:
326,109,310888,21,2,0:2:0:0:
326,109,310974,1,2,0:2:0:0:
326,109,311060,1,4,1:2:0:0:
171,78,311232,1,2,1:2:0:0:
259,44,311405,1,4,1:2:0:0:
241,141,311577,1,2,0:2:0:0:
105,152,311750,22,0,P|85:95|85:37,1,95,4|0,1:3|0:0,0:0:0:0:
171,78,312094,1,0,1:0:0:0:
33,217,312267,1,0,0:0:0:0:
33,217,312353,1,0,0:0:0:0:
33,217,312439,1,4,0:2:0:0:
116,280,312612,1,0,1:0:0:0:
287,200,312784,2,0,L|187:209,1,95,0|0,1:0|0:0,0:0:0:0:
356,269,313129,21,4,1:3:0:0:
421,193,313301,2,0,P|432:126|425:81,1,95,0|0,0:0|1:0,0:0:0:0:
342,41,313646,1,0,0:0:0:0:
220,187,313819,2,0,P|209:254|216:299,1,95,8|4,1:3|1:2,0:0:0:0:
348,363,314163,2,0,P|359:296|352:251,1,95,4|4,1:3|0:2,0:0:0:0:
50,157,314508,22,0,P|91:174|161:163,1,95,4|0,1:0|0:0,0:0:0:0:
382,53,314853,2,2,P|313:61|241:118,1,142.5,0|0,1:0|1:0,0:0:0:0:
253,101,315198,1,4,2:2:0:0:
104,84,315370,2,2,L|89:32,2,47.5,0|0|2,1:0|2:0|1:0,0:0:0:0:
165,237,315715,1,0,0:0:0:0:
306,171,315888,22,0,P|359:170|417:189,1,95,4|0,1:3|0:0,0:0:0:0:
476,250,316232,1,0,1:0:0:0:
259,264,316405,21,2,0:2:0:0:
259,264,316491,1,2,0:2:0:0:
259,264,316577,1,4,1:2:0:0:
154,273,316750,1,2,1:2:0:0:
306,171,316922,1,4,1:2:0:0:
313,350,317094,1,2,0:2:0:0:
205,186,317267,22,0,P|212:149|228:94,2,95,4|0|0,1:3|0:0|1:0,0:0:0:0:
392,48,317784,2,0,B|425:80|448:126|448:126|450:172|432:228,1,190,4|0,0:3|1:0,0:0:0:0:
259,275,318301,2,0,P|301:268|366:273,1,95,4|0,1:3|0:0,0:0:0:0:
444,324,318646,21,0,1:0:0:0:
354,188,318819,2,0,L|321:141,2,47.5,4|2|2,0:3|0:2|1:2,0:0:0:0:
444,324,319163,1,8,0:3:0:0:
194,334,319336,22,2,P|144:345|38:332,1,142.5,4|2,0:3|0:2,0:0:0:0:
53,337,319681,2,2,P|61:284|52:222,1,95,4|2,0:3|0:2,0:0:0:0:
30,97,320026,22,0,P|67:140|114:161,1,95,4|0,1:0|0:0,0:0:0:0:
317,147,320370,2,2,P|267:155|185:227,1,142.5,0|0,1:0|1:0,0:0:0:0:
195,209,320715,1,4,2:2:0:0:
317,60,320888,2,2,L|293:10,2,47.5,0|0|2,1:0|2:0|1:0,0:0:0:0:
386,210,321232,1,0,0:0:0:0:
244,289,321405,22,0,P|188:300|135:284,1,95,4|0,1:3|0:0,0:0:0:0:
57,246,321750,1,0,1:0:0:0:
331,338,321922,21,2,0:2:0:0:
331,338,322008,1,2,0:2:0:0:
331,338,322094,1,4,1:2:0:0:
366,239,322267,1,2,1:2:0:0:
465,271,322439,1,4,1:2:0:0:
434,371,322612,1,2,0:2:0:0:
366,239,322784,21,4,1:3:0:0:
414,146,322957,2,0,P|463:136|507:144,1,95,0|0,0:0|1:0,0:0:0:0:
332,65,323301,1,0,0:0:0:0:
284,158,323474,2,0,P|235:168|191:160,1,95,4|0,0:2|1:0,0:0:0:0:
28,258,323819,2,0,P|77:248|121:256,1,95,0|0,1:0|0:0,0:0:0:0:
300,296,324163,21,4,1:3:0:0:
203,336,324336,1,0,0:0:0:0:
223,233,324508,1,0,1:0:0:0:
438,250,324681,21,0,0:0:0:0:
452,353,324853,1,8,1:3:0:0:
477,137,325026,21,4,1:2:0:0:
373,151,325198,1,4,1:3:0:0:
269,165,325370,1,4,0:2:0:0:
168,144,325543,22,0,P|174:115|199:55,1,95,4|0,1:0|0:0,0:0:0:0:
343,104,325888,2,2,P|364:177|373:264,1,142.5,0|0,1:0|1:0,0:0:0:0:
372,242,326232,1,4,2:2:0:0:
269,165,326405,2,2,L|264:95,2,47.5,0|0|2,1:0|2:0|1:0,0:0:0:0:
356,275,326750,1,0,0:0:0:0:
251,353,326922,22,0,P|190:362|136:355,1,95,4|0,1:3|0:0,0:0:0:0:
91,277,327267,1,0,1:0:0:0:
203,106,327439,21,2,0:2:0:0:
203,106,327526,1,2,0:2:0:0:
203,106,327612,1,4,1:2:0:0:
242,204,327784,1,2,1:2:0:0:
146,188,327957,1,4,1:2:0:0:
296,122,328129,1,2,0:2:0:0:
390,258,328301,22,0,P|389:309|382:356,2,95,4|0|0,1:3|0:0|1:0,0:0:0:0:
60,268,328819,2,0,B|42:224|42:172|42:172|59:130|99:87,1,190,4|0,0:3|1:0,0:0:0:0:
234,32,329336,2,0,P|249:79|252:132,1,95,4|0,1:3|0:0,0:0:0:0:
212,226,329681,21,0,0:0:0:0:
341,126,329853,2,0,L|383:96,2,47.5,4|2|2,0:3|0:2|0:2,0:0:0:0:
212,226,330198,1,8,0:3:0:0:
322,213,330370,22,2,P|378:214|475:177,1,142.5,4|2,0:3|0:2,0:0:0:0:
459,186,330715,2,2,P|486:249|486:312,1,95,4|2,0:3|0:2,0:0:0:0:
212,226,331060,22,2,P|154:219|103:229,1,95,4|2,1:0|2:2,0:0:0:0:
227,109,331405,2,2,P|285:116|336:106,1,95,4|2,1:2|2:2,0:0:0:0:
334,97,331663,1,2,2:2:0:0:
347,83,331750,1,0,2:0:0:0:
302,219,331922,2,2,L|275:279,2,47.5,6|2|2,1:2|2:2|1:1,0:0:0:0:
358,71,332267,1,6,0:2:0:0:
154,153,332439,22,0,P|106:152|55:120,1,95,0|2,1:0|0:2,0:0:0:0:
59,111,332698,1,2,0:2:0:0:
54,92,332784,1,4,1:2:0:0:
176,251,332957,21,2,0:2:0:0:
176,251,333043,1,2,0:2:0:0:
176,251,333129,1,0,1:0:0:0:
89,221,333301,1,2,1:2:0:0:
242,184,333474,1,4,1:2:0:0:
196,341,333646,1,2,0:2:0:0:
155,155,333819,21,4,1:0:0:0:
266,270,333991,2,0,P|315:274|381:258,1,95,2|4,0:2|1:2,0:0:0:0:
479,164,334336,1,2,0:2:0:0:
368,49,334508,2,0,P|319:45|253:61,1,95,0|2,0:0|1:2,0:0:0:0:
61,159,334853,2,0,P|110:163|176:147,1,95,4|2,1:2|0:2,0:0:0:0:
298,133,335198,21,4,1:0:0:0:
298,133,335370,1,2,0:2:0:0:
186,269,335543,21,4,1:2:0:0:
269,223,335715,1,2,0:2:0:0:
271,318,335888,1,4,1:0:0:0:
407,173,336060,21,2,1:2:0:0:
432,264,336232,1,4,1:2:0:0:
456,356,336405,1,2,0:2:0:0:
271,281,336577,22,2,P|316:263|359:224,1,95,4|2,1:0|2:2,0:0:0:0:
186,287,336922,2,2,P|127:293|87:313,1,95,4|2,1:2|2:2,0:0:0:0:
89,326,337181,1,2,2:2:0:0:
83,344,337267,1,0,2:0:0:0:
122,206,337439,2,2,L|138:155,2,47.5,6|2|2,1:2|2:2|1:1,0:0:0:0:
176,374,337784,1,6,0:2:0:0:
230,212,337957,22,0,P|234:156|218:104,1,95,0|2,1:0|0:2,0:0:0:0:
216,101,338215,1,2,0:2:0:0:
203,86,338301,1,4,1:2:0:0:
245,300,338474,21,2,0:2:0:0:
245,300,338560,1,2,0:2:0:0:
245,300,338646,1,0,1:0:0:0:
329,237,338819,1,2,1:2:0:0:
419,289,338991,1,4,1:2:0:0:
336,353,339163,1,2,0:2:0:0:
329,237,339336,22,0,P|328:179|331:128,1,95,4|2,1:0|0:2,0:0:0:0:
422,190,339681,1,4,1:2:0:0:
161,93,339853,2,2,B|186:135|194:183|194:183|187:231|162:278,1,190,0|2,2:0|1:0,0:0:0:0:
21,191,340370,2,0,P|28:127|47:86,1,95,2|0,1:1|0:0,0:0:0:0:
72,275,340715,21,4,0:0:0:0:
255,246,340888,2,0,L|316:235,2,47.5,4|0|0,0:2|0:0|0:2,0:0:0:0:
72,275,341232,1,0,0:0:0:0:
165,271,341405,22,2,P|203:321|297:338,1,142.5,4|0,0:2|0:0,0:0:0:0:
278,341,341750,2,2,P|334:328|386:330,1,95,4|0,0:2|0:0,0:0:0:0:
256,246,342094,22,2,P|244:200|247:142,1,95,4|2,1:0|2:2,0:0:0:0:
454,270,342439,2,2,P|407:231|337:216,1,95,4|2,1:2|2:2,0:0:0:0:
357,215,342698,1,2,2:2:0:0:
338,213,342784,1,0,2:0:0:0:
372,328,342957,2,2,L|401:369,2,47.5,6|2|2,1:2|2:2|1:1,0:0:0:0:
317,211,343301,1,6,0:2:0:0:
420,127,343474,22,0,P|430:72|423:16,1,95,0|2,1:0|0:2,0:0:0:0:
427,33,343732,1,2,0:2:0:0:
427,33,343819,1,4,1:2:0:0:
229,194,343991,21,2,0:2:0:0:
229,194,344077,1,2,0:2:0:0:
229,194,344163,1,0,1:0:0:0:
182,282,344336,1,2,1:2:0:0:
97,244,344508,1,4,1:2:0:0:
305,239,344681,1,2,0:2:0:0:
129,134,344853,21,4,1:0:0:0:
97,244,345026,2,0,P|85:289|72:346,1,95,2|4,0:2|1:2,0:0:0:0:
282,311,345370,1,2,0:2:0:0:
250,201,345543,2,0,P|241:153|225:99,1,95,0|2,0:0|1:2,0:0:0:0:
370,148,345888,2,0,P|432:148|491:138,1,95,4|2,1:2|0:2,0:0:0:0:
421,298,346232,22,0,P|387:264|327:247,1,95,4|2,1:0|0:2,0:0:0:0:
195,352,346577,2,0,P|242:330|286:281,1,95,4|2,1:2|0:2,0:0:0:0:
244,124,346922,2,0,P|245:172|273:222,1,95,4|2,1:0|1:2,0:0:0:0:
326,143,347267,1,4,1:2:0:0:
163,200,347439,1,2,0:2:0:0:
209,40,347612,22,2,L|321:26,1,95,4|2,1:0|2:2,0:0:0:0:
507,156,347957,2,2,L|412:166,1,95,4|2,1:2|2:2,0:0:0:0:
403,182,348215,1,2,2:2:0:0:
393,198,348301,1,0,2:0:0:0:
429,81,348474,2,2,L|447:30,2,47.5,6|2|2,1:2|2:2|1:1,0:0:0:0:
306,175,348819,1,6,0:2:0:0:
481,242,348991,22,0,P|484:293|477:352,1,95,0|0,1:0|0:0,0:0:0:0:
479,336,349250,1,2,0:2:0:0:
479,336,349336,1,4,1:2:0:0:
257,248,349508,21,2,0:2:0:0:
257,248,349594,1,2,0:2:0:0:
257,248,349681,1,0,1:0:0:0:
212,165,349853,1,2,1:2:0:0:
205,326,350026,1,4,1:2:0:0:
350,250,350198,1,2,0:2:0:0:
205,326,350370,22,0,P|147:320|96:321,1,95,4|2,1:0|0:2,0:0:0:0:
308,347,350715,1,4,1:2:0:0:
164,111,350888,2,2,B|270:141|269:77|373:111,1,190,0|2,2:0|1:0,0:0:0:0:
304,232,351405,2,0,P|256:240|208:228,1,95,2|0,1:0|0:0,0:0:0:0:
108,184,351750,21,4,0:0:0:0:
256,32,351922,1,4,0:2:0:0:
256,32,352008,1,0,0:0:0:0:
256,32,352094,1,4,0:2:0:0:
404,184,352267,1,0,0:2:0:0:
381,84,352439,22,2,P|324:100|254:158,1,142.5,4|0,0:2|0:0,0:0:0:0:
259,150,352784,2,2,P|201:145|155:124,1,95,4|0,0:2|0:0,0:0:0:0:
78,170,353129,22,0,P|88:219|97:280,1,95,4|2,1:0|0:2,0:0:0:0:
0,237,353474,1,0,1:0:0:0:
183,223,353646,1,2,0:2:0:0:
183,223,353732,1,2,0:2:0:0:
183,223,353819,1,0,0:0:0:0:
154,362,353991,1,2,1:2:0:0:
329,287,354163,2,0,L|227:303,1,95,0|2,1:0|0:2,0:0:0:0:
353,370,354508,22,0,P|354:314|433:200,1,190,0|0,1:0|1:0,0:0:0:0:
313,44,355026,1,2,0:2:0:0:
313,44,355112,1,2,0:2:0:0:
313,44,355198,2,0,P|327:109|355:144,1,95,4|2,0:2|1:2,0:0:0:0:
249,197,355543,2,0,P|194:175|141:174,1,95,6|0,1:2|0:0,0:0:0:0:
69,299,355888,22,0,P|114:285|181:271,1,95,4|2,1:2|0:2,0:0:0:0:
144,368,356232,1,0,1:0:0:0:
97,198,356405,1,2,0:2:0:0:
97,198,356491,1,2,0:2:0:0:
97,198,356577,1,0,0:0:0:0:
265,273,356750,1,2,1:2:0:0:
213,92,356922,2,0,L|189:209,1,95,0|2,1:0|0:2,0:0:0:0:
143,48,357267,22,0,P|220:75|338:33,1,190,0|0,1:0|1:0,0:0:0:0:
494,88,357784,1,2,1:2:0:0:
494,88,357870,1,2,1:2:0:0:
494,88,357957,2,0,P|448:108|414:156,1,95,4|2,1:2|1:2,0:0:0:0:
405,337,358301,1,4,1:2:0:0:
30,149,358646,22,0,P|80:145|129:135,1,95,4|2,1:0|0:2,0:0:0:0:
65,56,358991,1,0,1:0:0:0:
93,229,359163,1,2,0:2:0:0:
93,229,359250,1,2,0:2:0:0:
93,229,359336,1,0,0:0:0:0:
234,101,359508,1,2,1:2:0:0:
199,204,359681,2,0,L|174:295,1,95,0|2,1:0|0:2,0:0:0:0:
457,255,360026,22,0,P|429:209|299:173,1,190,0|0,1:0|1:0,0:0:0:0:
298,348,360543,1,2,0:2:0:0:
298,348,360629,1,2,0:2:0:0:
298,348,360715,2,0,L|404:329,1,95,4|2,0:2|1:2,0:0:0:0:
229,262,361060,2,0,L|123:281,1,95,6|0,1:2|0:0,0:0:0:0:
138,90,361405,22,0,P|144:143|147:192,1,95,4|2,1:2|0:2,0:0:0:0:
59,142,361750,1,0,1:0:0:0:
230,124,361922,1,2,0:2:0:0:
230,124,362008,1,2,0:2:0:0:
230,124,362094,1,0,0:0:0:0:
110,263,362267,1,2,1:2:0:0:
202,341,362439,2,0,P|208:297|220:248,1,95,0|2,1:0|0:2,0:0:0:0:
355,130,362784,22,0,P|412:152|475:273,1,190,0|0,1:0|1:0,0:0:0:0:
309,359,363301,1,2,1:2:0:0:
309,359,363388,1,2,1:2:0:0:
309,359,363474,1,4,1:2:0:0:
361,263,363646,1,2,1:2:0:0:
420,356,363819,1,6,1:2:0:0:
496,107,364163,22,0,P|465:65|334:66,1,190,4|0,1:0|1:0,0:0:0:0:
256,184,364681,1,2,0:2:0:0:
256,184,364767,1,2,0:2:0:0:
256,184,364853,1,2,0:2:0:0:
356,160,365026,1,2,1:2:0:0:
236,88,365198,2,0,L|144:44,1,95,0|2,1:0|0:2,0:0:0:0:
16,188,365543,22,0,P|47:146|178:147,1,190,0|0,1:0|1:0,0:0:0:0:
256,265,366061,1,2,0:2:0:0:
256,265,366147,1,2,0:2:0:0:
256,265,366233,1,6,0:2:0:0:
156,241,366406,1,2,1:2:0:0:
276,169,366578,2,0,L|368:125,1,95,4|0,1:2|0:2,0:0:0:0:
496,272,366922,22,0,P|465:230|334:231,1,190,4|0,1:2|1:0,0:0:0:0:
256,349,367440,1,2,0:2:0:0:
256,349,367526,1,2,0:2:0:0:
256,349,367612,1,2,0:2:0:0:
356,325,367785,1,2,1:2:0:0:
236,253,367957,2,0,L|144:209,1,95,0|2,1:0|0:2,0:0:0:0:
224,52,368301,22,0,P|232:116|232:164,1,95,0|2,1:0|0:2,0:0:0:0:
144,120,368646,1,0,1:0:0:0:
316,100,368819,1,2,1:2:0:0:
300,280,368991,2,0,P|314:220|326:177,1,95,4|2,1:2|1:2,0:0:0:0:
472,184,369336,1,6,1:2:0:0:
408,260,369508,1,2,0:0:0:0:
394,126,369681,22,0,P|386:76|385:27,2,95,4|2|0,1:0|0:2|1:0,0:0:0:0:
498,67,370198,1,2,0:2:0:0:
498,67,370284,1,2,0:2:0:0:
498,67,370370,1,0,0:0:0:0:
301,100,370543,1,2,1:2:0:0:
301,100,370715,2,0,L|192:86,1,95,4|0,1:2|0:0,0:0:0:0:
394,258,371060,22,0,P|386:308|385:357,2,95,4|2|0,1:0|0:2|1:0,0:0:0:0:
490,318,371577,1,2,0:2:0:0:
490,318,371663,1,2,0:2:0:0:
490,318,371749,1,0,0:0:0:0:
301,284,371922,1,2,1:2:0:0:
301,284,372094,2,0,L|192:298,1,95,4|0,1:2|0:0,0:0:0:0:
40,192,372439,22,0,L|140:192,1,95,4|2,1:0|0:2,0:0:0:0:
256,192,372784,1,4,1:2:0:0:
349,118,372957,21,2,0:2:0:0:
349,118,373043,1,2,0:2:0:0:
349,118,373129,1,4,1:0:0:0:
349,266,373301,1,6,1:2:0:0:
512,192,373474,2,0,L|408:192,1,95,4|2,1:2|0:2,0:0:0:0:
417,192,373732,1,2,0:2:0:0:
417,192,373819,1,0,1:0:0:0:
177,187,373991,21,2,0:2:0:0:
270,161,374163,1,4,1:2:0:0:
120,107,374336,1,2,1:2:0:0:
120,107,374422,1,2,1:2:0:0:
120,107,374508,1,4,1:0:0:0:
276,60,374681,1,6,1:2:0:0:
180,18,374853,1,4,1:2:0:0:
204,324,375198,22,0,P|276:266|370:261,1,190,4|0,1:0|1:0,0:0:0:0:
370,261,375715,1,2,0:2:0:0:
446,189,375888,1,0,0:0:0:0:
446,189,376060,1,6,1:2:0:0:
469,290,376232,1,0,1:0:0:0:
351,162,376405,21,6,0:2:0:0:
351,162,376491,1,2,0:2:0:0:
351,162,376577,2,0,P|371:116|427:77,1,95,0|2,1:0|0:2,0:0:0:0:
286,231,376922,2,0,P|240:245|180:248,1,95,4|2,1:2|0:2,0:0:0:0:
189,71,377267,2,0,P|229:99|261:149,1,95,0|2,0:0|1:2,0:0:0:0:
311,326,377612,1,4,1:2:0:0:
400,229,377784,1,2,0:2:0:0:
286,231,377957,22,0,P|200:251|94:216,1,190,4|0,1:0|1:0,0:0:0:0:
104,222,378474,1,2,0:2:0:0:
106,118,378646,1,0,0:0:0:0:
106,118,378819,1,6,1:2:0:0:
197,167,378991,1,0,1:0:0:0:
14,172,379163,21,6,0:2:0:0:
14,172,379250,1,2,0:2:0:0:
14,172,379336,2,0,P|8:225|0:280,1,95,0|2,1:0|0:2,0:0:0:0:
155,357,379681,2,0,P|155:305|153:254,1,95,4|2,1:2|1:2,0:0:0:0:
247,91,380026,21,0,1:0:0:0:
304,210,380198,1,6,1:2:0:0:
423,152,380370,1,4,1:2:0:0:
372,28,380543,1,2,1:2:0:0:
304,210,380715,22,0,P|361:220|406:221,1,95,4|2,1:0|0:2,0:0:0:0:
209,215,381060,2,0,P|152:205|107:204,1,95,0|2,1:0|0:2,0:0:0:0:
114,203,381319,1,2,0:2:0:0:
114,203,381405,1,0,0:0:0:0:
251,289,381577,1,6,1:2:0:0:
243,138,381750,1,0,1:0:0:0:
160,291,381922,21,6,0:2:0:0:
160,291,382008,1,2,0:2:0:0:
160,291,382094,1,0,1:0:0:0:
220,369,382267,2,0,P|285:369|341:356,1,95,2|4,0:2|1:2,0:0:0:0:
443,329,382612,1,2,0:2:0:0:
446,173,382784,2,0,P|389:168|325:186,1,95,0|2,0:0|1:2,0:0:0:0:
240,46,383129,2,0,P|266:92|281:154,1,95,4|2,1:2|0:2,0:0:0:0:
190,289,383474,22,0,P|218:251|258:221,1,95,4|2,1:0|0:2,0:0:0:0:
102,282,383819,2,0,P|57:259|18:208,1,95,0|2,1:0|0:2,0:0:0:0:
27,226,384077,1,2,0:2:0:0:
27,226,384163,1,0,0:0:0:0:
155,210,384336,1,6,1:2:0:0:
15,330,384508,1,0,1:0:0:0:
83,152,384681,21,6,0:2:0:0:
83,152,384767,1,2,0:2:0:0:
83,152,384853,1,0,1:0:0:0:
233,165,385026,2,0,P|289:173|335:165,1,95,2|4,0:2|1:2,0:0:0:0:
487,88,385370,21,6,1:2:0:0:
437,180,385543,1,0,1:0:0:0:
385,89,385715,1,2,1:2:0:0:
189,71,385888,21,4,1:2:0:0:
137,162,386060,1,2,1:2:0:0:
213,230,386232,22,0,P|173:194|35:202,1,190,4|0,1:0|1:0,0:0:0:0:
292,290,386750,1,2,0:2:0:0:
292,290,386836,1,2,0:2:0:0:
292,290,386922,2,0,P|354:284|396:249,1,95,0|6,0:0|1:2,0:0:0:0:
210,325,387267,2,0,P|155:341|120:370,1,95,0|6,1:0|0:2,0:0:0:0:
317,205,387612,22,0,P|362:172|498:202,1,190,0|4,1:0|1:2,0:0:0:0:
208,238,388129,1,2,0:2:0:0:
208,238,388215,1,2,0:2:0:0:
208,238,388301,2,0,P|159:233|103:203,1,95,0|2,0:0|1:2,0:0:0:0:
252,64,388646,2,0,P|240:115|243:170,1,95,4|2,1:2|0:2,0:0:0:0:
468,343,388991,22,0,P|480:292|477:237,1,95,4|2,1:0|0:2,0:0:0:0:
458,146,389336,1,0,1:0:0:0:
282,39,389508,2,0,P|270:90|273:145,1,95,2|0,0:2|0:0,0:0:0:0:
292,236,389853,1,6,1:2:0:0:
131,355,390026,2,0,P|143:304|140:249,1,95,0|6,1:0|0:2,0:0:0:0:
121,158,390371,1,0,1:0:0:0:
232,334,390543,22,0,L|345:311,1,95,2|4,0:2|1:2,0:0:0:0:
48,227,390888,1,2,1:2:0:0:
48,227,390974,1,2,1:2:0:0:
48,227,391060,2,0,L|12:126,1,95,0|2,1:0|1:2,0:0:0:0:
168,236,391405,2,0,L|217:136,1,95,4|2,1:2|0:2,0:0:0:0:
467,210,391750,22,0,P|395:175|290:222,1,190,4|0,1:0|1:0,0:0:0:0:
306,334,392267,1,2,0:2:0:0:
306,334,392353,1,2,0:2:0:0:
306,334,392439,2,0,P|373:354|412:343,1,95,0|6,0:0|1:2,0:0:0:0:
216,290,392784,2,0,P|160:309|119:341,1,95,4|2,1:2|0:2,0:0:0:0:
39,133,393129,22,0,P|104:126|202:206,1,190,4|0,1:0|1:0,0:0:0:0:
271,99,393646,1,2,0:2:0:0:
271,99,393732,1,2,0:2:0:0:
271,99,393819,2,0,P|298:58|339:29,1,95,0|6,0:0|1:2,0:0:0:0:
404,243,394163,2,0,P|358:243|296:206,1,95,4|2,1:2|0:2,0:0:0:0:
381,132,394508,21,4,1:0:0:0:
466,89,394681,1,6,0:2:0:0:
467,183,394853,1,4,1:2:0:0:
290,316,395026,21,2,0:2:0:0:
290,316,395112,1,2,0:2:0:0:
290,316,395198,1,4,1:0:0:0:
272,222,395370,1,6,1:2:0:0:
257,127,395543,1,4,1:2:0:0:
77,225,395715,21,2,0:2:0:0:
77,225,395801,1,2,0:2:0:0:
77,225,395888,1,4,1:0:0:0:
148,287,396060,1,6,0:2:0:0:
168,194,396232,1,0,1:0:0:0:
168,194,396405,1,6,0:2:0:0:
64,316,396577,21,4,1:0:0:0:
64,316,396750,1,4,1:2:0:0:
237,256,396922,1,4,1:0:0:0:
212,365,397094,1,4,1:2:0:0:
237,256,397267,22,0,L|261:145,1,95,4|2,1:0|0:2,0:0:0:0:
262,144,397526,1,2,0:2:0:0:
268,126,397612,1,0,1:0:0:0:
358,116,397784,1,2,0:2:0:0:
173,138,397957,2,0,P|114:142|53:136,1,95,4|2,0:2|1:2,0:0:0:0:
124,51,398301,1,0,1:0:0:0:
322,221,398474,22,2,P|375:217|432:218,1,95,0|2,2:0|1:0,0:0:0:0:
493,283,398819,1,2,0:1:0:0:
445,127,398991,2,0,L|433:71,2,47.5,2|2|2,1:2|0:2|0:2,0:0:0:0:
493,283,399336,22,0,P|500:338|505:378,1,95,4|2,1:2|1:2,0:0:0:0:
286,328,399681,2,0,P|292:272|301:217,1,95,4|2,1:2|0:2,0:0:0:0:
103,73,400026,22,0,P|109:123|117:231,1,142.5,4|2,1:0|0:2,0:0:0:0:
116,214,400370,1,4,1:2:0:0:
216,197,400543,1,6,0:2:0:0:
138,309,400715,2,0,P|82:321|36:325,1,95,0|2,0:2|1:2,0:0:0:0:
234,293,401060,2,0,P|291:284|340:286,1,95,4|2,1:2|0:2,0:0:0:0:
492,310,401405,21,0,1:0:0:0:
396,350,401577,1,2,2:1:0:0:
415,247,401750,1,0,1:0:0:0:
241,148,401922,21,2,2:1:0:0:
322,82,402094,1,4,0:2:0:0:
342,184,402267,1,2,1:1:0:0:
473,127,402439,21,2,1:0:0:0:
477,22,402612,1,4,2:2:0:0:
342,184,402784,22,0,P|283:202|228:206,1,95,4|2,1:0|0:2,0:0:0:0:
230,206,403043,1,2,0:2:0:0:
211,203,403129,1,0,1:0:0:0:
189,297,403301,1,2,0:2:0:0:
140,135,403474,2,0,P|93:115|43:111,1,95,4|2,0:2|1:2,0:0:0:0:
68,223,403819,1,0,1:0:0:0:
239,126,403991,22,2,L|336:86,1,95,0|2,2:0|1:0,0:0:0:0:
419,47,404336,1,2,0:1:0:0:
247,32,404508,2,0,L|185:39,2,47.5,2|2|2,1:2|0:2|0:2,0:0:0:0:
419,47,404853,21,4,1:2:0:0:
308,192,405026,1,2,1:2:0:0:
440,160,405198,2,0,L|491:150,2,47.5,4|0|2,1:2|0:0|0:2,0:0:0:0:
308,192,405543,22,0,P|246:193|202:167,1,95,4|2,1:0|0:2,0:0:0:0:
274,106,405888,1,0,1:0:0:0:
340,286,406060,1,2,0:2:0:0:
251,272,406232,21,4,0:2:0:0:
391,210,406405,1,2,1:2:0:0:
245,306,406577,21,0,1:0:0:0:
406,239,406750,1,2,0:2:0:0:
239,336,406922,22,0,P|189:349|137:347,1,95,0|2,1:0|0:2,0:0:0:0:
127,344,407181,1,2,0:2:0:0:
108,338,407267,1,0,1:0:0:0:
172,255,407439,1,2,0:2:0:0:
93,186,407612,21,4,1:2:0:0:
107,174,407698,1,2,2:2:0:0:
124,166,407784,1,2,1:0:0:0:
142,162,407870,1,2,2:2:0:0:
161,161,407957,2,2,P|220:170|280:166,1,95,4|2,1:2|2:1,0:0:0:0:
440,106,408301,22,0,P|388:122|343:151,1,95,4|2,1:0|0:2,0:0:0:0:
349,161,408560,1,2,0:2:0:0:
345,179,408646,1,0,1:0:0:0:
288,77,408819,1,2,0:2:0:0:
438,202,408991,2,0,P|453:251|459:306,1,95,4|2,0:2|1:2,0:0:0:0:
388,372,409336,1,0,1:0:0:0:
240,258,409508,22,2,P|250:198|272:149,1,95,0|2,2:0|1:0,0:0:0:0:
370,78,409853,1,2,0:1:0:0:
200,95,410026,2,0,L|141:104,2,47.5,2|2|2,1:2|0:2|0:2,0:0:0:0:
370,78,410370,22,0,P|381:132|365:181,1,95,4|2,1:2|1:2,0:0:0:0:
150,234,410715,2,0,P|197:254|246:258,1,95,4|2,1:2|0:0,0:0:0:0:
475,253,411060,22,0,P|417:253|328:308,1,142.5,4|2,1:0|0:2,0:0:0:0:
343,291,411405,1,4,1:2:0:0:
318,190,411577,1,6,0:2:0:0:
224,351,411750,2,0,P|228:292|249:245,1,95,0|2,0:2|1:2,0:0:0:0:
209,48,412094,2,0,P|229:98|229:151,1,95,4|2,1:2|0:2,0:0:0:0:
111,316,412439,21,0,1:0:0:0:
85,224,412612,1,2,2:1:0:0:
241,259,412784,21,0,1:0:0:0:
311,195,412957,1,2,2:1:0:0:
223,165,413129,1,4,0:2:0:0:
395,330,413301,21,2,1:1:0:0:
418,237,413474,1,2,1:1:0:0:
441,145,413646,1,4,2:2:0:0:
251,35,413819,22,0,P|255:89|257:131,1,95,4|2,1:0|0:2,0:0:0:0:
258,148,414077,1,2,0:2:0:0:
259,166,414163,1,0,1:0:0:0:
162,103,414336,1,2,0:2:0:0:
352,148,414508,2,0,P|401:149|460:137,1,95,4|2,0:2|1:2,0:0:0:0:
393,63,414853,1,0,1:0:0:0:
329,250,415026,22,2,P|280:249|221:261,1,95,0|6,2:0|1:0,0:0:0:0:
150,336,415370,1,2,0:1:0:0:
65,216,415543,2,0,L|66:162,2,47.5,2|2|2,1:2|0:2|0:2,0:0:0:0:
150,336,415888,21,4,1:2:0:0:
170,154,416060,1,2,1:2:0:0:
235,257,416232,2,0,L|234:311,2,47.5,6|2|2,1:2|0:2|0:2,0:0:0:0:
282,119,416577,21,4,1:0:0:0:
323,214,416750,1,6,0:2:0:0:
380,127,416922,1,0,1:2:0:0:
506,285,417094,21,6,0:2:0:0:
423,220,417267,1,4,1:1:0:0:
409,323,417439,1,6,1:2:0:0:
233,360,417612,21,4,1:2:0:0:
210,258,417784,1,2,0:2:0:0:
88,178,417957,22,0,P|137:184|179:171,1,95,4|6,1:0|0:2,0:0:0:0:
195,161,418215,1,2,0:2:0:0:
210,149,418301,2,0,L|203:44,1,95,0|6,1:0|0:2,0:0:0:0:
457,93,418646,21,4,1:2:0:0:
424,74,418732,1,2,2:2:0:0:
386,69,418819,1,2,1:0:0:0:
351,82,418905,1,2,2:2:0:0:
323,105,418991,1,4,1:2:0:0:
398,161,419163,1,2,2:1:0:0:
354,245,419336,22,0,P|413:254|462:239,1,95,4|2,1:0|0:2,0:0:0:0:
459,232,419594,1,2,0:2:0:0:
470,216,419681,1,4,1:2:0:0:
268,273,419853,1,2,0:2:0:0:
272,291,419939,1,2,0:2:0:0:
276,309,420026,1,2,0:2:0:0:
280,327,420112,1,2,0:2:0:0:
284,345,420198,1,2,1:2:0:0:
379,331,420370,1,4,1:2:0:0:
179,256,420543,22,2,L|158:140,1,95,0|6,2:0|1:0,0:0:0:0:
149,49,420888,1,2,0:1:0:0:
70,162,421060,2,0,L|41:203,2,47.5,6|2|2,1:2|0:2|0:2,0:0:0:0:
149,49,421405,22,0,P|208:44|251:45,1,95,0|6,1:0|1:2,0:0:0:0:
337,166,421750,2,0,P|278:171|235:170,1,95,4|6,1:0|0:2,0:0:0:0:
373,91,422094,22,0,L|385:258,1,142.5,4|2,1:0|0:2,0:0:0:0:
383,233,422439,1,4,1:2:0:0:
491,325,422612,1,6,0:2:0:0:
491,325,422698,1,2,0:2:0:0:
491,325,422784,2,0,P|429:314|387:324,1,95,0|2,0:0|1:2,0:0:0:0:
233,330,423129,2,0,P|287:313|329:279,1,95,4|2,1:2|0:2,0:0:0:0:
158,277,423474,21,4,1:0:0:0:
139,369,423646,1,2,2:1:0:0:
220,189,423819,21,6,1:2:0:0:
178,103,423991,1,2,2:1:0:0:
129,184,424163,1,0,1:2:0:0:
299,255,424336,21,2,1:1:0:0:
326,164,424508,1,6,1:1:0:0:
358,74,424681,1,4,2:2:0:0:
512,152,424853,22,0,P|453:141|408:147,1,95,4|2,1:0|0:2,0:0:0:0:
418,144,425112,1,2,0:2:0:0:
418,144,425198,1,4,1:2:0:0:
243,125,425370,1,2,0:2:0:0:
240,106,425457,1,2,0:2:0:0:
237,87,425543,1,2,0:2:0:0:
234,68,425629,1,2,0:2:0:0:
231,49,425715,1,2,1:2:0:0:
328,34,425888,1,4,1:2:0:0:
158,202,426060,22,2,L|176:300,1,95,0|6,2:0|1:0,0:0:0:0:
262,359,426405,1,2,0:1:0:0:
87,321,426577,2,0,L|21:310,2,47.5,6|2|2,1:2|0:2|0:2,0:0:0:0:
262,359,426922,21,0,1:0:0:0:
158,203,427094,1,6,1:2:0:0:
275,206,427267,2,0,L|328:204,2,47.5,4|2|6,1:0|0:2|0:2,0:0:0:0:
221,123,427612,22,0,P|214:71|208:18,2,95,4|2|4,1:0|0:2|1:2,0:0:0:0:
329,288,428129,1,2,0:2:0:0:
404,142,428301,21,0,0:0:0:0:
315,112,428474,1,2,1:2:0:0:
414,244,428646,21,4,1:2:0:0:
492,188,428819,1,2,0:2:0:0:
245,211,428991,22,0,P|200:197|150:206,1,95,4|2,1:0|0:2,0:0:0:0:
137,215,429250,1,2,0:2:0:0:
123,228,429336,2,0,L|134:331,1,95,4|2,1:2|0:2,0:0:0:0:
158,125,429681,21,0,1:0:0:0:
120,117,429767,1,2,2:2:0:0:
82,121,429853,1,2,1:1:0:0:
51,143,429939,1,2,2:2:0:0:
32,181,430026,1,4,1:0:0:0:
134,322,430198,1,2,2:1:0:0:
285,197,430370,22,0,P|340:210|399:200,1,95,4|2,1:0|0:2,0:0:0:0:
405,200,430629,1,2,0:2:0:0:
430,187,430715,1,4,1:2:0:0:
499,349,430888,1,2,0:2:0:0:
479,328,430974,1,2,0:2:0:0:
453,316,431060,1,2,0:2:0:0:
424,311,431146,1,2,0:2:0:0:
395,313,431232,1,2,1:2:0:0:
300,358,431405,1,4,1:2:0:0:
212,301,431577,1,2,0:1:0:0:
317,149,431750,22,2,P|327:94|332:31,1,95,4|0,1:0|2:0,0:0:0:0:
210,155,432094,2,2,L|214:203,2,47.5,4|0|2,1:2|2:0|0:1,0:0:0:0:
110,85,432439,21,0,1:0:0:0:
54,181,432612,1,6,1:2:0:0:
132,70,432784,21,4,1:0:0:0:
79,171,432957,1,6,0:2:0:0:
153,265,433129,22,0,P|200:255|253:261,1,95,4|2,1:0|0:2,0:0:0:0:
272,271,433388,1,2,0:2:0:0:
294,287,433474,1,4,1:2:0:0:
432,187,433646,1,2,0:2:0:0:
405,196,433732,1,2,0:2:0:0:
376,196,433819,1,2,0:2:0:0:
348,189,433905,1,2,0:2:0:0:
323,173,433991,1,2,1:2:0:0:
388,102,434163,2,0,L|489:88,1,95,4|2,1:2|0:2,0:0:0:0:
498,251,434508,21,4,1:0:0:0:
451,334,434681,1,2,2:1:0:0:
373,206,434853,21,4,1:2:0:0:
363,300,435026,1,2,2:1:0:0:
234,230,435198,21,0,1:0:0:0:
275,315,435370,1,2,1:1:0:0:
136,326,435543,21,6,1:1:0:0:
215,376,435715,1,4,2:2:0:0:
53,359,435888,22,0,P|48:296|55:258,1,95,4|2,1:0|0:2,0:0:0:0:
59,237,436146,1,2,0:2:0:0:
68,210,436232,1,4,1:2:0:0:
128,131,436405,1,2,0:2:0:0:
154,139,436491,1,2,0:2:0:0:
182,138,436577,1,2,0:2:0:0:
209,129,436663,1,2,0:2:0:0:
230,110,436750,1,2,1:2:0:0:
323,155,436922,1,4,1:2:0:0:
276,250,437094,1,2,0:1:0:0:
466,333,437267,22,2,P|474:275|476:222,1,95,4|0,1:0|2:0,0:0:0:0:
323,155,437612,2,2,L|335:210,2,47.5,4|0|2,1:2|2:0|2:1,0:0:0:0:
383,62,437957,21,0,1:0:0:0:
423,189,438129,1,6,1:2:0:0:
479,110,438301,2,0,L|467:55,2,47.5,4|2|6,1:0|0:2|0:2,0:0:0:0:
423,189,438646,21,4,1:0:0:0:
403,292,438819,1,2,0:2:0:0:
310,356,438991,21,4,1:2:0:0:
290,253,439164,1,2,0:2:0:0:
197,185,439336,21,4,1:0:0:0:
177,288,439509,1,2,1:2:0:0:
90,355,439681,21,4,1:2:0:0:
70,252,439854,1,2,0:2:0:0:
36,76,440026,6,0,P|84:48|140:48,1,95,4|6,1:0|0:2,0:0:0:0:
122,44,440284,1,2,0:2:0:0:
122,44,440370,1,4,1:2:0:0:
213,102,440543,1,2,0:2:0:0:
383,183,440715,5,4,1:0:0:0:
383,183,440801,2,0,P|334:188|276:160,1,95,0|0,1:0|1:0,0:0:0:0:
291,172,441060,1,0,1:0:0:0:
349,103,441232,1,0,1:0:0:0:
405,271,441405,21,4,1:0:0:0:
104,308,441750,53,0,0:0:0:0:
104,308,441922,2,0,P|157:322|204:324,1,95,2|0,0:0|0:0,0:0:0:0:
264,361,442439,2,0,P|310:334|363:325,1,95,2|0,0:0|0:0,0:0:0:0:
427,326,442957,54,0,P|379:309|330:232,1,142.5,2|2,0:0|3:2,0:0:0:0:
360,165,443646,1,0,3:0:0:0:
239,85,443819,53,2,3:2:0:0:
255,161,443991,1,0,3:0:0:0:
216,266,444163,54,0,P|167:250|110:256,1,95,2|0,0:0|0:0,0:0:0:0:
61,297,444681,2,0,L|76:188,1,95,2|0,0:0|0:0,0:0:0:0:
12,158,445198,2,0,P|55:166|154:108,1,142.5,2|2,0:0|0:0,0:0:0:0:
187,64,445888,53,0,3:0:0:0:
258,40,446060,1,0,3:0:0:0:
407,119,446232,53,2,3:2:0:0:
336,95,446404,1,0,3:0:0:0:
188,180,446577,53,2,3:2:0:0:
259,156,446749,1,0,3:0:0:0:
388,214,446922,86,0,P|402:260|393:306,1,95,2|0,0:0|0:0,0:0:0:0:
320,330,447439,2,0,L|217:318,1,95,2|0,0:0|0:0,0:0:0:0:
159,280,447957,2,0,P|145:234|154:188,1,95,2|0,0:0|0:0,0:0:0:0:
129,116,448474,54,0,P|189:74|259:80,1,142.5,2|2,0:0|3:2,0:0:0:0:
325,106,449163,1,0,3:0:0:0:
446,185,449336,53,2,3:2:0:0:
376,215,449508,1,0,3:0:0:0:
280,323,449681,54,0,L|273:215,1,95,2|0,0:0|0:0,0:0:0:0:
225,163,450198,2,0,P|259:150|331:167,1,95,2|0,0:0|0:0,0:0:0:0:
389,188,450715,2,0,L|403:33,1,142.5,2|2,0:0|0:0,0:0:0:0:
485,77,451405,53,0,3:0:0:0:
476,174,451577,1,0,3:0:0:0:
378,330,451750,53,2,3:2:0:0:
369,233,451922,1,0,3:0:0:0:
274,68,452094,53,2,3:2:0:0:
265,165,452266,1,0,3:0:0:0:
173,145,452439,38,0,L|84:93,1,95,2|0,0:0|0:0,0:0:0:0:
173,239,452957,2,0,L|83:290,1,95,2|0,0:0|0:0,0:0:0:0:
257,287,453474,2,0,L|256:390,1,95,2|0,0:0|0:0,0:0:0:0:
337,239,453991,2,0,L|427:290,1,95,2|0,0:0|0:0,0:0:0:0:
338,145,454508,2,0,L|390:115,1,47.5,2|0,3:2|3:0,0:0:0:0:
256,192,454853,2,0,L|256:248,1,47.5,2|0,3:2|3:0,0:0:0:0:
171,235,455198,86,0,L|81:284,1,95,2|0,0:0|0:0,0:0:0:0:
165,160,455716,2,0,L|67:127,1,95,2|0,0:0|0:0,0:0:0:0:
218,104,456233,2,0,L|175:11,1,95,2|0,0:0|0:0,0:0:0:0:
294,105,456750,1,2,0:0:0:0:
294,105,456922,2,8,L|324:52,1,47.5,0|0,3:0|3:0,0:0:0:0:
346,161,457267,2,0,L|403:143,1,47.5,2|0,3:2|3:0,0:0:0:0:
337,238,457612,2,0,L|393:264,1,47.5,2|0,3:2|3:0,0:0:0:0:
248,116,457957,53,2,0:0:0:0:
200,256,458474,1,2,0:0:0:0:
160,132,458991,1,2,0:0:0:0:
112,232,459508,1,2,0:0:0:0:
64,148,460026,2,0,L|56:88,3,47.5,2|0|0|0,3:2|3:0|3:0|3:0,0:0:0:0:
256,192,460715,12,0,463474,0:0:0:0:
