osu file format v13

[General]
AudioFilename: Traktion - Mission ASCII.mp3
AudioLeadIn: 1996
PreviewTime: 88121
Countdown: 0
SampleSet: Normal
StackLeniency: 0.7
Mode: 0
LetterboxInBreaks: 0
WidescreenStoryboard: 0

[Editor]
Bookmarks: 22104,33107,44110,66116,88121,105657,167033
DistanceSpacing: 1
BeatDivisor: 8
GridSize: 4
TimelineZoom: 1.4

[Metadata]
Title:Mission ASCII
TitleUnicode:Mission ASCII
Artist:Traktion
ArtistUnicode:Traktion
Creator:galvenize
Version:Hyper
Source:
Tags:dnb drum and bass Secretpipe ErunamoJazz Kenterz
BeatmapID:354167
BeatmapSetID:53249

[Difficulty]
HPDrainRate:6
CircleSize:4
OverallDifficulty:7
ApproachRate:8
SliderMultiplier:1.6
SliderTickRate:2

[Events]
//Background and Video events
0,0,"ascii.jpg",0,0
//Break Periods
2,110327,120380
//Storyboard Layer 0 (Background)
//Storyboard Layer 1 (Fail)
//Storyboard Layer 2 (Pass)
//Storyboard Layer 3 (Foreground)
//Storyboard Sound Samples
//Background Colour Transformations
3,100,163,162,255

[TimingPoints]
99,343.839541547278,4,2,0,60,1,0
22018,-133.333333333333,4,2,0,60,0,0
42649,-133.333333333333,4,2,0,80,0,0
44024,-100,4,1,0,60,0,0
88121,-100,4,1,0,60,0,1
109139,-100,4,1,0,5,0,1
109225,-100,4,1,0,60,0,1
109568,-100,4,1,0,5,0,1
109654,-100,4,1,0,60,0,1
110127,-100,4,1,0,60,0,0
121044,-133.333333333333,4,2,0,80,0,0
133465,-100,4,1,0,60,0,0
176144,-100,4,1,0,60,0,1
197162,-100,4,1,0,5,0,1
197247,-100,4,1,0,60,0,1
197591,-100,4,1,0,5,0,1
197677,-100,4,1,0,60,0,1
198150,-100,4,1,0,60,0,0

[Colours]
Combo1 : 221,225,138
Combo2 : 252,112,115
Combo3 : 121,147,179

[HitObjects]
150,83,99,6,0,P|148:140|148:182,1,80
148,244,442,1,2,1:2:0:0:
148,244,614,2,0,P|232:260|308:236,1,160
372,204,1130,1,2,1:2:0:0:
452,220,1302,2,0,P|432:268|384:280,1,80
372,204,1646,6,0,L|384:120,1,80,0|2,0:0|1:2,0:0:0:0:
312,88,1990,2,0,L|300:172,1,80,0|0,0:0|0:0,0:0:0:0:
220,180,2333,2,0,L|232:96,1,80,0|2,0:0|1:2,0:0:0:0:
168,52,2677,1,0,0:0:0:0:
168,52,2849,6,0,P|88:84|80:152,1,160,4|2,0:0|1:2,0:0:0:0:
104,228,3365,1,0,0:0:0:0:
144,296,3537,2,0,P|96:316|52:320,2,80,0|0|2,0:0|0:0|1:2,0:0:0:0:
212,252,4053,2,0,P|240:172|264:100,1,160
328,52,4568,2,0,P|380:40|428:48,1,80,2|0,1:2|0:0,0:0:0:0:
416,124,4912,2,0,P|364:136|316:128,1,80
184,52,5256,2,0,P|132:40|84:48,1,80,2|0,1:2|0:0,0:0:0:0:
64,112,5600,6,0,L|84:276,1,160,4|2,0:0|1:2,0:0:0:0:
120,340,6116,2,0,P|168:352|216:352,1,80
260,300,6460,2,0,L|248:208,1,80,0|2,0:0|1:2,0:0:0:0:
300,160,6803,2,0,P|360:152|416:164,1,80
456,176,7147,6,0,L|444:344,2,160
460,96,8007,1,2,1:2:0:0:
392,52,8179,1,0,0:0:0:0:
392,52,8351,6,0,P|340:64|288:64,1,80,0|0,0:0|0:0,0:0:0:0:
232,64,8694,1,2,1:2:0:0:
152,80,8866,2,0,P|136:136|140:180,1,80
240,248,9210,2,0,P|248:196|220:152,2,80,0|2|0,0:0|1:2|0:0,0:0:0:0:
212,332,9726,5,0,0:0:0:0:
148,272,9898,2,0,L|56:264,1,80,0|2,0:0|1:2,0:0:0:0:
8,188,10242,2,0,L|87:181,1,80
148,108,10586,2,0,L|68:101,1,80,0|2,0:0|1:2,0:0:0:0:
180,192,10929,1,0,0:0:0:0:
180,192,11101,6,0,B|256:176|256:212|340:192,1,160,4|2,0:0|1:2,0:0:0:0:
312,116,11617,2,0,L|292:32,1,80
372,20,11961,2,0,P|420:96|420:180,1,160
404,240,12477,5,0,0:0:0:0:
356,304,12649,2,0,P|300:312|252:296,1,80,0|2,0:0|1:2,0:0:0:0:
208,264,12992,2,0,L|44:292,2,160
276,220,13852,6,0,P|276:172|256:128,1,80
240,68,14196,1,2,1:2:0:0:
316,40,14368,2,0,B|360:36|404:60,1,80
428,128,14712,2,0,L|432:208,1,80,0|2,0:0|1:2,0:0:0:0:
356,232,15056,2,0,P|328:156|236:144,1,160
200,192,15571,1,2,1:2:0:0:
276,220,15743,2,0,L|272:312,1,80
204,340,16087,2,0,B|120:352|120:312|48:316,1,160
20,240,16603,6,0,L|28:76,1,160,0|2,0:0|1:2,0:0:0:0:
104,52,17119,2,0,P|156:48|216:36,1,80
264,40,17462,2,0,P|316:44|376:56,2,80,0|2|0,0:0|1:2|0:0,0:0:0:0:
212,100,17978,1,0,0:0:0:0:
224,180,18150,2,0,P|264:196|316:188,1,80,0|2,0:0|1:2,0:0:0:0:
380,184,18494,2,0,P|432:256|396:308,2,160
340,252,19354,6,0,L|268:296,1,80
200,332,19697,1,2,1:2:0:0:
140,280,19869,2,0,P|132:236|144:180,1,80
88,136,20213,2,0,P|136:116|176:108,1,80,0|2,0:0|1:2,0:0:0:0:
244,96,20557,1,0,0:0:0:0:
244,96,20643,1,0,0:0:0:0:
244,96,20729,6,0,L|240:144,2,40,0|0|0,0:0|0:0|0:0,0:0:0:0:
324,84,21073,2,0,L|327:44,2,40,2|0|0,1:2|0:0|0:0,0:0:0:0:
324,164,21417,2,0,L|320:212,2,40,0|0|0,0:0|0:0|0:0,0:0:0:0:
404,152,21761,2,0,L|407:112,2,40,2|0|0,1:2|0:0|0:0,0:0:0:0:
412,36,22104,5,6,0:0:0:0:
448,272,22620,1,2,0:0:0:0:
300,336,22964,1,2,0:0:0:0:
260,268,23136,2,0,L|276:220,2,30.0000011444092,2|2|2,0:0|0:0|0:0,0:0:0:0:
212,332,23480,2,0,P|160:348|32:328,1,180.000006866455,2|2,0:0|0:0,0:0:0:0:
20,256,24167,1,2,0:0:0:0:
84,212,24339,1,2,0:0:0:0:
80,204,24425,1,2,0:0:0:0:
76,196,24511,2,0,L|76:124,1,60.0000022888184,2|0,0:0|0:0,0:0:0:0:
28,72,24855,6,0,P|104:60|144:96,1,120.000004577637,2|0,0:0|0:0,0:0:0:0:
188,140,25371,2,0,L|256:136,1,60.0000022888184,2|0,0:0|0:0,0:0:0:0:
316,100,25715,1,2,0:0:0:0:
316,100,25801,1,2,0:0:0:0:
316,100,25886,2,0,L|372:128,1,60.0000022888184,2|0,0:0|0:0,0:0:0:0:
440,164,26230,5,2,0:0:0:0:
140,324,26746,1,2,0:0:0:0:
296,348,27090,1,2,0:0:0:0:
356,300,27262,2,2,L|384:332,2,30.0000011444092
296,248,27606,6,0,P|288:176|312:124,1,120.000004577637,2|0,0:0|0:0,0:0:0:0:
340,64,28121,2,0,L|400:88,1,60.0000022888184,2|0,0:0|0:0,0:0:0:0:
468,120,28465,1,2,0:0:0:0:
440,192,28637,1,2,0:0:0:0:
436,200,28723,1,2,0:0:0:0:
432,208,28809,1,2,0:0:0:0:
400,280,28981,6,0,P|328:272|224:312,1,180.000006866455,2|2,0:0|0:0,0:0:0:0:
164,352,29669,1,2,0:0:0:0:
100,308,29841,2,2,L|64:316,2,30.0000011444092
164,260,30184,1,0,0:0:0:0:
100,212,30356,6,0,L|112:88,1,120.000004577637,2|0,0:0|0:0,0:0:0:0:
188,100,30872,2,0,L|268:92,1,60.0000022888184,2|0,0:0|0:0,0:0:0:0:
324,84,31216,1,2,0:0:0:0:
328,92,31302,1,2,0:0:0:0:
332,100,31388,2,0,L|328:168,1,60.0000022888184,2|0,0:0|0:0,0:0:0:0:
320,236,31732,6,0,L|236:264,1,60.0000022888184,2|2,0:0|0:0,0:0:0:0:
400,308,32076,2,0,L|416:244,1,60.0000022888184,2|2,0:0|0:0,0:0:0:0:
484,96,32419,2,0,L|427:114,1,60.0000022888184,2|2,0:0|0:0,0:0:0:0:
332,101,32763,2,0,L|346:42,1,60.0000022888184,2|2,0:0|0:0,0:0:0:0:
216,132,33107,6,0,B|216:164|196:192|196:192|216:224|216:268,1,120.000004577637,4|0,0:0|0:0,0:0:0:0:
300,244,33623,2,0,B|298:223|318:191|318:191|298:163|298:131,1,120.000004577637,2|0,0:0|0:0,0:0:0:0:
384,124,34139,1,2,0:0:0:0:
384,124,34225,1,2,0:0:0:0:
384,124,34311,2,0,L|460:140,1,60.0000022888184,2|2,0:0|0:0,0:0:0:0:
464,216,34654,6,0,L|448:344,2,120.000004577637,2|2|2,0:0|0:0|0:0,0:0:0:0:
464,216,35428,1,2,0:0:0:0:
464,216,35514,1,2,0:0:0:0:
476,132,35686,1,2,0:0:0:0:
492,48,35858,2,0,B|416:48|416:88|312:88,1,180.000006866455,2|2,0:0|0:0,0:0:0:0:
152,92,36717,6,2,L|128:60,2,30.0000011444092
204,160,37061,1,2,0:0:0:0:
124,188,37233,1,2,0:0:0:0:
188,244,37405,2,0,P|144:272|80:260,1,120.000004577637,2|2,0:0|0:0,0:0:0:0:
204,160,38093,5,2,0:0:0:0:
268,212,38265,1,2,0:0:0:0:
268,212,38351,1,2,0:0:0:0:
268,212,38437,1,2,0:0:0:0:
256,296,38609,2,0,L|396:304,1,120.000004577637,2|0,0:0|0:0,0:0:0:0:
460,308,39124,2,0,P|488:260|456:188,1,120.000004577637,2|2,0:0|0:0,0:0:0:0:
408,144,39640,1,2,0:0:0:0:
408,144,39726,1,2,0:0:0:0:
408,144,39812,1,2,0:0:0:0:
336,188,39984,6,0,P|260:204|176:140,1,180.000006866455,2|2,0:0|0:0,0:0:0:0:
144,72,40672,2,0,L|68:92,1,60.0000022888184,2|2,0:0|0:0,0:0:0:0:
72,100,40929,1,2,0:0:0:0:
60,112,41015,1,2,0:0:0:0:
100,188,41187,1,2,0:0:0:0:
32,236,41359,6,0,P|84:272|144:256,1,120.000004577637,2|0,0:0|0:0,0:0:0:0:
136,261,41875,1,2,0:0:0:0:
272,160,42219,2,2,L|264:124,2,30.0000011444092
292,244,42563,1,2,0:0:0:0:
308,328,42735,6,0,L|392:336,1,60.0000022888184,0|0,1:0|0:0,0:0:0:0:
464,260,43078,2,0,L|380:252,1,60.0000022888184,0|0,1:0|0:0,0:0:0:0:
324,164,43422,2,0,L|408:172,1,60.0000022888184,0|0,1:0|0:0,0:0:0:0:
480,96,43766,2,0,L|396:88,1,60.0000022888184,0|0,1:0|0:0,0:0:0:0:
324,76,44110,5,4,0:0:0:0:
256,32,44282,2,0,L|168:52,1,80,0|8,0:0|0:0,0:0:0:0:
144,124,44626,2,0,B|156:168|156:204|156:204|128:244|92:248,1,160
32,292,45141,1,8,0:0:0:0:
36,304,45227,1,0,0:0:0:0:
40,316,45313,1,0,0:0:0:0:
116,340,45485,6,0,B|200:356|200:356|272:316,1,160,4|8,0:0|0:0,0:0:0:0:
336,280,46001,1,0,0:0:0:0:
412,308,46173,1,0,0:0:0:0:
468,248,46345,1,0,0:0:0:0:
464,236,46431,1,0,0:0:0:0:
460,224,46517,1,8,0:0:0:0:
384,204,46689,1,0,0:0:0:0:
436,144,46861,6,0,L|440:60,2,80,4|0|8,0:0|0:0|0:0,0:0:0:0:
384,204,47376,2,0,B|304:180|296:220|196:192,1,160
225,198,47806,1,0,0:0:0:0:
225,198,47892,1,8,0:0:0:0:
148,184,48064,1,0,0:0:0:0:
160,104,48236,5,0,0:0:0:0:
84,132,48408,2,0,B|60:172|60:212|60:212|84:248|120:264,2,160
160,104,49268,1,8,0:0:0:0:
172,108,49354,1,0,0:0:0:0:
184,112,49439,1,0,0:0:0:0:
260,140,49611,6,0,P|344:136|384:76,1,160,4|8,0:0|0:0,0:0:0:0:
304,72,50127,2,0,L|376:228,1,160
412,288,50643,1,8,0:0:0:0:
404,296,50729,1,0,0:0:0:0:
396,304,50815,1,0,0:0:0:0:
312,284,50987,5,0,0:0:0:0:
244,340,51159,2,0,L|196:264,1,80,0|8,0:0|0:0,0:0:0:0:
112,272,51503,2,0,L|136:184,1,80
164,112,51846,2,0,L|152:64,2,40,0|0|8,0:0|0:0|0:0,0:0:0:0:
236,160,52190,1,0,0:0:0:0:
324,164,52362,6,0,P|312:108|268:80,2,80,4|0|8,0:0|0:0|0:0,0:0:0:0:
276,240,52878,2,0,L|104:256,1,160
116,254,53308,1,0,0:0:0:0:
116,254,53394,1,8,0:0:0:0:
60,200,53566,1,0,0:0:0:0:
112,140,53737,6,0,P|120:100|108:56,1,80
204,24,54081,2,0,P|196:64|208:108,1,80,8|0,0:0|0:0,0:0:0:0:
276,140,54425,2,0,P|284:100|272:56,2,80,0|0|8,0:0|0:0|0:0,0:0:0:0:
236,208,54941,1,0,0:0:0:0:
316,220,55113,6,0,L|408:204,1,80,4|0,0:0|0:0,0:0:0:0:
476,192,55457,1,8,0:0:0:0:
460,112,55629,2,0,B|440:72|400:56|400:56|356:56|316:80,1,160
256,108,56144,1,8,0:0:0:0:
248,120,56230,1,0,0:0:0:0:
240,132,56316,1,0,0:0:0:0:
200,200,56488,6,0,P|216:280|284:304,1,160,0|8,0:0|0:0,0:0:0:0:
284,216,57004,1,0,0:0:0:0:
360,188,57176,2,0,P|408:176|444:184,1,80
444,192,57434,1,0,0:0:0:0:
452,204,57520,1,8,0:0:0:0:
456,284,57692,1,0,0:0:0:0:
376,300,57864,6,0,P|392:344|404:380,2,80,0|0|8,0:0|0:0|0:0,0:0:0:0:
296,296,58379,2,0,B|212:292|216:336|128:332,1,160
142,332,58809,1,0,0:0:0:0:
142,332,58895,1,8,0:0:0:0:
72,292,59067,1,0,0:0:0:0:
132,240,59239,5,0,0:0:0:0:
132,240,59411,2,0,L|148:156,1,80,0|8,0:0|0:0,0:0:0:0:
72,132,59755,2,0,P|132:84|216:120,1,160
268,160,60270,1,8,0:0:0:0:
280,156,60356,1,0,0:0:0:0:
292,152,60442,1,0,0:0:0:0:
368,124,60614,6,0,L|336:40,1,80,4|0,0:0|0:0,0:0:0:0:
416,28,60958,1,8,0:0:0:0:
464,92,61130,2,0,B|444:136|440:172|440:172|448:216|472:260,1,160
424,312,61646,1,8,0:0:0:0:
412,316,61732,1,0,0:0:0:0:
400,320,61818,1,0,0:0:0:0:
324,348,61990,6,0,P|236:364|164:340,1,160,0|8,0:0|0:0,0:0:0:0:
104,300,62505,1,0,0:0:0:0:
144,232,62677,1,0,0:0:0:0:
220,252,62849,2,0,L|220:296,2,40,0|0|8,0:0|0:0|0:0,0:0:0:0:
236,172,63193,1,0,0:0:0:0:
308,136,63365,6,0,P|320:180|304:216,2,80,0|0|8,0:0|0:0|0:0,0:0:0:0:
248,84,63881,2,0,B|180:84|180:136|80:136,1,160
98,135,64311,1,0,0:0:0:0:
98,135,64396,1,8,0:0:0:0:
44,196,64568,1,0,0:0:0:0:
108,240,64740,6,0,L|192:216,1,80,0|0,0:0|0:0,0:0:0:0:
280,280,65084,2,0,L|196:304,1,80,8|0,0:0|0:0,0:0:0:0:
156,200,65428,2,0,L|240:176,1,80
328,240,65772,2,0,L|244:264,1,80,8|0,0:0|0:0,0:0:0:0:
308,164,66116,5,4,0:0:0:0:
308,164,66288,2,8,P|368:160|392:172,1,80,0|8,0:0|0:0,0:0:0:0:
464,176,66631,2,0,L|448:76,1,80
388,44,66975,2,0,B|308:56|308:56|220:40,1,160
152,24,67491,1,0,0:0:0:0:
184,136,67663,2,0,L|176:220,1,80,0|8,0:0|0:0,0:0:0:0:
96,216,68007,2,0,L|120:308,1,80
196,296,68351,2,0,B|280:284|280:284|356:296,1,160
448,232,68866,6,0,P|432:192|424:148,1,80,4|0,0:0|0:0,0:0:0:0:
412,76,69210,1,8,0:0:0:0:
344,36,69382,2,0,B|304:32|304:32|252:44,1,80
216,104,69726,2,0,P|172:172|92:160,1,160
52,100,70242,1,0,0:0:0:0:
128,72,70414,2,0,L|148:164,1,80,0|8,0:0|0:0,0:0:0:0:
136,232,70758,2,0,P|188:244|236:248,1,80
256,316,71101,2,0,P|300:304|332:288,1,80,0|8,0:0|0:0,0:0:0:0:
404,256,71445,1,0,0:0:0:0:
404,256,71617,6,0,L|352:88,1,160,4|8,0:0|0:0,0:0:0:0:
296,52,72133,2,0,P|276:92|284:132,1,80
296,204,72477,2,0,B|268:236|268:236|204:248,1,80,0|8,0:0|0:0,0:0:0:0:
160,208,72821,2,0,B|188:176|188:176|252:164,1,80,0|0,0:0|0:0,0:0:0:0:
144,284,73164,2,0,P|104:272|84:224,1,80,0|8,0:0|0:0,0:0:0:0:
80,152,73508,2,0,L|140:96,1,80
212,132,73852,2,0,P|292:136|388:112,1,160
428,64,74368,6,0,B|400:136|400:136|424:216,1,160,4|8,0:0|0:0,0:0:0:0:
456,288,74884,2,0,L|368:312,1,80
316,260,75227,2,0,L|252:324,1,80,0|8,0:0|0:0,0:0:0:0:
188,280,75571,2,0,L|156:360,1,80
216,200,75915,2,0,L|192:116,1,80,0|8,0:0|0:0,0:0:0:0:
317,123,76259,2,0,L|296:200,1,80
176,196,76603,2,0,L|152:112,1,80,0|8,0:0|0:0,0:0:0:0:
84,76,76947,1,0,0:0:0:0:
72,80,77033,1,0,0:0:0:0:
60,84,77119,6,0,L|44:248,1,160,4|8,0:0|0:0,0:0:0:0:
32,324,77634,2,0,L|120:336,1,80
172,284,77978,2,0,L|260:272,1,80,0|8,0:0|0:0,0:0:0:0:
316,324,78322,2,0,B|292:244|292:244|308:168,1,160
336,96,78838,1,8,0:0:0:0:
404,136,79010,2,0,P|424:180|448:208,1,80
388,260,79354,2,0,L|220:196,1,160
100,152,79869,6,0,P|96:192|104:232,1,80,4|0,0:0|0:0,0:0:0:0:
124,308,80213,1,8,0:0:0:0:
196,276,80385,2,0,L|276:268,1,80
304,192,80729,2,0,L|216:172,1,80,0|8,0:0|0:0,0:0:0:0:
244,96,81073,2,0,L|336:88,1,80
400,116,81417,2,0,L|416:280,2,160
328,80,82276,1,8,0:0:0:0:
256,48,82448,1,0,0:0:0:0:
244,52,82534,1,0,0:0:0:0:
232,56,82620,6,0,L|140:40,1,80,0|0,0:0|0:0,0:0:0:0:
72,36,82964,1,8,0:0:0:0:
92,112,83136,2,0,P|84:160|76:204,1,80
24,248,83480,2,0,L|84:312,1,80,0|8,0:0|0:0,0:0:0:0:
148,264,83823,2,0,P|232:252|308:284,1,160
364,328,84339,1,8,0:0:0:0:
380,248,84511,2,0,L|344:164,1,80,0|0,0:0|0:0,0:0:0:0:
320,100,84855,2,0,B|240:84|240:84|168:36,1,160
64,112,85371,6,0,L|80:200,1,80,4|0,0:0|0:0,0:0:0:0:
92,268,85715,1,8,0:0:0:0:
160,308,85886,2,0,B|208:300|208:300|256:276,1,80
288,224,86230,2,0,L|448:276,2,160
188,176,87090,5,8,0:0:0:0:
188,176,87262,1,8,0:0:0:0:
180,88,87434,1,8,0:0:0:0:
180,88,87520,1,8,0:0:0:0:
180,88,87606,2,0,L|264:96,2,80,0|8|0,0:0|0:0|0:0,0:0:0:0:
96,112,88121,5,4,0:0:0:0:
76,196,88293,1,0,0:0:0:0:
60,276,88465,1,8,0:0:0:0:
160,340,88637,5,0,0:0:0:0:
236,316,88809,1,0,0:0:0:0:
312,344,88981,1,0,0:0:0:0:
388,316,89153,1,8,0:0:0:0:
312,344,89325,1,0,0:0:0:0:
236,316,89497,1,0,0:0:0:0:
160,340,89669,2,0,L|76:352,2,80,0|8|0,0:0|0:0|0:0,0:0:0:0:
236,316,90184,5,0,0:0:0:0:
260,240,90356,1,0,0:0:0:0:
284,164,90528,2,0,L|368:164,2,80,8|0|0,0:0|0:0|0:0,0:0:0:0:
204,160,91044,1,0,0:0:0:0:
184,84,91216,1,8,0:0:0:0:
248,40,91388,1,0,0:0:0:0:
312,92,91560,1,0,0:0:0:0:
284,164,91732,1,0,0:0:0:0:
204,160,91904,2,0,L|132:200,1,80,8|0,0:0|0:0,0:0:0:0:
64,236,92247,5,0,0:0:0:0:
112,300,92419,1,0,0:0:0:0:
192,288,92591,1,8,0:0:0:0:
252,340,92763,1,0,0:0:0:0:
380,320,92935,5,0,0:0:0:0:
360,244,93107,1,0,0:0:0:0:
340,168,93279,1,8,0:0:0:0:
360,244,93451,1,0,0:0:0:0:
380,320,93623,6,0,L|472:332,2,80,4|0|8,0:0|0:0|0:0,0:0:0:0:
304,296,94139,1,0,0:0:0:0:
244,244,94311,1,0,0:0:0:0:
244,164,94482,1,0,0:0:0:0:
244,244,94654,1,8,0:0:0:0:
184,296,94826,1,0,0:0:0:0:
108,268,94998,1,0,0:0:0:0:
88,192,95170,6,0,L|8:204,2,80,0|8|0,0:0|0:0|0:0,0:0:0:0:
156,152,95686,1,0,0:0:0:0:
160,72,95858,1,0,0:0:0:0:
88,40,96030,1,8,0:0:0:0:
80,120,96202,1,0,0:0:0:0:
156,152,96374,5,4,0:0:0:0:
228,116,96545,1,0,0:0:0:0:
300,152,96717,1,8,0:0:0:0:
364,104,96889,5,0,0:0:0:0:
300,152,97061,1,0,0:0:0:0:
360,204,97233,1,0,0:0:0:0:
292,248,97405,1,8,0:0:0:0:
348,304,97577,1,0,0:0:0:0:
348,304,97663,1,0,0:0:0:0:
348,304,97749,6,0,L|392:308,2,40
272,328,98093,2,0,L|296:368,2,40
196,308,98437,2,0,L|192:356,2,40
148,244,98780,2,0,L|116:284,2,40
204,184,99124,5,4,0:0:0:0:
276,220,99296,1,0,0:0:0:0:
356,204,99468,1,8,0:0:0:0:
300,144,99640,5,0,0:0:0:0:
276,220,99812,1,0,0:0:0:0:
328,280,99984,1,0,0:0:0:0:
408,268,100156,1,8,0:0:0:0:
408,268,100328,1,0,0:0:0:0:
436,192,100500,5,0,0:0:0:0:
384,128,100672,2,0,P|424:108|468:120,2,80,0|8|0,0:0|0:0|0:0,0:0:0:0:
356,204,101187,1,0,0:0:0:0:
328,280,101359,2,0,P|288:300|244:288,2,80,0|8|0,0:0|0:0|0:0,0:0:0:0:
356,204,101875,5,4,0:0:0:0:
280,176,102047,1,0,0:0:0:0:
204,148,102219,1,8,0:0:0:0:
128,120,102391,1,0,0:0:0:0:
112,200,102563,1,0,0:0:0:0:
96,280,102735,2,0,L|-16:296,2,80,0|8|0,0:0|0:0|0:0,0:0:0:0:
176,268,103250,5,0,0:0:0:0:
224,332,103422,1,0,0:0:0:0:
260,260,103594,1,8,0:0:0:0:
308,324,103766,1,0,0:0:0:0:
344,252,103938,1,0,0:0:0:0:
308,324,104110,1,0,0:0:0:0:
260,260,104282,1,8,0:0:0:0:
224,332,104454,1,0,0:0:0:0:
176,268,104626,6,0,P|176:220|144:180,2,80,4|0|8,0:0|0:0|0:0,0:0:0:0:
112,316,105141,1,0,0:0:0:0:
52,264,105313,1,0,0:0:0:0:
64,184,105485,1,0,0:0:0:0:
132,144,105657,1,8,0:0:0:0:
148,64,105829,1,0,0:0:0:0:
76,28,106001,1,0,0:0:0:0:
52,104,106173,6,0,P|96:112|164:112,1,80,0|8,0:0|0:0,0:0:0:0:
212,104,106517,1,0,0:0:0:0:
284,72,106689,1,0,0:0:0:0:
276,152,106861,1,0,0:0:0:0:
212,104,107033,1,8,0:0:0:0:
284,72,107205,1,0,0:0:0:0:
276,152,107376,5,4,0:0:0:0:
216,204,107548,1,0,0:0:0:0:
152,252,107720,1,8,0:0:0:0:
240,324,107892,1,0,0:0:0:0:
320,336,108064,1,0,0:0:0:0:
400,352,108236,1,0,0:0:0:0:
480,368,108408,1,8,0:0:0:0:
456,236,108580,1,0,0:0:0:0:
456,236,108666,1,0,0:0:0:0:
456,236,108752,6,0,L|476:188,2,40
388,168,109096,2,0,L|408:120,2,40,8|0|8,0:0|0:0|0:0,0:0:0:0:
328,92,109439,2,0,L|348:44,2,40,8|8|8,0:0|0:0|0:0,0:0:0:0:
256,156,109783,1,8,0:0:0:0:
184,92,109955,1,0,0:0:0:0:
184,92,110127,1,4,0:0:0:0:
88,152,121130,6,0,B|128:152|152:144|152:144|176:156|212:156,1,120.000004577637,4|0,0:0|0:0,0:0:0:0:
280,120,121646,2,0,P|240:180|248:224,1,120.000004577637,2|2,0:0|0:0,0:0:0:0:
276,304,122162,1,0,0:0:0:0:
276,304,122247,1,0,0:0:0:0:
276,304,122333,1,0,0:0:0:0:
200,344,122505,1,0,0:0:0:0:
148,276,122677,2,0,B|80:268|80:268|16:288,2,120.000004577637,2|2|2,0:0|0:0|0:0,0:0:0:0:
148,276,123451,1,0,0:0:0:0:
148,276,123537,1,0,0:0:0:0:
196,208,123709,1,0,0:0:0:0:
120,168,123881,6,0,L|116:108,1,60.0000022888184,2|0,0:0|0:0,0:0:0:0:
44,200,124396,2,0,L|32:56,1,120.000004577637,2|2,0:0|0:0,0:0:0:0:
34,80,124826,1,0,0:0:0:0:
34,80,124912,1,0,0:0:0:0:
100,32,125084,1,0,0:0:0:0:
156,96,125256,1,0,0:0:0:0:
156,96,125428,2,0,B|216:100|216:100|280:72,1,120.000004577637,2|2,0:0|0:0,0:0:0:0:
436,36,126116,5,2,0:0:0:0:
368,88,126288,1,0,0:0:0:0:
368,88,126374,1,0,0:0:0:0:
368,88,126460,1,0,0:0:0:0:
436,136,126631,2,0,P|384:176|324:160,1,120.000004577637,2|0,0:0|0:0,0:0:0:0:
256,136,127147,2,0,L|320:264,1,120.000004577637,2|2,0:0|0:0,0:0:0:0:
344,320,127663,1,0,0:0:0:0:
344,320,127749,1,0,0:0:0:0:
344,320,127835,1,0,0:0:0:0:
260,316,128007,6,0,B|196:312|196:312|136:332,1,120.000004577637,0|0,0:0|0:0,0:0:0:0:
60,312,128523,1,2,0:0:0:0:
100,236,128694,1,0,0:0:0:0:
40,176,128866,1,2,0:0:0:0:
40,176,128952,1,0,0:0:0:0:
40,176,129038,2,0,L|48:96,1,60.0000022888184
112,64,129382,6,0,B|176:84|176:84|236:72,1,120.000004577637,2|0,0:0|0:0,0:0:0:0:
308,52,129898,2,0,P|332:120|288:160,1,120.000004577637,2|2,0:0|0:0,0:0:0:0:
306,152,130328,1,2,0:0:0:0:
306,152,130414,1,2,0:0:0:0:
240,204,130586,1,2,0:0:0:0:
276,280,130758,6,2,L|344:284,1,60.0000022888184,0|0,1:0|0:0,0:0:0:0:
264,328,131101,2,0,L|196:324,1,60.0000022888184,0|0,1:0|0:0,0:0:0:0:
140,272,131445,2,0,L|208:276,1,60.0000022888184,0|0,1:0|0:0,0:0:0:0:
128,320,131788,2,0,L|60:316,1,60.0000022888184,0|0,1:0|0:0,0:0:0:0:
44,236,132133,5,4,0:0:0:0:
44,236,132649,2,0,L|72:108,1,120.000004577637
136,64,133164,1,8,0:0:0:0:
136,64,133250,1,0,0:0:0:0:
136,64,133336,1,0,0:0:0:0:
180,132,133508,6,0,P|264:148|328:108,1,160,4|8,0:0|0:0,0:0:0:0:
380,52,134024,1,0,0:0:0:0:
428,116,134196,1,0,0:0:0:0:
392,188,134368,2,0,L|344:156,2,40,0|0|8,0:0|0:0|0:0,0:0:0:0:
468,208,134712,1,0,0:0:0:0:
416,268,134884,6,0,P|456:288|504:280,2,80,0|0|8,0:0|0:0|0:0,0:0:0:0:
340,244,135399,2,0,B|264:228|264:228|180:248,1,160
183,247,135829,1,0,0:0:0:0:
183,247,135915,1,8,0:0:0:0:
128,304,136087,1,0,0:0:0:0:
204,324,136259,1,0,0:0:0:0:
183,247,136431,2,0,P|124:220|52:276,2,160
264,244,137290,1,8,0:0:0:0:
264,244,137376,1,0,0:0:0:0:
264,244,137462,1,0,0:0:0:0:
324,192,137634,6,0,L|296:108,1,80
272,40,137978,1,8,0:0:0:0:
212,92,138150,2,0,P|140:104|60:56,1,160
12,124,138666,1,8,0:0:0:0:
16,136,138752,1,0,0:0:0:0:
20,148,138838,1,0,0:0:0:0:
76,204,139010,5,0,0:0:0:0:
36,272,139182,2,0,L|64:352,1,80,0|8,0:0|0:0,0:0:0:0:
132,304,139525,2,0,L|208:348,1,80
272,304,139869,1,0,0:0:0:0:
272,304,139955,1,0,0:0:0:0:
272,304,140041,1,8,0:0:0:0:
340,348,140213,1,0,0:0:0:0:
352,268,140385,6,0,P|412:268|456:264,2,80,0|0|8,0:0|0:0|0:0,0:0:0:0:
272,304,140901,2,0,B|256:260|264:224|264:224|288:200|336:184,1,160
331,185,141331,1,0,0:0:0:0:
331,185,141417,1,8,0:0:0:0:
352,96,141588,1,0,0:0:0:0:
276,116,141760,2,0,P|264:68|264:20,1,80,0|0,0:0|0:0,0:0:0:0:
188,72,142104,2,0,P|184:124|172:168,1,80,8|0,0:0|0:0,0:0:0:0:
100,132,142448,2,0,P|92:76|96:40,2,80,0|0|8,0:0|0:0|0:0,0:0:0:0:
124,208,142964,1,0,0:0:0:0:
124,208,143136,6,0,L|212:224,1,80,4|0,0:0|0:0,0:0:0:0:
276,192,143480,1,8,0:0:0:0:
288,272,143652,2,0,B|264:316|248:332|248:332|208:340|160:324,1,160
92,284,144167,1,8,0:0:0:0:
88,272,144253,1,0,0:0:0:0:
84,260,144339,1,0,0:0:0:0:
76,180,144511,6,0,P|140:128|220:156,1,160,0|8,0:0|0:0,0:0:0:0:
276,192,145027,1,0,0:0:0:0:
352,164,145199,1,0,0:0:0:0:
428,192,145371,1,0,0:0:0:0:
428,192,145457,1,0,0:0:0:0:
428,192,145543,1,8,0:0:0:0:
388,260,145715,1,0,0:0:0:0:
420,332,145886,6,0,P|460:304|464:268,2,80,0|0|8,0:0|0:0|0:0,0:0:0:0:
340,328,146402,2,0,B|260:316|260:368|164:340,1,160
183,344,146832,1,0,0:0:0:0:
183,344,146918,1,8,0:0:0:0:
120,296,147090,1,0,0:0:0:0:
192,264,147262,6,0,L|184:172,1,80
104,172,147606,1,8,0:0:0:0:
24,180,147778,2,0,P|52:112|140:100,1,160
208,124,148293,1,8,0:0:0:0:
208,124,148379,1,0,0:0:0:0:
208,124,148465,1,0,0:0:0:0:
272,76,148637,6,0,B|356:80|356:80|436:48,1,160,4|8,0:0|0:0,0:0:0:0:
472,120,149153,2,0,L|396:152,1,80
324,180,149497,1,0,0:0:0:0:
252,212,149669,1,8,0:0:0:0:
252,212,149755,1,0,0:0:0:0:
252,212,149841,1,0,0:0:0:0:
172,200,150013,5,0,0:0:0:0:
92,208,150184,2,0,L|112:312,1,80,0|8,0:0|0:0,0:0:0:0:
172,200,150528,2,0,L|152:96,1,80
220,72,150872,1,0,0:0:0:0:
220,72,150958,1,0,0:0:0:0:
220,72,151044,1,8,0:0:0:0:
292,36,151216,1,0,0:0:0:0:
332,104,151388,6,0,L|312:272,1,160,4|8,0:0|0:0,0:0:0:0:
248,312,151904,2,0,P|328:280|400:324,1,160
389,310,152333,1,0,0:0:0:0:
389,310,152419,1,8,0:0:0:0:
464,344,152591,1,0,0:0:0:0:
488,268,152763,6,0,L|480:176,1,80
432,124,153107,2,0,L|424:216,1,80,8|0,0:0|0:0,0:0:0:0:
376,268,153451,2,0,L|368:176,1,80
320,124,153795,2,0,L|312:216,1,80,8|0,0:0|0:0,0:0:0:0:
304,284,154139,5,4,0:0:0:0:
236,324,154311,1,0,0:0:0:0:
168,284,154482,1,8,0:0:0:0:
168,284,154654,2,0,L|80:300,1,80
12,312,154998,2,0,P|56:244|24:168,1,160
31,174,155514,1,0,0:0:0:0:
12,96,155686,6,0,L|104:80,1,80,0|8,0:0|0:0,0:0:0:0:
152,32,156030,2,0,L|232:80,1,80
296,40,156374,2,0,L|320:124,1,80,0|8,0:0|0:0,0:0:0:0:
244,152,156717,1,0,0:0:0:0:
240,164,156803,1,0,0:0:0:0:
236,176,156889,6,0,P|324:220|376:192,1,160,4|8,0:0|0:0,0:0:0:0:
440,148,157405,2,0,L|500:228,1,80
428,264,157749,2,0,L|416:364,1,80,0|8,0:0|0:0,0:0:0:0:
340,332,158093,1,0,0:0:0:0:
260,348,158265,1,0,0:0:0:0:
180,364,158437,6,0,P|164:308|176:260,1,80,0|8,0:0|0:0,0:0:0:0:
100,240,158780,2,0,P|132:188|176:176,1,80
148,100,159124,2,0,P|212:88|240:104,1,80,0|8,0:0|0:0,0:0:0:0:
256,168,159468,1,0,0:0:0:0:
256,180,159554,1,0,0:0:0:0:
256,192,159640,6,0,L|440:168,1,160,4|8,0:0|0:0,0:0:0:0:
444,96,160156,2,0,P|424:64|416:16,1,80
336,16,160500,1,0,0:0:0:0:
272,68,160672,1,8,0:0:0:0:
200,32,160843,2,0,L|112:24,1,80
24,100,161187,6,0,L|112:108,1,80,0|8,0:0|0:0,0:0:0:0:
164,228,161531,2,0,P|176:292|160:320,1,80
96,272,161875,2,0,P|84:208|100:180,1,80,0|8,0:0|0:0,0:0:0:0:
152,148,162219,1,0,0:0:0:0:
164,144,162305,1,0,0:0:0:0:
176,140,162391,6,0,B|256:160|256:160|352:136,1,160,0|8,0:0|0:0,0:0:0:0:
408,116,162907,2,0,L|396:208,1,80
384,276,163250,1,0,0:0:0:0:
372,356,163422,1,8,0:0:0:0:
384,276,163594,2,0,L|284:252,1,80
232,232,163938,6,0,P|232:288|268:328,1,80,0|8,0:0|0:0,0:0:0:0:
308,260,164282,2,0,P|308:204|272:164,1,80
224,152,164626,2,0,B|152:164|152:220|56:200,1,160
76,203,165056,1,0,0:0:0:0:
76,203,165141,6,0,L|56:104,2,80,4|0|8,0:0|0:0|0:0,0:0:0:0:
96,280,165657,2,0,P|156:284|200:260,1,80
248,244,166001,1,0,0:0:0:0:
304,300,166173,1,8,0:0:0:0:
344,232,166345,2,0,L|356:152,1,80
288,36,166689,6,0,P|232:44|188:40,1,80,0|8,0:0|0:0,0:0:0:0:
80,108,167033,2,0,P|124:116|172:112,1,80
304,192,167376,2,0,P|220:212|144:204,1,160
147,204,167892,6,0,L|152:304,1,80
204,348,168236,1,8,0:0:0:0:
272,308,168408,2,0,L|360:320,1,80
424,348,168752,1,0,0:0:0:0:
480,292,168924,1,8,0:0:0:0:
432,228,169096,2,0,L|344:216,1,80
276,196,169439,6,0,P|276:112|352:84,2,160
252,272,170299,1,8,0:0:0:0:
176,244,170471,1,0,0:0:0:0:
164,240,170557,1,0,0:0:0:0:
152,236,170643,6,0,B|124:152|124:152|156:76,1,160,4|8,0:0|0:0,0:0:0:0:
88,36,171159,2,0,L|52:116,1,80
52,188,171503,2,0,L|80:276,1,80,0|8,0:0|0:0,0:0:0:0:
140,316,171846,2,0,P|216:324|256:252,1,160
248,180,172362,1,8,0:0:0:0:
296,116,172534,2,0,P|332:160|328:196,1,80
248,180,172878,2,0,P|212:104|276:44,1,160
344,56,173394,6,4,P|380:132|316:192,1,160,4|8,0:0|0:0,0:0:0:0:
248,180,173909,2,0,L|268:264,1,80
348,272,174253,2,0,L|320:360,1,80,0|8,0:0|0:0,0:0:0:0:
244,344,174597,1,0,0:0:0:0:
168,316,174769,2,0,L|88:332,2,80,0|0|8,0:0|0:0|0:0,0:0:0:0:
148,240,175285,1,8,0:0:0:0:
128,164,175457,1,8,0:0:0:0:
128,164,175543,2,0,P|168:132|232:148,1,120,8|8,0:0|0:0,0:0:0:0:
316,228,175972,1,0,0:0:0:0:
420,168,176144,5,4,0:0:0:0:
392,92,176316,1,0,0:0:0:0:
364,16,176488,1,8,0:0:0:0:
392,92,176660,5,0,0:0:0:0:
328,140,176832,1,0,0:0:0:0:
272,80,177004,1,0,0:0:0:0:
208,128,177176,1,8,0:0:0:0:
160,64,177348,1,0,0:0:0:0:
92,108,177520,1,0,0:0:0:0:
136,280,177692,5,0,0:0:0:0:
212,256,177864,1,8,0:0:0:0:
288,232,178035,1,0,0:0:0:0:
132,192,178207,5,0,0:0:0:0:
64,236,178379,1,0,0:0:0:0:
60,316,178551,1,8,0:0:0:0:
124,364,178723,1,0,0:0:0:0:
64,236,178895,5,4,0:0:0:0:
64,236,179067,1,0,0:0:0:0:
56,156,179239,1,8,0:0:0:0:
56,156,179411,1,0,0:0:0:0:
124,112,179583,1,0,0:0:0:0:
124,112,179755,1,0,0:0:0:0:
132,192,179927,2,0,L|212:204,1,80,8|0,0:0|0:0,0:0:0:0:
288,220,180270,5,0,0:0:0:0:
360,184,180442,1,0,0:0:0:0:
308,124,180614,1,8,0:0:0:0:
380,88,180786,1,0,0:0:0:0:
360,184,180958,5,0,0:0:0:0:
360,184,181130,1,0,0:0:0:0:
240,160,181302,1,8,0:0:0:0:
240,160,181474,1,0,0:0:0:0:
124,132,181646,6,0,L|104:216,2,80,4|0|8,0:0|0:0|0:0,0:0:0:0:
180,248,182162,1,0,0:0:0:0:
188,328,182333,1,0,0:0:0:0:
256,280,182505,1,0,0:0:0:0:
180,248,182677,1,8,0:0:0:0:
188,328,182849,1,0,0:0:0:0:
256,280,183021,5,0,0:0:0:0:
180,248,183193,2,0,L|72:232,1,80,0|8,0:0|0:0,0:0:0:0:
56,168,183537,1,0,0:0:0:0:
120,120,183709,1,0,0:0:0:0:
120,120,183881,1,0,0:0:0:0:
192,156,184053,1,8,0:0:0:0:
192,156,184225,1,0,0:0:0:0:
244,96,184396,5,4,0:0:0:0:
320,76,184568,1,0,0:0:0:0:
384,124,184740,1,8,0:0:0:0:
364,200,184912,1,0,0:0:0:0:
364,200,185084,1,0,0:0:0:0:
380,280,185256,1,0,0:0:0:0:
380,280,185428,1,8,0:0:0:0:
312,324,185600,1,0,0:0:0:0:
312,324,185686,1,0,0:0:0:0:
312,324,185772,6,0,L|332:380,2,40
252,272,186116,2,0,L|272:212,2,40,0|0|0,0:0|0:0|0:0,0:0:0:0:
188,320,186460,2,0,L|208:380,2,40
132,260,186803,2,0,L|152:200,2,40
80,320,187147,5,4,0:0:0:0:
48,248,187319,1,0,0:0:0:0:
80,172,187491,1,8,0:0:0:0:
208,192,187663,5,0,0:0:0:0:
288,208,187835,1,0,0:0:0:0:
368,220,188007,1,0,0:0:0:0:
448,128,188179,5,8,0:0:0:0:
396,68,188351,1,0,0:0:0:0:
316,84,188523,1,0,0:0:0:0:
208,192,188694,5,0,0:0:0:0:
216,272,188866,1,8,0:0:0:0:
224,352,189038,1,0,0:0:0:0:
296,316,189210,5,0,0:0:0:0:
296,316,189382,1,0,0:0:0:0:
144,308,189554,1,8,0:0:0:0:
144,308,189726,1,0,0:0:0:0:
296,316,189898,5,4,0:0:0:0:
376,304,190070,1,0,0:0:0:0:
324,244,190242,1,8,0:0:0:0:
404,228,190414,1,0,0:0:0:0:
348,172,190586,1,0,0:0:0:0:
428,156,190758,1,0,0:0:0:0:
372,96,190929,2,0,L|288:88,1,80,8|0,0:0|0:0,0:0:0:0:
212,80,191273,5,0,0:0:0:0:
140,48,191445,1,0,0:0:0:0:
68,80,191617,1,8,0:0:0:0:
56,160,191789,1,0,0:0:0:0:
120,208,191961,1,0,0:0:0:0:
200,196,192133,1,0,0:0:0:0:
140,128,192305,1,8,0:0:0:0:
140,128,192477,1,0,0:0:0:0:
44,240,192649,6,0,L|32:328,2,80,4|0|8,0:0|0:0|0:0,0:0:0:0:
120,208,193164,1,0,0:0:0:0:
172,272,193336,1,0,0:0:0:0:
252,264,193508,1,0,0:0:0:0:
284,192,193680,1,8,0:0:0:0:
360,168,193852,1,0,0:0:0:0:
428,208,194024,1,0,0:0:0:0:
348,252,194196,6,0,L|364:332,2,80,0|8|0,0:0|0:0|0:0,0:0:0:0:
200,188,194712,2,0,L|184:108,2,80,0|0|8,0:0|0:0|0:0,0:0:0:0:
200,188,195227,1,0,0:0:0:0:
220,316,195399,5,4,0:0:0:0:
140,328,195571,1,0,0:0:0:0:
60,340,195743,1,8,0:0:0:0:
84,184,195915,1,0,0:0:0:0:
96,104,196087,1,0,0:0:0:0:
108,24,196259,1,0,0:0:0:0:
96,104,196431,1,8,0:0:0:0:
84,184,196603,1,0,0:0:0:0:
84,184,196689,1,0,0:0:0:0:
84,184,196775,6,0,L|76:248,2,40
196,152,197119,2,0,L|204:88,2,40,8|0|8,0:0|0:0|0:0,0:0:0:0:
280,216,197462,2,0,L|272:280,2,40,8|8|0,0:0|0:0|0:0,0:0:0:0:
360,148,197806,2,0,L|368:84,2,40,8|0|0,0:0|0:0|0:0,0:0:0:0:
420,232,198150,5,4,0:0:0:0:
