osu file format v13

[General]
AudioFilename: Traktion - Fire Dance [Fire Dance Ultimatum].mp3
AudioLeadIn: 0
PreviewTime: 152092
Countdown: 0
SampleSet: Soft
StackLeniency: 0.7
Mode: 0
LetterboxInBreaks: 1
WidescreenStoryboard: 1

[Editor]
DistanceSpacing: 1
BeatDivisor: 4
GridSize: 8
TimelineZoom: 1.5

[Metadata]
Title:Fire Dance [Fire Dance/Ultimatum]
TitleUnicode:Fire Dance [Fire Dance/Ultimatum]
Artist:Traktion
ArtistUnicode:Traktion
Creator:TheForgotten5
Version:Flames
Source:
Tags:ultimatum marathon
BeatmapID:412969
BeatmapSetID:170605

[Difficulty]
HPDrainRate:6
CircleSize:4
OverallDifficulty:7
ApproachRate:9
SliderMultiplier:2.6
SliderTickRate:2

[Events]
//Background and Video events
0,0,"futuristic_city-1435232-1920x1080.jpg",0,0
//Break Periods
2,32292,46492
2,182292,196023
//Storyboard Layer 0 (Background)
//Storyboard Layer 1 (Fail)
//Storyboard Layer 2 (Pass)
//Storyboard Layer 3 (Foreground)
//Storyboard Sound Samples
//Background Colour Transformations
3,100,163,162,255

[TimingPoints]
686,468.75,4,2,0,60,1,0
92092,-100,4,2,0,60,0,1
120920,-100,4,2,0,60,0,0
152092,-100,4,2,0,60,0,1
166154,-100,4,2,0,60,0,0
242092,-100,4,2,0,60,0,1
269982,-100,4,2,0,60,0,0
302092,-100,4,2,0,60,0,1
316857,-100,4,2,0,60,0,0

[HitObjects]
48,48,2092,5,0,0:0:0:0:
256,192,2561,1,8,0:0:0:0:
488,344,3029,1,0,0:0:0:0:
488,40,3498,1,8,0:0:0:0:
256,192,3967,1,0,0:0:0:0:
48,344,4436,1,8,0:0:0:0:
256,192,4904,1,0,0:0:0:0:
48,40,5373,1,8,0:0:0:0:
208,160,5842,6,0,L|96:160,2,97.5
224,216,6311,2,2,L|144:288,2,97.5,10|2|2,0:0|0:0|0:0,0:0:0:0:
280,232,6779,2,0,L|280:344,2,97.5
336,216,7248,2,2,L|424:296,2,97.5,10|2|2,0:0|0:0|0:0,0:0:0:0:
344,160,7717,6,0,L|456:160,2,97.5
336,216,8186,2,2,L|416:288,2,97.5,10|2|2,0:0|0:0|0:0,0:0:0:0:
280,232,8654,2,0,L|280:336,2,97.5,0|0|0,0:0|0:0|0:0,0:0:0:0:
224,216,9123,2,2,L|144:288,2,97.5,10|2|2,0:0|0:0|0:0,0:0:0:0:
200,160,9592,5,0,0:0:0:0:
344,160,9826,1,0,0:0:0:0:
272,56,10061,1,8,0:0:0:0:
272,192,10295,1,0,0:0:0:0:
344,88,10529,5,0,0:0:0:0:
200,88,10764,1,0,0:0:0:0:
200,232,10998,1,8,0:0:0:0:
344,232,11232,1,0,0:0:0:0:
400,144,11467,5,0,0:0:0:0:
328,280,11701,1,0,0:0:0:0:
176,216,11936,1,8,0:0:0:0:
256,88,12170,1,0,0:0:0:0:
144,192,12404,5,0,0:0:0:0:
232,304,12639,1,0,0:0:0:0:
312,184,12873,1,8,0:0:0:0:
408,304,13107,1,0,0:0:0:0:
304,320,13342,6,0,L|392:256,2,97.5
304,256,13811,2,2,L|208:208,2,97.5,10|2|2,0:0|0:0|0:0,0:0:0:0:
304,192,14279,2,0,L|392:128,2,97.5
304,128,14748,2,2,L|208:80,2,97.5,10|2|2,0:0|0:0|0:0,0:0:0:0:
304,128,15217,6,0,L|200:184,2,97.5
304,192,15686,2,2,L|392:248,2,97.5,10|2|2,0:0|0:0|0:0,0:0:0:0:
304,256,16154,2,0,L|208:312,2,97.5
384,256,16623,6,0,B|504:208|320:184|496:144|512:128|384:64,1,260
264,112,17326,1,0,0:0:0:0:
144,168,17561,1,8,0:0:0:0:
264,224,17795,1,0,0:0:0:0:
144,280,18029,1,0,0:0:0:0:
264,224,18264,5,0,0:0:0:0:
384,176,18498,1,8,0:0:0:0:
264,112,18732,1,0,0:0:0:0:
384,56,18967,1,0,0:0:0:0:
264,112,19201,5,0,0:0:0:0:
152,56,19436,1,8,0:0:0:0:
264,112,19670,1,0,0:0:0:0:
152,176,19904,1,0,0:0:0:0:
264,240,20139,5,0,0:0:0:0:
384,176,20373,1,8,0:0:0:0:
264,240,20607,1,0,0:0:0:0:
384,304,20842,1,0,0:0:0:0:
384,176,21076,1,0,0:0:0:0:
384,40,21311,5,8,0:0:0:0:
384,176,21545,1,0,0:0:0:0:
256,40,21779,1,0,0:0:0:0:
256,176,22014,1,0,0:0:0:0:
128,40,22248,1,8,0:0:0:0:
128,176,22482,5,0,0:0:0:0:
256,192,22717,2,0,L|168:152,2,97.5
312,192,23186,2,2,L|216:256,2,97.5,10|2|2,0:0|0:0|0:0,0:0:0:0:
368,192,23654,2,0,L|256:136,2,97.5
368,192,24123,6,2,L|464:144,2,97.5,10|2|2,0:0|0:0|0:0,0:0:0:0:
312,192,24592,2,0,L|416:264,2,97.5
256,192,25061,2,2,L|368:136,2,97.5,10|2|2,0:0|0:0|0:0,0:0:0:0:
200,192,25529,2,0,L|288:256,2,97.5
144,192,25998,6,2,B|80:168|160:144|72:88,1,130,10|2,0:0|0:0,0:0:0:0:
208,56,26467,1,0,0:0:0:0:
360,56,26701,2,8,B|432:88|320:112|360:176,1,130
360,304,27170,1,0,0:0:0:0:
208,304,27404,5,0,0:0:0:0:
360,240,27639,1,0,0:0:0:0:
208,240,27873,1,8,0:0:0:0:
360,176,28107,1,0,0:0:0:0:
336,80,28342,6,0,L|192:80,2,130,0|0|8,0:0|0:0|0:0,0:0:0:0:
336,200,29045,1,0,0:0:0:0:
200,200,29279,2,0,L|200:336,2,130,0|0|8,0:0|0:0|0:0,0:0:0:0:
64,200,29982,1,0,0:0:0:0:
200,72,30217,2,0,L|64:72,2,130,0|0|8,0:0|0:0|0:0,0:0:0:0:
328,72,30920,5,0,0:0:0:0:
448,192,31154,1,0,0:0:0:0:
328,320,31389,1,0,0:0:0:0:
168,320,31623,1,8,0:0:0:0:
64,184,31857,1,0,0:0:0:0:
176,72,32092,1,4,0:0:0:0:
72,64,47092,5,8,0:0:0:0:
432,320,47561,1,8,0:0:0:0:
432,64,48029,1,8,0:0:0:0:
72,320,48498,1,8,0:0:0:0:
288,240,48967,6,8,B|96:200|352:176|112:88,1,260
288,80,49670,2,0,L|200:184,1,130,0|8,0:0|0:0,0:0:0:0:
288,240,50139,2,0,L|184:320,2,130,0|8|0,0:0|0:0|0:0,0:0:0:0:
448,240,50842,5,8,0:0:0:0:
432,208,50959,1,0,0:0:0:0:
408,176,51076,1,0,0:0:0:0:
376,152,51193,1,0,0:0:0:0:
344,128,51311,1,8,0:0:0:0:
312,112,51428,1,0,0:0:0:0:
280,104,51545,1,0,0:0:0:0:
240,104,51662,5,0,0:0:0:0:
208,120,51779,2,2,L|208:192,2,65,10|2|2,0:0|0:0|0:0,0:0:0:0:
168,104,52131,1,0,0:0:0:0:
136,128,52248,1,8,0:0:0:0:
112,160,52365,1,0,0:0:0:0:
104,200,52482,1,0,0:0:0:0:
120,240,52600,1,0,0:0:0:0:
152,264,52717,1,8,0:0:0:0:
192,256,52834,5,0,0:0:0:0:
216,224,52951,1,0,0:0:0:0:
232,184,53068,1,0,0:0:0:0:
256,152,53186,1,8,0:0:0:0:
288,128,53303,1,0,0:0:0:0:
328,120,53420,1,0,0:0:0:0:
368,136,53537,1,0,0:0:0:0:
400,168,53654,6,2,L|456:136,2,65,10|2|2,0:0|0:0|0:0,0:0:0:0:
400,208,54006,1,0,0:0:0:0:
368,232,54123,1,8,0:0:0:0:
328,232,54240,1,0,0:0:0:0:
296,208,54357,1,0,0:0:0:0:
264,184,54475,1,0,0:0:0:0:
232,208,54592,1,8,0:0:0:0:
200,184,54709,5,0,0:0:0:0:
168,208,54826,1,0,0:0:0:0:
136,184,54943,1,0,0:0:0:0:
104,208,55061,1,8,0:0:0:0:
80,184,55178,1,0,0:0:0:0:
64,152,55295,1,0,0:0:0:0:
80,112,55412,1,0,0:0:0:0:
104,80,55529,6,2,L|40:48,2,65,10|2|2,0:0|0:0|0:0,0:0:0:0:
136,64,55881,1,0,0:0:0:0:
168,80,55998,1,8,0:0:0:0:
192,104,56115,1,0,0:0:0:0:
216,128,56232,1,0,0:0:0:0:
240,152,56350,1,0,0:0:0:0:
216,184,56467,1,8,0:0:0:0:
192,216,56584,5,0,0:0:0:0:
168,248,56701,1,0,0:0:0:0:
192,272,56818,1,0,0:0:0:0:
216,296,56936,1,8,0:0:0:0:
240,320,57053,1,0,0:0:0:0:
272,296,57170,1,0,0:0:0:0:
304,272,57287,1,0,0:0:0:0:
336,248,57404,6,2,L|392:296,2,65,10|2|2,0:0|0:0|0:0,0:0:0:0:
352,216,57756,1,0,0:0:0:0:
328,184,57873,1,8,0:0:0:0:
304,152,57990,1,0,0:0:0:0:
280,120,58107,1,0,0:0:0:0:
248,152,58225,1,0,0:0:0:0:
224,184,58342,1,8,0:0:0:0:
200,216,58459,5,0,0:0:0:0:
168,184,58576,1,0,0:0:0:0:
144,152,58693,1,0,0:0:0:0:
120,120,58811,1,8,0:0:0:0:
88,152,58928,1,0,0:0:0:0:
88,192,59045,1,0,0:0:0:0:
96,232,59162,1,0,0:0:0:0:
128,264,59279,6,2,L|80:312,2,65,10|2|2,0:0|0:0|0:0,0:0:0:0:
168,264,59631,1,0,0:0:0:0:
208,248,59748,1,8,0:0:0:0:
240,224,59865,1,0,0:0:0:0:
264,192,59982,1,0,0:0:0:0:
408,112,60217,5,8,0:0:0:0:
392,144,60334,1,0,0:0:0:0:
376,176,60451,1,0,0:0:0:0:
288,288,60686,5,8,0:0:0:0:
264,256,60803,1,0,0:0:0:0:
240,224,60920,1,0,0:0:0:0:
144,168,61154,5,8,0:0:0:0:
168,136,61271,1,0,0:0:0:0:
192,104,61389,1,0,0:0:0:0:
320,184,61623,5,8,0:0:0:0:
320,224,61740,1,0,0:0:0:0:
320,264,61857,1,0,0:0:0:0:
152,272,62092,5,8,0:0:0:0:
168,240,62209,1,0,0:0:0:0:
184,208,62326,2,2,L|256:96,1,130,2|10,0:0|0:0,0:0:0:0:
320,56,62795,1,0,0:0:0:0:
440,128,63029,6,2,B|520:184|384:184|392:240,1,130,10|2,0:0|0:0,0:0:0:0:
280,304,63498,1,8,0:0:0:0:
128,200,63732,1,0,0:0:0:0:
280,104,63967,2,10,B|144:168|416:168|216:336|168:176,1,260
80,80,64670,6,2,L|80:216,1,130,2|10,0:0|0:0,0:0:0:0:
88,240,65021,1,0,0:0:0:0:
112,272,65139,1,0,0:0:0:0:
144,296,65256,1,0,0:0:0:0:
184,312,65373,1,8,0:0:0:0:
224,304,65490,1,0,0:0:0:0:
256,280,65607,1,0,0:0:0:0:
272,248,65725,1,0,0:0:0:0:
272,200,65842,6,2,L|336:200,2,65,10|2|2,0:0|0:0|0:0,0:0:0:0:
272,64,66311,1,8,0:0:0:0:
408,136,66545,1,0,0:0:0:0:
408,264,66779,2,2,B|328:152|368:328|304:248,1,130,10|2,0:0|0:0,0:0:0:0:
192,184,67248,5,8,0:0:0:0:
88,64,67482,1,0,0:0:0:0:
192,184,67717,2,0,B|240:128|192:56|240:240|288:248|328:160,2,195,2|2|2,0:0|0:0|0:0,0:0:0:0:
352,248,68654,2,2,L|408:208,2,65,10|2|2,0:0|0:0|0:0,0:0:0:0:
320,272,69006,5,0,0:0:0:0:
288,288,69123,1,8,0:0:0:0:
248,280,69240,1,0,0:0:0:0:
224,248,69357,1,0,0:0:0:0:
208,216,69475,1,0,0:0:0:0:
216,176,69592,5,8,0:0:0:0:
240,144,69709,1,0,0:0:0:0:
264,112,69826,1,0,0:0:0:0:
368,48,70061,2,0,L|424:168,1,130,8|0,0:0|0:0,0:0:0:0:
424,288,70529,5,8,0:0:0:0:
256,184,70764,1,0,0:0:0:0:
88,80,70998,1,8,0:0:0:0:
256,184,71232,1,0,0:0:0:0:
424,80,71467,6,0,B|208:40|384:240|320:144,2,195,8|2|2,0:0|0:0|0:0,0:0:0:0:
424,192,72404,5,8,0:0:0:0:
400,224,72521,1,0,0:0:0:0:
368,248,72639,1,0,0:0:0:0:
336,224,72756,1,0,0:0:0:0:
304,192,72873,1,8,0:0:0:0:
272,160,72990,1,0,0:0:0:0:
240,128,73107,1,0,0:0:0:0:
208,112,73225,1,0,0:0:0:0:
176,128,73342,5,8,0:0:0:0:
152,160,73459,1,0,0:0:0:0:
128,192,73576,1,0,0:0:0:0:
128,328,73811,1,8,0:0:0:0:
400,328,74045,1,0,0:0:0:0:
256,192,74279,6,0,L|360:104,1,130,8|0,0:0|0:0,0:0:0:0:
408,192,74748,1,8,0:0:0:0:
256,192,74982,1,0,0:0:0:0:
168,48,75217,2,0,B|152:176|112:24|56:184,2,195,8|2|2,0:0|0:0|0:0,0:0:0:0:
296,104,76154,6,0,L|344:56,2,65,8|0|0,0:0|0:0|0:0,0:0:0:0:
280,136,76506,1,0,0:0:0:0:
288,168,76623,1,8,0:0:0:0:
304,200,76740,1,0,0:0:0:0:
296,240,76857,1,0,0:0:0:0:
272,272,76975,1,0,0:0:0:0:
240,296,77092,5,8,0:0:0:0:
208,272,77209,1,0,0:0:0:0:
176,240,77326,1,0,0:0:0:0:
96,152,77561,1,8,0:0:0:0:
216,80,77795,6,2,L|136:32,2,65,2|2|10,0:0|0:0|0:0,0:0:0:0:
248,104,78146,1,0,0:0:0:0:
264,144,78264,1,0,0:0:0:0:
240,176,78381,1,0,0:0:0:0:
216,208,78498,1,8,0:0:0:0:
224,248,78615,1,0,0:0:0:0:
256,272,78732,1,0,0:0:0:0:
296,256,78850,1,0,0:0:0:0:
320,224,78967,5,8,0:0:0:0:
336,184,79084,1,0,0:0:0:0:
344,144,79201,1,0,0:0:0:0:
448,232,79436,1,8,0:0:0:0:
344,328,79670,1,0,0:0:0:0:
168,248,79904,6,2,L|96:288,2,65,10|2|2,0:0|0:0|0:0,0:0:0:0:
176,208,80256,1,0,0:0:0:0:
192,176,80373,1,8,0:0:0:0:
216,144,80490,1,0,0:0:0:0:
248,120,80607,1,0,0:0:0:0:
288,112,80725,1,0,0:0:0:0:
328,112,80842,5,8,0:0:0:0:
360,136,80959,1,0,0:0:0:0:
384,168,81076,1,0,0:0:0:0:
384,304,81311,1,8,0:0:0:0:
256,192,81545,1,0,0:0:0:0:
384,80,81779,6,2,L|440:40,2,65,10|2|2,0:0|0:0|0:0,0:0:0:0:
352,96,82131,1,0,0:0:0:0:
312,80,82248,1,8,0:0:0:0:
272,96,82365,1,0,0:0:0:0:
248,128,82482,1,0,0:0:0:0:
232,160,82600,1,0,0:0:0:0:
200,176,82717,5,8,0:0:0:0:
168,152,82834,1,0,0:0:0:0:
144,120,82951,1,0,0:0:0:0:
72,256,83186,1,8,0:0:0:0:
216,320,83420,1,0,0:0:0:0:
232,160,83654,6,2,L|168:112,2,65,10|2|2,0:0|0:0|0:0,0:0:0:0:
264,176,84006,1,0,0:0:0:0:
296,160,84123,1,8,0:0:0:0:
320,128,84240,1,0,0:0:0:0:
344,96,84357,1,0,0:0:0:0:
384,88,84475,1,0,0:0:0:0:
424,104,84592,5,8,0:0:0:0:
448,136,84709,1,0,0:0:0:0:
440,176,84826,1,0,0:0:0:0:
368,288,85061,1,8,0:0:0:0:
192,232,85295,1,0,0:0:0:0:
112,96,85529,6,2,L|56:144,2,65,10|2|2,0:0|0:0|0:0,0:0:0:0:
152,88,85881,1,0,0:0:0:0:
192,96,85998,1,8,0:0:0:0:
224,120,86115,1,0,0:0:0:0:
248,152,86232,1,0,0:0:0:0:
256,192,86350,1,0,0:0:0:0:
280,224,86467,5,8,0:0:0:0:
320,208,86584,1,0,0:0:0:0:
344,176,86701,1,0,0:0:0:0:
344,48,86936,1,8,0:0:0:0:
192,152,87170,1,0,0:0:0:0:
192,296,87404,6,2,L|128:320,2,65,10|2|2,0:0|0:0|0:0,0:0:0:0:
232,288,87756,1,0,0:0:0:0:
272,288,87873,1,8,0:0:0:0:
312,288,87990,1,0,0:0:0:0:
352,288,88107,1,0,0:0:0:0:
256,192,88342,12,4,90217,0:0:0:0:
152,128,90451,5,8,0:0:0:0:
304,80,90686,1,0,0:0:0:0:
312,120,90803,1,0,0:0:0:0:
320,168,90920,1,0,0:0:0:0:
432,168,91154,5,8,0:0:0:0:
344,304,91389,1,0,0:0:0:0:
208,288,91623,1,8,0:0:0:0:
192,248,91740,1,0,0:0:0:0:
176,208,91857,1,0,0:0:0:0:
256,56,92092,6,2,B|384:64|200:80|144:88|336:160,1,260,2|10,0:0|0:0,0:0:0:0:
344,304,92795,1,0,0:0:0:0:
176,208,93029,2,0,L|88:232,4,65,0|0|0|0|8,0:0|0:0|0:0|0:0|0:0,0:0:0:0:
72,88,93732,5,0,0:0:0:0:
312,40,93967,1,0,0:0:0:0:
344,64,94084,1,0,0:0:0:0:
376,88,94201,1,0,0:0:0:0:
432,296,94436,1,8,0:0:0:0:
256,224,94670,6,0,L|256:304,2,65
160,288,95139,2,0,L|160:216,2,65,0|0|8,0:0|0:0|0:0,0:0:0:0:
48,176,95607,1,0,0:0:0:0:
208,48,95842,2,0,B|304:72|368:88|128:120|376:168,1,260,0|8,0:0|0:0,0:0:0:0:
296,280,96545,6,2,L|232:248,2,65
96,272,97014,1,0,0:0:0:0:
96,88,97248,1,8,0:0:0:0:
248,160,97482,5,0,0:0:0:0:
280,136,97600,1,0,0:0:0:0:
320,120,97717,1,0,0:0:0:0:
360,128,97834,1,0,0:0:0:0:
392,152,97951,1,0,0:0:0:0:
416,184,98068,1,0,0:0:0:0:
416,224,98186,5,8,0:0:0:0:
392,256,98303,1,0,0:0:0:0:
360,288,98420,2,0,L|240:216,1,130
96,296,98889,1,0,0:0:0:0:
248,96,99123,5,8,0:0:0:0:
440,88,99357,1,0,0:0:0:0:
440,120,99475,1,0,0:0:0:0:
440,152,99592,2,0,B|360:88|328:64|336:264,1,260,0|8,0:0|0:0,0:0:0:0:
176,272,100295,5,0,0:0:0:0:
320,120,100529,2,2,L|368:72,4,65,2|2|2|2|10,0:0|0:0|0:0|0:0|0:0,0:0:0:0:
464,280,101232,1,0,0:0:0:0:
176,112,101467,5,0,0:0:0:0:
200,136,101584,1,0,0:0:0:0:
224,160,101701,2,0,L|328:256,1,130,0|8,0:0|0:0,0:0:0:0:
384,144,102170,6,0,L|456:128,2,65,2|2|2,0:0|0:0|0:0,0:0:0:0:
224,104,102639,2,0,L|192:40,2,65,2|2|8,0:0|0:0|0:0,0:0:0:0:
272,288,103107,1,0,0:0:0:0:
80,288,103342,2,2,B|176:232|200:216|56:200|16:176|128:128,1,260,2|10,0:0|0:0,0:0:0:0:
288,88,104045,6,0,L|288:160,2,65,2|2|2,0:0|0:0|0:0,0:0:0:0:
392,248,104514,2,0,L|392:176,2,65,2|2|8,0:0|0:0|0:0,0:0:0:0:
192,288,104982,5,0,0:0:0:0:
224,256,105100,1,0,0:0:0:0:
248,224,105217,1,0,0:0:0:0:
224,192,105334,1,0,0:0:0:0:
192,168,105451,1,0,0:0:0:0:
224,136,105568,1,0,0:0:0:0:
248,104,105686,1,8,0:0:0:0:
224,72,105803,1,0,0:0:0:0:
192,48,105920,6,0,L|104:152,1,130
88,296,106389,1,0,0:0:0:0:
256,168,106623,1,8,0:0:0:0:
424,296,106857,1,0,0:0:0:0:
256,168,107092,6,0,B|336:144|384:128|312:72|488:168|336:240,1,260,0|8,0:0|0:0,0:0:0:0:
200,304,107795,1,0,0:0:0:0:
120,128,108029,2,0,L|64:96,4,65,2|2|2|2|8,0:0|0:0|0:0|0:0|0:0,0:0:0:0:
296,72,108732,1,0,0:0:0:0:
440,176,108967,5,0,0:0:0:0:
424,208,109084,1,0,0:0:0:0:
408,240,109201,2,0,L|272:240,1,130,0|8,0:0|0:0,0:0:0:0:
136,104,109670,6,2,L|80:72,2,65,0|0|0,0:0|0:0|0:0,0:0:0:0:
136,240,110139,2,2,L|72:272,2,65,2|2|10,0:0|0:0|0:0,0:0:0:0:
296,176,110607,1,0,0:0:0:0:
416,64,110842,2,0,B|320:64|304:32|288:0|232:160,1,260,0|8,0:0|0:0,0:0:0:0:
384,256,111545,6,2,L|416:312,2,65
232,256,112014,2,2,L|192:312,2,65,2|2|10,0:0|0:0|0:0,0:0:0:0:
312,112,112482,1,0,0:0:0:0:
280,80,112600,1,0,0:0:0:0:
240,56,112717,1,0,0:0:0:0:
192,48,112834,5,0,0:0:0:0:
144,56,112951,1,0,0:0:0:0:
104,80,113068,1,0,0:0:0:0:
72,112,113186,1,8,0:0:0:0:
56,160,113303,1,0,0:0:0:0:
64,200,113420,2,0,L|176:288,1,130,0|0,0:0|0:0,0:0:0:0:
344,280,113889,5,0,0:0:0:0:
440,104,114123,2,2,L|288:104,1,130,10|2,0:0|0:0,0:0:0:0:
104,80,114592,2,0,B|152:136|176:40|216:0|280:176,1,260,0|8,0:0|0:0,0:0:0:0:
112,296,115295,1,0,0:0:0:0:
352,240,115529,6,0,L|416:264,4,65,2|2|2|2|8,0:0|0:0|0:0|0:0|0:0,0:0:0:0:
352,88,116232,1,0,0:0:0:0:
168,64,116467,1,0,0:0:0:0:
152,96,116584,1,0,0:0:0:0:
136,128,116701,2,0,L|136:272,1,130,0|8,0:0|0:0,0:0:0:0:
328,280,117170,6,2,L|360:336,2,65
256,144,117639,2,2,L|224:88,2,65,2|2|10,0:0|0:0|0:0,0:0:0:0:
120,264,118107,1,0,0:0:0:0:
72,96,118342,2,2,B|136:48|208:40|312:128,1,260,2|10,0:0|0:0,0:0:0:0:
432,264,119045,6,2,L|456:336,2,65
280,264,119514,2,2,L|248:336,2,65,2|2|10,0:0|0:0|0:0,0:0:0:0:
360,88,119982,5,0,0:0:0:0:
320,72,120100,1,0,0:0:0:0:
280,72,120217,5,0,0:0:0:0:
240,80,120334,1,0,0:0:0:0:
208,104,120451,1,0,0:0:0:0:
176,136,120568,1,0,0:0:0:0:
160,176,120686,1,8,0:0:0:0:
160,216,120803,1,0,0:0:0:0:
176,256,120920,1,0,0:0:0:0:
256,192,121154,12,4,122092,0:0:0:0:
128,96,122326,5,0,0:0:0:0:
288,176,122561,2,2,L|224:256,2,97.5,10|2|2,0:0|0:0|0:0,0:0:0:0:
360,176,123029,2,2,L|432:264,2,97.5
328,120,123498,2,2,L|328:16,2,97.5,10|2|2,0:0|0:0|0:0,0:0:0:0:
304,176,123967,6,0,L|208:112,2,97.5,2|2|2,0:0|0:0|0:0,0:0:0:0:
312,240,124436,2,0,L|232:312,2,97.5,8|0|0,0:0|0:0|0:0,0:0:0:0:
376,240,124904,2,2,L|448:312,2,97.5
376,176,125373,2,0,L|472:112,2,97.5,8|0|0,0:0|0:0|0:0,0:0:0:0:
376,104,125842,6,0,B|312:40|216:32|304:192|144:144,1,260,0|8,0:0|0:0,0:0:0:0:
168,328,126545,1,0,0:0:0:0:
360,240,126779,6,0,L|256:240,2,97.5
360,240,127248,2,0,L|464:240,2,97.5,8|0|0,0:0|0:0|0:0,0:0:0:0:
360,240,127717,2,0,L|360:360,2,97.5
360,240,128186,2,0,L|360:120,2,97.5,8|0|0,0:0|0:0|0:0,0:0:0:0:
360,240,128654,2,2,B|296:128|264:328|160:120,1,260,2|10,0:0|0:0,0:0:0:0:
296,56,129357,5,0,0:0:0:0:
440,136,129592,2,0,P|440:280|336:288,1,260,0|8,0:0|0:0,0:0:0:0:
176,208,130295,1,0,0:0:0:0:
80,64,130529,2,0,L|32:152,2,97.5,2|2|2,0:0|0:0|0:0,0:0:0:0:
144,152,130998,2,0,L|192:264,2,97.5,8|0|0,0:0|0:0|0:0,0:0:0:0:
240,136,131467,6,0,L|184:48,2,97.5
240,208,131936,2,2,L|168:296,2,97.5,10|2|2,0:0|0:0|0:0,0:0:0:0:
312,136,132404,2,0,L|384:56,2,97.5
312,208,132873,2,0,P|248:336|216:328,1,195,8|0,0:0|0:0,0:0:0:0:
168,312,133342,6,0,P|136:216|272:144,1,260,0|8,0:0|0:0,0:0:0:0:
400,64,134045,1,0,0:0:0:0:
400,224,134279,2,0,L|488:280,2,97.5
320,224,134748,2,2,L|232:288,2,97.5,10|2|2,0:0|0:0|0:0,0:0:0:0:
320,152,135217,6,0,L|224:80,2,97.5,2|2|2,0:0|0:0|0:0,0:0:0:0:
248,152,135686,2,0,L|160:88,2,97.5,8|2|2,0:0|0:0|0:0,0:0:0:0:
176,152,136154,2,0,P|80:184|176:248,1,260,0|8,0:0|0:0,0:0:0:0:
336,296,136857,1,0,0:0:0:0:
424,152,137092,6,0,B|384:16|352:136|336:208|248:56,1,260,0|8,0:0|0:0,0:0:0:0:
112,168,137795,1,0,0:0:0:0:
240,248,138029,2,2,L|184:336,2,97.5
240,128,138498,2,2,L|176:224,2,97.5,10|2|2,0:0|0:0|0:0,0:0:0:0:
328,128,138967,6,0,L|392:216,2,97.5
328,248,139436,2,2,L|392:336,2,97.5,10|2|2,0:0|0:0|0:0,0:0:0:0:
248,328,139904,2,0,L|192:240,2,97.5
248,200,140373,2,0,L|192:112,2,97.5,8|0|0,0:0|0:0|0:0,0:0:0:0:
336,136,140842,6,0,P|232:32|144:96,1,260,0|8,0:0|0:0,0:0:0:0:
96,216,141545,1,0,0:0:0:0:
248,280,141779,2,2,L|248:168,2,97.5
320,224,142248,2,2,L|320:96,2,97.5,10|2|2,0:0|0:0|0:0,0:0:0:0:
384,168,142717,6,0,L|384:280,2,97.5
456,224,143186,2,0,L|456:336,2,97.5,8|0|0,0:0|0:0|0:0,0:0:0:0:
456,152,143654,2,0,P|376:16|304:64,1,260,0|8,0:0|0:0,0:0:0:0:
224,144,144357,1,0,0:0:0:0:
96,96,144592,6,0,B|176:128|216:152|88:176|8:160|72:248|152:248,1,260,0|8,0:0|0:0,0:0:0:0:
288,248,145295,1,0,0:0:0:0:
384,120,145529,2,2,L|384:224,2,97.5
304,176,145998,2,2,L|304:48,2,97.5,10|2|2,0:0|0:0|0:0,0:0:0:0:
224,120,146467,6,0,L|224:232,2,97.5
152,184,146936,2,0,L|48:184,2,97.5,8|0|0,0:0|0:0|0:0,0:0:0:0:
224,184,147404,2,0,L|224:296,2,97.5,2|2|2,0:0|0:0|0:0,0:0:0:0:
296,184,147873,2,0,P|336:296|368:272,1,195,8|0,0:0|0:0,0:0:0:0:
400,248,148342,6,0,B|400:80|400:72|272:72,1,260,0|8,0:0|0:0,0:0:0:0:
96,176,149045,1,0,0:0:0:0:
288,256,149279,2,0,L|328:152,2,97.5,2|2|2,0:0|0:0|0:0,0:0:0:0:
288,256,149748,1,8,0:0:0:0:
152,264,149982,6,0,L|152:112,1,130,0|0,0:0|0:0,0:0:0:0:
408,64,150686,1,0,0:0:0:0:
232,64,151154,2,0,B|173:64|173:64|165:72|165:72|165:56|165:56|157:72|157:72|157:56|157:56|149:72|149:72|149:56|149:56|141:72|141:72|141:56|141:56|133:72|133:72|133:56|133:56|125:72|125:72|125:56|125:56|117:72|117:72|117:56|117:56|109:72|109:72|109:56|109:56|101:72|101:72|101:56|101:56|93:72|93:72|93:56|93:70,1,390
120,224,152092,6,0,L|48:304,2,97.5
272,224,152561,2,0,L|192:312,2,97.5,8|0|0,0:0|0:0|0:0,0:0:0:0:
376,112,153029,2,0,L|448:40,2,97.5
224,112,153498,2,0,L|304:32,2,97.5,8|0|0,0:0|0:0|0:0,0:0:0:0:
376,224,153967,6,0,L|448:304,2,97.5
224,232,154436,2,0,L|304:320,2,97.5,8|0|0,0:0|0:0|0:0,0:0:0:0:
264,104,154904,2,0,L|192:32,2,97.5
128,112,155373,2,0,L|48:24,2,97.5,8|0|0,0:0|0:0|0:0,0:0:0:0:
200,184,155842,6,0,L|200:288,2,97.5
280,184,156311,2,0,L|280:56,2,97.5,8|0|0,0:0|0:0|0:0,0:0:0:0:
120,184,156779,2,0,L|120:288,2,97.5
360,184,157248,2,0,L|360:72,2,97.5,8|0|0,0:0|0:0|0:0,0:0:0:0:
248,128,157717,6,0,L|136:128,2,97.5
248,224,158186,2,0,L|368:224,2,97.5,8|0|0,0:0|0:0|0:0,0:0:0:0:
248,64,158654,2,0,L|128:64,2,97.5
248,288,159123,2,0,L|368:288,2,97.5,8|0|0,0:0|0:0|0:0,0:0:0:0:
248,176,159592,6,0,L|384:176,1,130
448,32,160061,1,8,0:0:0:0:
80,32,160295,1,0,0:0:0:0:
80,296,160529,1,0,0:0:0:0:
448,304,160764,1,0,0:0:0:0:
264,168,160998,5,8,0:0:0:0:
80,168,161232,1,0,0:0:0:0:
448,168,161467,1,0,0:0:0:0:
80,168,161701,1,0,0:0:0:0:
256,40,161936,5,8,0:0:0:0:
352,272,162170,1,0,0:0:0:0:
112,136,162404,1,0,0:0:0:0:
400,128,162639,1,0,0:0:0:0:
176,272,162873,1,8,0:0:0:0:
256,40,163107,5,0,0:0:0:0:
400,232,163342,1,0,0:0:0:0:
120,224,163576,1,0,0:0:0:0:
320,64,163811,1,8,0:0:0:0:
352,288,164045,1,0,0:0:0:0:
104,160,164279,1,0,0:0:0:0:
168,288,164514,5,0,0:0:0:0:
392,160,164748,1,8,0:0:0:0:
192,64,164982,1,0,0:0:0:0:
256,240,165217,5,0,0:0:0:0:
256,144,165451,1,0,0:0:0:0:
256,328,165686,1,8,0:0:0:0:
256,56,165920,1,0,0:0:0:0:
392,192,166154,6,0,L|112:192,1,260,0|8,0:0|0:0,0:0:0:0:
136,72,166857,1,0,0:0:0:0:
392,72,167092,2,0,B|488:120|520:144|352:160|296:128|288:208|288:176,1,260,2|8,0:0|0:0,0:0:0:0:
136,320,167795,1,0,0:0:0:0:
56,72,168029,6,0,B|144:40|208:40|152:128|104:184|200:184|240:144,1,260,2|8,0:0|0:0,0:0:0:0:
344,40,168732,1,0,0:0:0:0:
456,176,168967,2,0,B|400:248|448:312|304:296|328:192|240:256,1,260,2|8,0:0|0:0,0:0:0:0:
48,256,169670,1,0,0:0:0:0:
160,48,169904,6,0,B|240:88|216:128|160:136|80:136|104:192|192:224|224:216,1,260,2|8,0:0|0:0,0:0:0:0:
336,112,170607,1,0,0:0:0:0:
424,280,170842,2,0,B|328:184|328:272|344:336|232:336|232:232|200:272|192:272,1,260,2|8,0:0|0:0,0:0:0:0:
48,152,171545,1,0,0:0:0:0:
256,48,171779,6,0,B|376:104|296:128|184:136|176:184|232:240,1,260,2|8,0:0|0:0,0:0:0:0:
408,256,172482,1,0,0:0:0:0:
352,56,172717,2,0,P|304:184|192:184,1,260,2|8,0:0|0:0,0:0:0:0:
64,80,173420,1,0,0:0:0:0:
64,240,173654,6,0,P|168:312|272:224,1,260,2|8,0:0|0:0,0:0:0:0:
168,96,174357,1,0,0:0:0:0:
344,48,174592,2,0,B|400:144|296:200|440:296,1,260,2|8,0:0|0:0,0:0:0:0:
224,184,175295,1,0,0:0:0:0:
40,48,175529,6,0,B|256:72|32:104|176:232,1,260,2|8,0:0|0:0,0:0:0:0:
296,88,176232,1,0,0:0:0:0:
352,232,176467,2,0,P|408:272|392:312,2,97.5
352,232,176936,2,0,P|288:184|296:160,2,97.5,8|0|0,0:0|0:0|0:0,0:0:0:0:
184,184,177404,6,0,P|232:232|208:256,2,97.5
224,320,177873,2,0,P|248:272|192:248,2,97.5,8|0|0,0:0|0:0|0:0,0:0:0:0:
352,288,178342,2,0,L|336:152,1,130
232,56,178811,1,8,0:0:0:0:
80,280,179045,5,0,0:0:0:0:
216,112,179279,1,0,0:0:0:0:
352,280,179514,1,0,0:0:0:0:
464,112,179748,1,8,0:0:0:0:
256,296,179982,5,0,0:0:0:0:
72,112,180217,1,0,0:0:0:0:
488,336,180686,1,0,0:0:0:0:
256,24,181154,1,0,0:0:0:0:
24,336,181623,1,0,0:0:0:0:
208,160,182092,5,4,0:0:0:0:
256,80,196623,6,2,B|112:112|80:128|256:168|288:184,1,260
496,40,197561,1,0,0:0:0:0:
256,192,198029,1,8,0:0:0:0:
16,344,198498,1,0,0:0:0:0:
256,192,198967,5,0,0:0:0:0:
16,32,199436,1,0,0:0:0:0:
496,336,199904,1,8,0:0:0:0:
208,288,200373,1,0,0:0:0:0:
328,128,200842,5,0,0:0:0:0:
368,128,200959,1,0,0:0:0:0:
408,128,201076,1,0,0:0:0:0:
448,128,201193,1,0,0:0:0:0:
448,168,201311,1,0,0:0:0:0:
448,208,201428,1,0,0:0:0:0:
448,248,201545,1,0,0:0:0:0:
448,288,201662,1,0,0:0:0:0:
400,288,201779,6,2,L|368:208,2,65
360,288,202131,1,0,0:0:0:0:
328,256,202248,1,0,0:0:0:0:
304,224,202365,1,0,0:0:0:0:
280,192,202482,1,0,0:0:0:0:
288,152,202600,1,0,0:0:0:0:
304,112,202717,1,0,0:0:0:0:
288,72,202834,1,0,0:0:0:0:
248,56,202951,5,0,0:0:0:0:
208,64,203068,1,0,0:0:0:0:
168,80,203186,1,0,0:0:0:0:
128,96,203303,1,0,0:0:0:0:
88,112,203420,1,0,0:0:0:0:
48,136,203537,1,0,0:0:0:0:
32,176,203654,2,2,L|-32:208,2,65
64,216,204006,5,0,0:0:0:0:
104,200,204123,1,0,0:0:0:0:
144,184,204240,1,0,0:0:0:0:
184,192,204357,1,0,0:0:0:0:
208,224,204475,1,0,0:0:0:0:
200,264,204592,1,0,0:0:0:0:
200,312,204709,1,0,0:0:0:0:
240,336,204826,1,0,0:0:0:0:
280,312,204943,5,0,0:0:0:0:
312,288,205061,1,0,0:0:0:0:
320,248,205178,1,0,0:0:0:0:
312,208,205295,1,0,0:0:0:0:
296,168,205412,1,0,0:0:0:0:
272,136,205529,2,2,L|200:136,2,65
272,96,205881,5,0,0:0:0:0:
304,72,205998,1,0,0:0:0:0:
352,72,206115,1,0,0:0:0:0:
392,96,206232,1,0,0:0:0:0:
416,136,206350,1,0,0:0:0:0:
432,176,206467,1,0,0:0:0:0:
440,224,206584,1,0,0:0:0:0:
432,264,206701,1,0,0:0:0:0:
408,304,206818,5,0,0:0:0:0:
368,312,206936,1,0,0:0:0:0:
336,288,207053,1,0,0:0:0:0:
320,248,207170,1,0,0:0:0:0:
304,208,207287,1,0,0:0:0:0:
272,184,207404,2,2,L|224:248,2,65
232,160,207756,5,0,0:0:0:0:
200,128,207873,1,0,0:0:0:0:
216,88,207990,1,0,0:0:0:0:
256,64,208107,1,0,0:0:0:0:
304,64,208225,1,0,0:0:0:0:
344,88,208342,1,0,0:0:0:0:
360,128,208459,1,0,0:0:0:0:
352,176,208576,1,0,0:0:0:0:
336,216,208693,5,0,0:0:0:0:
312,256,208811,1,0,0:0:0:0:
272,280,208928,1,0,0:0:0:0:
232,272,209045,1,0,0:0:0:0:
192,248,209162,1,0,0:0:0:0:
168,208,209279,2,2,L|96:208,2,65
160,160,209631,5,0,0:0:0:0:
184,120,209748,1,0,0:0:0:0:
224,96,209865,1,0,0:0:0:0:
272,96,209982,1,0,0:0:0:0:
320,112,210100,1,0,0:0:0:0:
360,136,210217,5,0,0:0:0:0:
384,176,210334,1,0,0:0:0:0:
384,224,210451,1,0,0:0:0:0:
144,304,210686,5,0,0:0:0:0:
128,272,210803,1,0,0:0:0:0:
112,232,210920,1,0,0:0:0:0:
272,48,211154,5,0,0:0:0:0:
304,80,211271,1,0,0:0:0:0:
336,112,211389,1,0,0:0:0:0:
448,312,211623,5,0,0:0:0:0:
400,304,211740,1,0,0:0:0:0:
352,288,211857,1,0,0:0:0:0:
128,96,212092,5,8,0:0:0:0:
144,128,212209,1,0,0:0:0:0:
160,168,212326,2,0,L|208:288,1,130,0|8,0:0|0:0,0:0:0:0:
328,184,212795,5,0,0:0:0:0:
160,56,213029,1,8,0:0:0:0:
72,296,213264,1,0,0:0:0:0:
240,120,213498,1,8,0:0:0:0:
240,296,213732,5,0,0:0:0:0:
424,144,213967,2,0,B|392:48|312:8|256:56|264:72|264:72,1,195,8|0,0:0|0:0,0:0:0:0:
278,53,214436,1,8,0:0:0:0:
272,176,214670,2,0,L|368:280,1,130,0|8,0:0|0:0,0:0:0:0:
392,264,215021,1,0,0:0:0:0:
416,232,215139,5,0,0:0:0:0:
408,192,215256,1,0,0:0:0:0:
384,160,215373,1,8,0:0:0:0:
360,128,215490,1,0,0:0:0:0:
320,104,215607,1,0,0:0:0:0:
280,96,215725,1,0,0:0:0:0:
240,104,215842,5,8,0:0:0:0:
208,128,215959,1,0,0:0:0:0:
184,160,216076,1,0,0:0:0:0:
288,304,216311,1,8,0:0:0:0:
184,160,216545,5,0,0:0:0:0:
288,32,216779,1,8,0:0:0:0:
136,96,217014,1,0,0:0:0:0:
288,32,217248,1,8,0:0:0:0:
144,24,217482,1,0,0:0:0:0:
288,32,217717,6,0,B|368:56|256:88|416:200,2,195,8|2|2,0:0|0:0|0:0,0:0:0:0:
200,168,218654,1,8,0:0:0:0:
392,272,218889,5,0,0:0:0:0:
368,232,219006,1,0,0:0:0:0:
336,200,219123,1,8,0:0:0:0:
304,176,219240,1,0,0:0:0:0:
264,160,219357,1,0,0:0:0:0:
232,144,219475,1,0,0:0:0:0:
240,104,219592,5,8,0:0:0:0:
272,80,219709,1,0,0:0:0:0:
312,72,219826,1,0,0:0:0:0:
464,168,220061,1,8,0:0:0:0:
280,288,220295,5,0,0:0:0:0:
96,272,220529,2,0,B|208:208|56:200|72:168|72:168,1,130,8|0,0:0|0:0,0:0:0:0:
168,64,220998,1,8,0:0:0:0:
320,128,221232,1,0,0:0:0:0:
240,232,221467,6,0,B|56:192|328:208|312:192|328:192,2,195,8|2|2,0:0|0:0|0:0,0:0:0:0:
432,320,222404,1,8,0:0:0:0:
344,240,222639,5,0,0:0:0:0:
360,200,222756,1,0,0:0:0:0:
352,160,222873,1,8,0:0:0:0:
336,128,222990,1,0,0:0:0:0:
304,104,223107,1,0,0:0:0:0:
264,96,223225,1,0,0:0:0:0:
224,112,223342,5,8,0:0:0:0:
192,144,223459,1,0,0:0:0:0:
176,184,223576,1,0,0:0:0:0:
40,304,223811,1,8,0:0:0:0:
112,112,224045,5,0,0:0:0:0:
344,112,224279,1,8,0:0:0:0:
232,256,224514,1,0,0:0:0:0:
456,256,224748,1,8,0:0:0:0:
344,112,224982,1,0,0:0:0:0:
232,256,225217,6,0,B|344:296|272:192|280:144|336:192|384:224|368:248,2,195,8|2|2,0:0|0:0|0:0,0:0:0:0:
80,176,226154,5,8,0:0:0:0:
112,152,226271,1,0,0:0:0:0:
152,136,226389,1,0,0:0:0:0:
192,128,226506,1,0,0:0:0:0:
232,136,226623,5,8,0:0:0:0:
272,152,226740,1,0,0:0:0:0:
312,176,226857,1,0,0:0:0:0:
352,160,226975,1,0,0:0:0:0:
384,128,227092,5,8,0:0:0:0:
368,88,227209,1,0,0:0:0:0:
336,64,227326,2,0,P|272:56|208:64,1,130,0|8,0:0|0:0,0:0:0:0:
128,224,227795,1,0,0:0:0:0:
304,288,228029,5,8,0:0:0:0:
320,248,228146,1,0,0:0:0:0:
320,208,228264,1,0,0:0:0:0:
312,168,228381,1,0,0:0:0:0:
288,136,228498,1,8,0:0:0:0:
248,120,228615,1,0,0:0:0:0:
208,120,228732,1,0,0:0:0:0:
176,144,228850,1,0,0:0:0:0:
152,176,228967,5,8,0:0:0:0:
144,216,229084,1,0,0:0:0:0:
152,256,229201,2,0,P|208:296|264:280,1,130,0|8,0:0|0:0,0:0:0:0:
448,280,229670,1,0,0:0:0:0:
352,128,229904,5,8,0:0:0:0:
320,152,230021,1,0,0:0:0:0:
288,176,230139,1,0,0:0:0:0:
256,192,230256,1,0,0:0:0:0:
256,232,230373,1,8,0:0:0:0:
288,256,230490,1,0,0:0:0:0:
320,280,230607,1,0,0:0:0:0:
352,304,230725,1,0,0:0:0:0:
392,280,230842,5,8,0:0:0:0:
392,240,230959,1,0,0:0:0:0:
376,200,231076,2,0,P|352:128|312:96,1,130,0|8,0:0|0:0,0:0:0:0:
128,184,231545,1,0,0:0:0:0:
208,48,231779,5,8,0:0:0:0:
232,80,231896,1,0,0:0:0:0:
208,112,232014,1,0,0:0:0:0:
232,144,232131,1,0,0:0:0:0:
208,168,232248,1,8,0:0:0:0:
232,208,232365,1,0,0:0:0:0:
208,232,232482,1,0,0:0:0:0:
232,272,232600,1,0,0:0:0:0:
264,288,232717,5,8,0:0:0:0:
304,272,232834,1,0,0:0:0:0:
336,248,232951,2,0,P|392:200|408:144,1,130,0|8,0:0|0:0,0:0:0:0:
232,320,233420,1,0,0:0:0:0:
120,112,233654,5,8,0:0:0:0:
144,144,233771,1,0,0:0:0:0:
168,176,233889,1,0,0:0:0:0:
192,208,234006,1,0,0:0:0:0:
216,240,234123,1,8,0:0:0:0:
240,208,234240,1,0,0:0:0:0:
264,176,234357,1,0,0:0:0:0:
280,144,234475,1,0,0:0:0:0:
296,112,234592,5,8,0:0:0:0:
336,112,234709,1,0,0:0:0:0:
376,112,234826,2,0,P|432:168|432:224,1,130,0|8,0:0|0:0,0:0:0:0:
304,312,235295,1,0,0:0:0:0:
104,256,235529,5,8,0:0:0:0:
136,232,235646,1,0,0:0:0:0:
168,208,235764,1,0,0:0:0:0:
208,200,235881,1,0,0:0:0:0:
248,216,235998,1,8,0:0:0:0:
280,240,236115,1,0,0:0:0:0:
320,256,236232,1,0,0:0:0:0:
352,232,236350,1,0,0:0:0:0:
368,192,236467,5,8,0:0:0:0:
368,152,236584,1,0,0:0:0:0:
352,112,236701,2,0,P|288:40|248:32,1,130,0|8,0:0|0:0,0:0:0:0:
56,64,237170,1,0,0:0:0:0:
256,16,237404,5,8,0:0:0:0:
256,64,237521,1,0,0:0:0:0:
256,112,237639,1,0,0:0:0:0:
256,160,237756,1,0,0:0:0:0:
256,208,237873,1,8,0:0:0:0:
256,256,237990,1,0,0:0:0:0:
256,304,238107,1,0,0:0:0:0:
256,192,238342,12,0,239982,0:0:0:0:
56,192,240217,5,0,0:0:0:0:
80,224,240334,1,0,0:0:0:0:
104,256,240451,1,0,0:0:0:0:
256,40,240686,5,0,0:0:0:0:
256,80,240803,1,0,0:0:0:0:
256,120,240920,1,0,0:0:0:0:
496,88,241154,5,0,0:0:0:0:
472,120,241271,1,0,0:0:0:0:
448,152,241389,2,0,L|376:160,4,65
432,304,242092,6,0,B|400:144|336:344|216:208,1,260,4|8,0:0|0:0,0:0:0:0:
80,88,242795,1,0,0:0:0:0:
288,72,243029,2,2,L|288:136,4,65,2|2|2|2|10,0:0|0:0|0:0|0:0|0:0,0:0:0:0:
400,232,243732,1,0,0:0:0:0:
160,128,243967,5,0,0:0:0:0:
152,168,244084,1,0,0:0:0:0:
144,208,244201,2,0,L|280:248,1,130,0|8,0:0|0:0,0:0:0:0:
392,144,244670,1,0,0:0:0:0:
216,112,244904,6,2,L|216:48,2,65
392,240,245373,2,2,L|392:304,2,65,10|2|2,0:0|0:0|0:0,0:0:0:0:
392,64,245842,2,0,B|296:104|352:184|160:144,1,260,0|8,0:0|0:0,0:0:0:0:
56,296,246545,1,0,0:0:0:0:
272,208,246779,6,2,L|336:224,2,65
144,64,247248,5,8,0:0:0:0:
120,104,247365,1,0,0:0:0:0:
104,144,247482,1,0,0:0:0:0:
104,184,247600,1,0,0:0:0:0:
120,224,247717,1,0,0:0:0:0:
144,264,247834,1,0,0:0:0:0:
176,288,247951,1,0,0:0:0:0:
216,304,248068,5,0,0:0:0:0:
256,288,248186,1,8,0:0:0:0:
296,272,248303,1,0,0:0:0:0:
328,240,248420,2,0,L|352:104,1,130
168,168,248889,5,0,0:0:0:0:
392,304,249123,1,8,0:0:0:0:
384,88,249357,1,0,0:0:0:0:
168,80,249592,2,0,B|48:128|320:128|96:264,1,260,0|8,0:0|0:0,0:0:0:0:
288,288,250295,5,0,0:0:0:0:
408,152,250529,2,2,L|416:88,2,65
216,224,250998,2,2,L|184:288,2,65,10|2|2,0:0|0:0|0:0,0:0:0:0:
88,128,251467,1,0,0:0:0:0:
120,104,251584,1,0,0:0:0:0:
160,88,251701,2,0,L|304:96,1,130,0|8,0:0|0:0,0:0:0:0:
408,168,252170,6,2,L|408:232,2,65
192,168,252639,2,2,L|128:168,2,65,2|2|10,0:0|0:0|0:0,0:0:0:0:
328,48,253107,1,0,0:0:0:0:
432,224,253342,2,0,L|176:280,1,260,0|8,0:0|0:0,0:0:0:0:
56,136,254045,5,0,0:0:0:0:
248,80,254279,2,2,L|296:136,2,65
144,232,254748,2,2,L|176:288,2,65,10|2|2,0:0|0:0|0:0,0:0:0:0:
144,64,255217,5,0,0:0:0:0:
184,80,255334,1,0,0:0:0:0:
216,104,255451,1,0,0:0:0:0:
248,128,255568,1,0,0:0:0:0:
280,160,255686,1,8,0:0:0:0:
304,192,255803,1,0,0:0:0:0:
320,232,255920,2,0,L|184:224,1,130
64,72,256389,5,0,0:0:0:0:
184,248,256623,1,8,0:0:0:0:
304,72,256857,1,0,0:0:0:0:
432,248,257092,2,0,B|376:112|296:336|216:168,1,260,0|8,0:0|0:0,0:0:0:0:
64,304,257795,5,0,0:0:0:0:
160,112,258029,2,0,L|104:80,4,65,0|0|0|0|8,0:0|0:0|0:0|0:0|0:0,0:0:0:0:
304,232,258732,1,0,0:0:0:0:
136,72,258967,5,0,0:0:0:0:
136,104,259084,1,0,0:0:0:0:
136,136,259201,1,0,0:0:0:0:
368,136,259436,1,8,0:0:0:0:
136,264,259670,5,0,0:0:0:0:
368,136,259904,2,0,L|368:64,4,65,0|0|0|0|8,0:0|0:0|0:0|0:0|0:0,0:0:0:0:
368,320,260607,1,0,0:0:0:0:
96,88,260842,2,0,L|336:224,1,260,0|8,0:0|0:0,0:0:0:0:
448,64,261545,6,2,L|448:144,2,65
296,168,262014,2,2,L|296:232,2,65,0|0|8,0:0|0:0|0:0,0:0:0:0:
136,256,262482,5,0,0:0:0:0:
120,224,262600,1,0,0:0:0:0:
120,184,262717,1,0,0:0:0:0:
136,152,262834,5,0,0:0:0:0:
168,128,262951,1,0,0:0:0:0:
208,112,263068,1,0,0:0:0:0:
248,112,263186,1,8,0:0:0:0:
288,128,263303,1,0,0:0:0:0:
320,152,263420,2,0,L|368:280,1,130
184,184,263889,5,0,0:0:0:0:
336,48,264123,1,8,0:0:0:0:
88,48,264357,1,0,0:0:0:0:
72,264,264592,2,0,B|160:336|136:144|304:280,1,260,0|8,0:0|0:0,0:0:0:0:
416,128,265295,6,2,L|440:192,2,65
232,72,265764,2,2,L|256:144,2,65,2|2|10,0:0|0:0|0:0,0:0:0:0:
80,160,266232,1,0,0:0:0:0:
96,192,266350,1,0,0:0:0:0:
112,232,266467,2,0,L|248:256,1,130
424,208,266936,5,8,0:0:0:0:
248,136,267170,2,2,L|192:176,2,65
248,248,267639,2,2,L|320:200,2,65,2|2|10,0:0|0:0|0:0,0:0:0:0:
392,120,268107,1,0,0:0:0:0:
224,56,268342,2,0,B|64:48|208:192|40:224,1,260,0|8,0:0|0:0,0:0:0:0:
184,280,269045,6,2,L|184:200,2,65
344,280,269514,2,2,L|344:208,2,65,2|2|10,0:0|0:0|0:0,0:0:0:0:
432,96,269982,1,0,0:0:0:0:
256,192,270217,12,0,272092,0:0:0:0:
256,184,272326,5,0,0:0:0:0:
416,56,272561,2,0,L|312:128,2,97.5,8|0|0,0:0|0:0|0:0,0:0:0:0:
416,152,273029,2,0,L|320:224,2,97.5
416,248,273498,2,0,L|328:320,2,97.5,8|0|0,0:0|0:0|0:0,0:0:0:0:
200,240,273967,6,0,L|280:320,2,97.5
200,144,274436,2,0,L|272:216,2,97.5,8|0|0,0:0|0:0|0:0,0:0:0:0:
200,48,274904,2,0,L|288:136,2,97.5,0|0|0,0:0|0:0|0:0,0:0:0:0:
400,128,275373,2,2,P|480:232|448:304,1,195,10|2,0:0|0:0,0:0:0:0:
432,304,275842,6,0,L|224:128,1,260,0|8,0:0|0:0,0:0:0:0:
232,304,276545,1,0,0:0:0:0:
168,96,276779,2,0,L|40:96,2,97.5
232,96,277248,2,0,L|336:96,2,97.5,8|0|0,0:0|0:0|0:0,0:0:0:0:
168,160,277717,6,0,L|64:160,2,97.5
232,160,278186,2,0,L|336:160,2,97.5,8|0|0,0:0|0:0|0:0,0:0:0:0:
232,232,278654,2,0,B|416:232|448:232|424:128,1,260,0|8,0:0|0:0,0:0:0:0:
232,56,279357,1,0,0:0:0:0:
120,104,279592,6,0,B|48:192|208:160|48:280|240:304,1,260,0|8,0:0|0:0,0:0:0:0:
392,192,280295,1,0,0:0:0:0:
240,104,280529,2,2,L|240:208,2,97.5
120,104,280998,2,2,L|120:216,2,97.5,10|2|2,0:0|0:0|0:0,0:0:0:0:
120,201,281467,6,0,L|120:312,2,97.5
240,200,281936,2,0,L|240:312,2,97.5,8|0|0,0:0|0:0|0:0,0:0:0:0:
304,296,282404,2,0,L|416:296,2,97.5
208,224,282873,2,0,L|88:224,2,97.5,8|0|0,0:0|0:0|0:0,0:0:0:0:
304,224,283342,6,0,L|416:224,2,97.5
208,296,283811,2,0,L|96:296,2,97.5,8|0|0,0:0|0:0|0:0,0:0:0:0:
208,296,284279,2,0,L|208:168,2,97.5
208,296,284748,2,0,L|320:296,2,97.5,8|0|0,0:0|0:0|0:0,0:0:0:0:
208,224,285217,6,0,L|112:152,2,97.5
208,224,285686,2,0,L|296:160,2,97.5,8|0|0,0:0|0:0|0:0,0:0:0:0:
208,224,286154,2,0,B|208:56|208:32|336:80,1,260,0|8,0:0|0:0,0:0:0:0:
440,208,286857,1,0,0:0:0:0:
296,304,287092,6,0,L|240:176,1,130
112,64,287561,2,0,L|112:184,2,97.5,8|0|0,0:0|0:0|0:0,0:0:0:0:
176,160,288029,2,0,L|176:280,2,97.5
240,160,288498,2,0,L|344:160,2,97.5,8|0|0,0:0|0:0|0:0,0:0:0:0:
240,224,288967,6,0,L|320:296,2,97.5
240,224,289436,2,0,L|152:296,2,97.5,8|0|0,0:0|0:0|0:0,0:0:0:0:
240,224,289904,2,0,L|160:160,2,97.5
240,224,290373,2,0,B|344:128|136:120|272:72,1,195,8|0,0:0|0:0,0:0:0:0:
312,72,290842,6,0,B|448:160|368:288|296:280,1,260,0|8,0:0|0:0,0:0:0:0:
128,184,291545,1,0,0:0:0:0:
296,184,291779,1,0,0:0:0:0:
456,184,292014,1,0,0:0:0:0:
296,256,292248,5,8,0:0:0:0:
168,128,292482,2,2,L|104:88,2,65
328,120,292951,2,2,L|392:160,2,65,2|2|10,0:0|0:0|0:0,0:0:0:0:
248,304,293420,1,0,0:0:0:0:
80,184,293654,6,0,B|128:48|184:232|256:64|296:192,1,260,0|8,0:0|0:0,0:0:0:0:
168,312,294357,1,0,0:0:0:0:
352,304,294592,2,2,B|432:208|320:176|400:56,1,260,2|10,0:0|0:0,0:0:0:0:
192,64,295295,1,0,0:0:0:0:
240,184,295529,6,0,L|136:216,2,97.5
240,248,295998,2,0,L|120:208,2,97.5,8|0|0,0:0|0:0|0:0,0:0:0:0:
312,248,296467,2,0,P|384:240|384:264,2,97.5
312,248,296936,2,0,L|224:200,2,97.5,8|0|0,0:0|0:0|0:0,0:0:0:0:
312,176,297404,6,0,L|312:72,2,97.5
208,176,297873,2,0,L|208:288,2,97.5,8|0|0,0:0|0:0|0:0,0:0:0:0:
144,176,298342,2,0,P|176:48|200:56,1,195
178,49,298811,2,0,L|282:89,2,97.5,8|0|0,0:0|0:0|0:0,0:0:0:0:
184,120,299279,2,0,L|80:152,2,97.5
256,192,299748,12,0,301857,0:0:0:0:
256,64,302092,5,0,0:0:0:0:
128,240,302326,1,0,0:0:0:0:
384,240,302561,1,8,0:0:0:0:
128,240,302795,5,0,0:0:0:0:
256,64,303029,1,0,0:0:0:0:
384,240,303264,1,0,0:0:0:0:
184,120,303498,5,8,0:0:0:0:
296,200,303732,1,0,0:0:0:0:
216,312,303967,1,0,0:0:0:0:
112,240,304201,1,0,0:0:0:0:
248,104,304436,5,8,0:0:0:0:
408,216,304670,1,0,0:0:0:0:
248,320,304904,1,0,0:0:0:0:
88,216,305139,1,0,0:0:0:0:
88,40,305373,5,8,0:0:0:0:
208,208,305607,1,0,0:0:0:0:
320,40,305842,1,0,0:0:0:0:
440,208,306076,1,0,0:0:0:0:
304,320,306311,5,8,0:0:0:0:
176,208,306545,1,0,0:0:0:0:
304,320,306779,1,0,0:0:0:0:
440,208,307014,1,0,0:0:0:0:
440,48,307248,5,8,0:0:0:0:
272,48,307482,1,0,0:0:0:0:
272,200,307717,1,0,0:0:0:0:
440,200,307951,1,0,0:0:0:0:
272,200,308186,5,8,0:0:0:0:
104,200,308420,1,0,0:0:0:0:
272,200,308654,1,0,0:0:0:0:
272,48,308889,1,0,0:0:0:0:
272,200,309123,5,8,0:0:0:0:
272,328,309357,1,0,0:0:0:0:
400,200,309592,1,0,0:0:0:0:
144,200,309826,1,0,0:0:0:0:
208,120,310061,5,8,0:0:0:0:
336,120,310295,1,0,0:0:0:0:
336,264,310529,1,0,0:0:0:0:
208,264,310764,1,0,0:0:0:0:
40,272,310998,6,8,L|88:136,1,130,8|0,0:0|0:0,0:0:0:0:
192,48,311467,1,0,0:0:0:0:
328,48,311701,1,0,0:0:0:0:
432,152,311936,2,0,L|296:176,1,130,8|0,0:0|0:0,0:0:0:0:
128,296,312404,5,0,0:0:0:0:
128,160,312639,1,0,0:0:0:0:
256,40,312873,2,8,L|256:176,1,130,8|0,0:0|0:0,0:0:0:0:
392,144,313342,1,0,0:0:0:0:
392,288,313576,5,0,0:0:0:0:
256,192,313811,2,0,L|256:128,2,65,8|2|2,0:0|0:0|0:0,0:0:0:0:
128,288,314279,1,0,0:0:0:0:
256,192,314514,1,0,0:0:0:0:
104,112,314748,6,0,L|200:112,2,65,8|2|2,0:0|0:0|0:0,0:0:0:0:
256,112,315217,1,0,0:0:0:0:
304,112,315393,1,0,0:0:0:0:
352,112,315568,1,0,0:0:0:0:
320,224,315686,5,8,0:0:0:0:
280,200,315861,1,0,0:0:0:0:
240,176,316037,1,0,0:0:0:0:
184,176,316154,2,0,P|144:264|280:304,1,260,0|8,0:0|0:0,0:0:0:0:
424,200,316857,5,0,0:0:0:0:
352,56,317092,2,2,B|208:32|272:144|104:104,1,260,2|10,0:0|0:0,0:0:0:0:
72,272,317795,1,0,0:0:0:0:
232,320,318029,2,2,L|480:176,1,260,2|10,0:0|0:0,0:0:0:0:
296,160,318732,5,0,0:0:0:0:
176,280,318967,2,2,B|48:200|208:208|56:136|208:72,1,260,2|10,0:0|0:0,0:0:0:0:
264,208,319670,1,0,0:0:0:0:
368,320,319904,2,2,B|488:304|448:240|368:208|312:232|296:280|328:328,1,260,2|10,0:0|0:0,0:0:0:0:
152,264,320607,5,0,0:0:0:0:
64,168,320842,2,2,B|120:104|200:104|240:152|312:176,1,260,2|10,0:0|0:0,0:0:0:0:
432,64,321545,1,0,0:0:0:0:
432,208,321779,2,2,P|320:320|224:296,1,260,2|10,0:0|0:0,0:0:0:0:
88,232,322482,5,0,0:0:0:0:
56,72,322717,2,2,P|216:176|280:152,1,260,2|10,0:0|0:0,0:0:0:0:
400,64,323420,1,0,0:0:0:0:
408,240,323654,2,0,B|224:208|400:152|200:88,1,260,0|8,0:0|0:0,0:0:0:0:
256,272,324357,5,0,0:0:0:0:
176,208,324592,2,2,P|64:112|128:48,1,260,2|10,0:0|0:0,0:0:0:0:
248,48,325295,1,0,0:0:0:0:
320,208,325529,2,2,P|416:152|336:48,1,260,2|10,0:0|0:0,0:0:0:0:
240,168,326232,5,0,0:0:0:0:
112,272,326467,2,2,L|384:272,1,260,2|10,0:0|0:0,0:0:0:0:
240,168,327170,1,0,0:0:0:0:
368,80,327404,2,2,L|104:80,1,260,2|10,0:0|0:0,0:0:0:0:
240,168,328107,5,0,0:0:0:0:
352,320,328342,2,2,L|352:56,1,260,2|10,0:0|0:0,0:0:0:0:
240,168,329045,1,0,0:0:0:0:
128,56,329279,2,2,L|128:320,1,260,2|10,0:0|0:0,0:0:0:0:
256,192,330217,12,0,332092,0:0:0:0:
88,72,332561,5,8,0:0:0:0:
88,304,333029,1,0,0:0:0:0:
416,72,333498,1,8,0:0:0:0:
416,304,333967,1,0,0:0:0:0:
88,304,334436,5,8,0:0:0:0:
416,184,334904,1,0,0:0:0:0:
88,184,335373,1,8,0:0:0:0:
336,80,335842,1,0,0:0:0:0:
184,272,336311,5,8,0:0:0:0:
256,64,336779,1,0,0:0:0:0:
256,304,337248,1,8,0:0:0:0:
184,88,337717,1,0,0:0:0:0:
320,264,338186,5,8,0:0:0:0:
128,152,338654,1,0,0:0:0:0:
352,200,338947,1,0,0:0:0:0:
352,200,339123,1,8,0:0:0:0:
352,72,339416,5,8,0:0:0:0:
352,72,339592,1,0,0:0:0:0:
64,296,340061,1,8,0:0:0:0:
416,296,340529,1,0,0:0:0:0:
248,32,340998,5,8,0:0:0:0:
248,320,341467,1,0,0:0:0:0:
416,64,341936,1,8,0:0:0:0:
64,64,342404,1,0,0:0:0:0:
248,184,342697,5,0,0:0:0:0:
248,184,342873,1,8,0:0:0:0:
440,296,343166,1,8,0:0:0:0:
440,296,343342,1,0,0:0:0:0:
440,56,343811,5,8,0:0:0:0:
248,184,344279,1,0,0:0:0:0:
64,56,344748,1,8,0:0:0:0:
248,184,345217,1,0,0:0:0:0:
64,312,345686,5,8,0:0:0:0:
256,192,346154,12,4,347092,0:0:0:0:
