osu file format v9

[General]
AudioFilename: 02 Train - Hey, Soul Sister.mp3
AudioLeadIn: 0
PreviewTime: 50527
Countdown: 1
SampleSet: Soft
StackLeniency: 0.7
Mode: 0
LetterboxInBreaks: 1

[Editor]
Bookmarks: 12166,22063,31960,41857,51754,61651,71548,81445,91342,101239,111135,121032,130929,140826,150723,160620,170517,180414,190311,200208,210105
DistanceSpacing: 0.9
BeatDivisor: 4
GridSize: 8

[Metadata]
Title:Hey, Soul Sister
Artist:Train
Creator:YGOkid8
Version:Soul Mates
Source:
Tags:Save Me San Francisco saymun MarioBros777 lilac collaboration collab

[Difficulty]
HPDrainRate:6
CircleSize:4
OverallDifficulty:8
ApproachRate:8
SliderMultiplier:1.8
SliderTickRate:1

[Events]
//Background and Video events
0,0,"Train__Save_Me__SanFran_Small_by_chocolatepuppy.jpg"
//Break Periods
2,71748,80695
2,141026,150282
//Storyboard Layer 0 (Background)
//Storyboard Layer 1 (Fail)
//Storyboard Layer 2 (Pass)
//Storyboard Layer 3 (Foreground)
Sprite,Foreground,Centre,"YGOkid8.png",320,240 M,0,12176,,490,425 F,0,12176,12486,0,1 S,0,12176,12486,0.4,0.7 R,0,12176,12486,3.14159,0 F,0,12486,21764,1 R,0,12486,21764,0 F,0,21764,22073,1 R,0,21764,22383,0,-6.28318 F,0,22073,22383,1,0
Sprite,Foreground,Centre,"saymun.png",320,240 M,0,22073,,490,425 F,0,22073,22383,0,1 S,0,22073,22383,0.7 R,0,22073,22383,3.14159,0 F,0,22383,31970,1 F,0,31970,32280,1,0
Sprite,Foreground,Centre,"YGOkid8.png",320,240 M,0,22073,,490,425 F,0,22073,22383,1,0 S,0,22073,22383,0.7,2 R,0,22073,22383,3.14159,0
Sprite,Foreground,Centre,"MB37.png",320,240 M,0,31970,,490,425 F,0,31970,32280,0,1 S,0,31970,41867,0.7 F,0,32280,41867,1 F,0,41867,42176,1,0 S,0,41867,42176,0.7,0.4
Sprite,Foreground,Centre,"saymun.png",320,240 M,0,31970,,490,425 F,0,31970,32280,1,0 S,0,31970,32280,0.7,1.2
Sprite,Foreground,Centre,"YGOkid8.png",320,240 F,0,41867,42176,0,1 S,0,41867,42176,0.4,0.7 M,0,41867,51764,490,425 F,0,42176,51764,1 M,0,51764,51919,490,425,490,480
Sprite,Foreground,Centre,"saymun.png",320,240 S,0,51919,,0.7 M,0,51919,52073,490,480,490,425 F,0,51919,61661,1 M,0,52073,,490,425 F,0,61661,61970,1,0 R,0,61661,61970,0,6.28318
Sprite,Foreground,Centre,"MB37.png",320,240 M,0,61661,,490,425 F,0,61661,61970,0,1 R,0,61661,61970,0,6.28318 S,0,61661,71558,0.7 R,0,61970,62125,6.28318,6.48318 F,0,61970,71558,1 R,0,62125,62280,6.48318,6.08318 R,0,62280,62589,6.08318,6.28318 F,0,71558,71867,1,0 S,0,71558,71867,0.7,1.2
Sprite,Foreground,Centre,"YGOkid8.png",320,240 M,0,81455,,490,425 S,0,81455,,0.7 F,0,81455,81764,0,1 F,0,81764,91352,1 V,0,91352,91506,1,1,1,0.1
Sprite,Foreground,Centre,"saymun.png",320,240 F,0,91352,,0 S,0,91352,,0.7 V,0,91506,91661,1,0.1,1,1 F,0,91506,101249,1 M,0,91661,,490,425 V,0,91661,101249,1,1 V,0,101249,101403,1,1,0.1,1
Sprite,Foreground,Centre,"MB37.png",320,240 F,0,101249,,0 M,0,101403,,490,425 F,0,101403,,1 S,0,101403,,0.7 V,0,101403,101558,0.1,1,1,1 F,0,101403,111145,1 F,0,111145,111455,1,0
Sprite,Foreground,Centre,"MB37.png",320,240 M,0,111145,,490,425 F,0,111145,111455,1,0 S,0,111145,111455,0.7,1.2
Sprite,Foreground,Centre,"YGOkid8.png",320,240 M,0,111145,,490,425 S,0,111145,,0.7 F,0,111145,111455,0,1 F,0,111455,120733,1 F,0,120733,121042,1,0 R,0,120733,121042,0,3.14159
Sprite,Foreground,Centre,"saymun.png",320,240 L,121042,8 R,0,0,619,0.1535999,-0.15 R,0,619,1238,-0.15,0.1535999 M,0,121042,,490,425 F,0,121042,121197,0,1 R,0,121042,121197,-3.14159,0 S,0,121042,130939,0.7 R,0,121197,121352,0,0.1535999 F,0,121197,130939,1 F,0,130939,131249,1,0 S,0,130939,131249,0.7,0.3
Sprite,Foreground,Centre,"MB37.png",320,240 L,130939,8 R,0,0,619,0.1535999,-0.15 R,0,619,1238,-0.15,0.1535999 M,0,130939,,490,425 F,0,130939,131249,0,1 S,0,130939,131249,0.3,0.7 F,0,131249,140836,1 F,0,140836,141145,1,0
Sprite,Foreground,Centre,"YGOkid8.png",320,240 L,150733,8 R,0,0,619,0.1535999,-0.15 R,0,619,1238,-0.15,0.1535999 M,0,150733,,490,425 F,0,150733,151042,0,1 S,0,150733,151042,1.2,0.7 F,0,151042,160630,1 S,0,151042,160630,0.7 F,0,160630,160939,1,0 S,0,160630,160939,0.7,0.2
Sprite,Foreground,Centre,"saymun.png",320,240 F,0,160630,160939,0,1 S,0,160630,160939,1.2,0.7 M,0,160939,,490,425 F,0,160939,170527,1 S,0,160939,170527,0.7 F,0,170527,170836,1,0 S,0,170527,170836,0.7,0.2
Sprite,Foreground,Centre,"MB37.png",320,240 F,0,170527,170836,0,1 S,0,170527,170836,1.2,0.7 M,0,170836,,490,425 F,0,170836,180424,1 F,0,180424,180733,1,0 S,0,180424,180733,0.7,0.2
Sprite,Foreground,Centre,"YGOkid8.png",320,240 M,0,180424,,490,425 F,0,180424,180733,0,1 S,0,180424,180733,1.2,0.7 M,0,190011,190321,490,425,607,424 F,0,190011,190321,1,0
Sprite,Foreground,Centre,"saymun.png",320,240 L,190321,8 R,0,0,619,0.1535999,-0.15 R,0,619,1238,-0.15,0.1535999 M,0,190011,190321,410,425,490,425 F,0,190011,190321,0,1 V,0,190011,190321,0,0.7,0.7,0.7 S,0,190321,,0.7 M,0,190321,200218,490,425,115,426 F,0,190630,200218,1 F,0,200218,200527,1,0
Sprite,Foreground,Centre,"MB37.png",320,240 L,200218,8 R,0,0,619,0.1535999,-0.15 R,0,619,1238,-0.15,0.1535999 S,0,200218,,0.7 F,0,200218,200527,0,1 M,0,200218,210114,160,85,480,85 F,0,200527,210114,1 F,0,210114,210423,1,0
//Storyboard Sound Samples
//Background Colour Transformations
3,100,163,162,255

[TimingPoints]
2270,618.556701030928,4,2,0,50,1,0
2270,-50,4,2,0,50,0,0
96290,-100,4,2,0,50,0,0
98764,-50,4,2,0,50,0,0
121032,-50,4,1,0,50,0,1
140826,-50,4,1,0,50,0,0
160620,-100,4,2,0,50,0,0
170517,-50,4,1,0,50,0,1
180413,-50,4,1,0,50,0,0
180414,-50,4,1,0,50,0,1
190311,-50,4,1,0,50,0,0
207012,-50,4,1,0,45,0,0
207630,-50,4,1,0,40,0,0
208249,-50,4,1,0,35,0,0
208867,-50,4,2,0,30,0,0
209486,-50,4,2,0,25,0,0

[Colours]
Combo1 : 150,150,150
Combo2 : 228,230,170
Combo3 : 183,201,180
Combo4 : 184,202,159

[HitObjects]
256,192,12166,1,4
32,168,12476,5,0
96,112,12630,1,0
176,88,12785,1,8
480,216,13094,5,0
416,272,13249,1,0
336,296,13404,1,2
208,112,13713,5,0
208,192,13867,1,0
240,264,14022,2,0,B|296:232|296:176|256:136,2,90,8|0|0
160,256,14486,1,0
128,184,14641,1,2
24,304,14950,5,0
96,344,15105,1,0
176,344,15259,1,8
336,344,15568,1,0
416,344,15723,1,0
488,304,15878,1,2
304,112,16187,5,0
304,192,16342,1,0
272,264,16496,2,0,B|216:232|216:176|256:136,2,90,8|0|0
352,256,16960,1,0
384,184,17115,1,4
256,80,17424,5,0
176,104,17579,1,0
104,144,17733,1,8
48,208,17888,1,0
96,272,18043,2,0,B|144:264|216:192,1,90
232,176,18352,1,2
256,304,18661,5,0
336,280,18816,1,0
408,240,18971,1,8
464,176,19125,1,0
416,112,19280,2,0,B|368:120|296:192,1,90
280,208,19589,1,2
256,48,19898,5,0
256,128,20053,1,0
176,128,20208,1,8
216,200,20362,1,0
296,200,20517,1,0
336,128,20672,1,0
376,200,20826,2,0,B|384:256|296:288,1,90,2|0
256,304,21135,1,0
320,352,21290,2,0,B|392:344|448:272|448:224,2,180
256,304,22063,5,4
72,192,22373,1,0
256,72,22682,1,8
440,192,22991,5,0
472,264,23146,1,0
400,304,23300,2,0,B|328:336|256:296,2,90,2|0|0
368,232,23764,1,0
440,192,23919,5,8
256,72,24228,1,0
72,192,24538,1,2
256,312,24847,5,0
328,336,25001,1,0
384,280,25156,1,8
360,208,25311,1,0
288,192,25465,1,0
232,136,25620,1,0
256,64,25775,1,2
408,96,26084,1,0
464,240,26393,2,0,B|480:312|408:368,2,90,8|0|0
304,272,27012,6,0,B|224:352|48:312,1,180,4|0
64,288,27476,1,0
24,216,27630,1,8
32,136,27785,1,0
80,72,27940,2,0,B|184:16|328:64,1,180,0|2
408,104,28558,1,0
392,184,28713,1,0
256,272,29022,1,0
240,192,29177,1,0
344,64,29486,6,0,B|232:24|120:120,1,180,2|0
120,144,29950,1,0
112,224,30105,2,0,B|112:304|232:312,1,90,8|0
240,288,30414,2,0,B|240:208|120:200,1,90
208,136,30723,6,0,B|320:88|432:160,1,180,2|0
440,192,31187,1,0
408,264,31342,2,0,B|400:352|296:352,1,90,8|0
296,296,31651,2,0,B|304:208|408:208,1,90
376,152,31960,6,0,B|370:39|253:11|139:39|136:160,2,360,4|8|2
212,165,33507,2,0,B|256:181|309:163,1,90
300,246,33816,2,0,B|256:262|203:244,1,90,8|0
184,320,34125,1,0
258,346,34280,1,0
328,320,34434,1,2
416,32,34744,5,0
256,32,35053,2,0,B|200:32|168:80,2,90,8|0|0
256,112,35517,1,2
256,352,35981,2,0,B|312:352|344:304,2,90,0|0|8
256,272,36445,1,0
256,272,36599,1,0
256,272,36754,1,0
216,200,36909,6,0,B|95:184|100:11|255:20,1,270,4|0
296,22,37527,2,0,B|416:37|411:210|256:201,1,270,8|0
256,128,38146,5,4
136,344,38610,1,8
376,344,39074,1,4
298,245,39383,6,0,B|354:285|426:221,1,90,2|0
346,181,39692,2,0,B|290:141|218:205,1,90,0|0
218,245,40001,2,0,B|162:285|90:221,1,90,8|0
170,181,40311,2,0,B|226:141|298:205,1,90,0|0
257,316,40620,5,4
256,154,40929,1,0
176,31,41239,5,8
336,31,41548,1,0
336,31,41702,1,0
336,31,41857,1,4
336,31,42012,1,0
336,31,42166,1,0
408,112,42476,5,8
352,176,42630,2,0,B|328:216|216:248,1,90
200,248,42940,1,0
120,224,43094,2,0,B|144:184|256:152,1,90,2|0
272,152,43404,1,0
352,136,43558,1,0
416,192,43713,2,0,B|368:224|296:216,1,90,8|0
248,216,44022,2,0,B|144:208|80:136,1,180,0|2
256,40,44641,5,0
184,80,44795,1,0
136,144,44950,1,8
256,344,45259,5,0
328,304,45414,1,0
376,240,45568,1,2
148,299,45878,5,0
208,240,46032,1,0
384,72,46496,1,0
448,224,46806,5,4
352,360,47115,1,0
280,328,47270,1,0
224,272,47424,1,8
208,192,47579,1,0
224,112,47733,2,0,B|263:140|291:179,1,90
336,240,48043,1,2
160,24,48352,5,0
232,56,48507,1,0
288,112,48661,1,8
304,192,48816,1,0
288,272,48971,2,0,B|248:243|220:204,1,90
176,144,49280,1,2
256,336,49589,5,0
256,256,49744,1,0
336,256,49898,1,8
296,184,50053,1,0
216,184,50208,1,0
176,256,50362,1,0
136,184,50517,2,0,B|128:128|216:96,1,90,2|0
256,80,50826,1,0
192,32,50981,2,0,B|120:40|64:112|64:160,2,180
272,32,51754,6,0,B|400:32|424:168,1,180,4|0
240,352,52373,2,0,B|112:352|88:216,1,180,8|0
256,40,52991,5,2
432,336,53300,1,8
80,336,53610,1,8
400,56,53919,6,0,B|400:128|272:136|336:280,1,180,0|2
256,264,54383,1,0
192,208,54538,2,0,B|192:128|136:120|96:88|112:24,1,180,0|8
256,120,55156,1,0
400,192,55465,6,0,B|376:272|256:240,1,90,2|0
256,264,55775,1,8
192,208,55929,1,0
128,160,56084,2,0,B|48:160|16:256,1,90,8|0
48,280,56393,2,0,B|120:288|136:208,1,90,0|0
128,160,56702,6,0,B|184:32|344:40|456:80|464:200,1,360,4|8
288,192,57630,1,0
448,232,57940,2,0,B|392:360|232:352|120:312|112:192,1,360,4|8
168,192,58713,6,0,B|176:136|128:104,1,90
228,108,59022,2,0,B|284:98|300:43,1,90,0|2
327,140,59331,2,0,B|353:190|411:187,1,90
327,243,59641,2,0,B|287:284|307:338,1,90,0|8
228,275,59950,2,0,B|178:250|132:286,2,90
296,320,60414,6,0,B|424:296|392:152,1,180,2|8
384,112,60878,1,0
336,48,61032,1,8
256,192,61342,1,0
256,32,61651,6,0,B|136:8|64:96,1,180,4|0
112,152,62115,1,0
32,128,62270,2,0,B|0:224|72:312,1,180,8|0
136,280,62733,1,0
112,360,62888,2,0,B|208:392|320:352,2,180,2|8|8
216,240,63816,6,2,B|168:176|248:104|336:160|304:240,2,180,2|0|2
256,40,64744,1,8
408,104,65053,1,0
464,256,65362,2,0,B|440:296|400:320,1,90,4|0
328,344,65672,2,0,B|280:360|224:352,1,90,8|0
160,336,65981,1,12
160,336,66290,1,0
32,224,66599,6,0,B|-16:112|32:16|160:-24|264:72,1,360,4|8
480,224,67527,2,0,B|528:112|480:16|352:-24|248:72,2,360,4|8|8
368,336,69074,5,4
256,216,69383,1,8
256,216,69538,1,0
144,336,69847,1,8
144,336,70001,1,0
32,216,70311,1,2
176,32,71239,5,0
256,32,71393,1,0
336,32,71548,1,4
256,112,81445,5,4
176,256,81754,1,0
256,280,81909,1,0
336,256,82063,1,8
192,184,82373,1,0
256,136,82527,1,0
320,184,82682,1,2
464,104,82991,1,0
464,184,83146,1,0
464,184,83610,1,0
360,64,83919,6,0,B|296:40|216:40,1,90,2|0
192,48,84228,1,0
112,72,84383,1,0
48,128,84538,2,0,B|24:192|24:272,1,90,8|0
40,296,84847,1,0
80,368,85001,1,0
120,296,85156,5,2
192,58,85465,1,0
437,133,85775,1,8
364,370,86084,1,0
416,216,86393,6,0,B|352:296|256:328,1,180,4|0
192,344,86857,1,0
112,328,87012,2,0,B|176:248|272:216,1,180,8|0
336,200,87476,1,0
280,144,87630,2,0,B|200:160|160:184|80:248,2,180,2|0|8
280,144,88558,1,0
128,88,88867,6,0,B|128:184,1,90,2|0
128,256,89177,1,0
128,336,89331,1,0
208,336,89486,2,0,B|304:336,1,90,8|0
376,336,89795,1,0
456,336,89950,1,0
456,256,90105,6,0,B|272:256,1,180,2|0
56,128,90723,2,0,B|240:128,1,180,8|0
320,128,91187,1,4
320,288,91496,1,0
240,288,91651,2,0,B|40:288,2,180,0|8|0
240,288,92424,5,0
240,288,92579,1,2
376,192,92888,1,0
240,96,93197,1,8
104,192,93507,1,0
104,192,93661,2,0,B|104:320|264:320,2,180
104,192,94434,1,8
256,48,94744,5,0
392,147,95053,1,2
340,308,95362,1,0
171,308,95672,1,8
119,147,95981,1,0
256,48,96290,6,0,B|304:104|384:8|432:64,1,180,4|8
256,336,97527,2,0,B|208:280|128:376|80:320,1,180,4|8
384,192,98764,6,0,B|384:32|176:40,2,270,4|8|8
256,288,100001,1,2
176,312,100156,1,0
96,288,100311,1,0
48,224,100465,1,0
64,144,100620,1,8
176,32,100929,1,0
280,156,101239,6,0,B|309:254|469:254|491:142,1,270,4|0
420,112,101857,2,0,B|322:141|322:301|434:323,1,270,8|0
256,192,102476,8,2,103713
256,120,104022,5,0
184,240,104331,1,8
328,240,104641,1,0
384,88,104950,5,2
128,88,105259,1,0
256,328,105568,1,8
256,192,105878,1,0
104,240,106187,6,0,B|104:352|224:352,1,180,4|0
408,240,106806,2,0,B|408:352|288:352,1,180,8|0
384,168,107424,6,0,B|256:88|128:168,1,270,4|8
29,141,108352,2,6,B|89:14|256:-8|452:11|496:176,1,540,6|8
256,144,109898,5,4
392,232,110208,1,0
392,232,110362,1,4
256,320,110672,1,0
120,232,110981,1,0
120,232,111135,1,4
104,72,111445,5,0
176,104,111599,1,0
256,128,111754,1,8
336,104,111909,1,0
408,72,112063,1,0
336,216,112373,6,0,B|240:216,1,90,2|0
168,216,112682,1,0
88,216,112837,1,0
8,216,112991,1,8
128,320,113300,1,0
128,320,113455,1,2
288,320,113764,1,2
496,192,114228,5,8
416,192,114383,1,0
336,192,114538,1,0
256,192,114692,2,2,B|144:192|144:80,1,180
224,96,115156,2,0,B|192:184|112:240,2,180,0|8|0
64,96,116084,6,0,B|0:168|0:264,1,180,4|0
8,344,116548,1,0
72,296,116702,2,0,B|144:232|240:232,1,180,8|0
320,240,117166,1,0
400,264,117321,5,2
315,30,117630,1,0
74,118,117940,1,8
166,348,118249,1,0
40,240,118558,6,0,B|104:176|208:176,1,180,4|0
184,256,119022,1,0
112,288,119177,1,8
176,336,119331,1,0
248,304,119486,1,0
256,224,119641,1,0
472,144,119795,6,0,B|408:208|304:208,1,180,4|0
328,128,120259,1,0
400,96,120414,1,8
336,48,120568,1,0
264,80,120723,1,0
256,160,120878,1,0
192,112,121032,5,4
320,272,121342,1,0
176,192,121651,2,0,B|88:216|-16:192,1,180,8|0
336,192,122270,2,0,B|424:168|528:192,1,180,0|8
256,344,122888,1,8
256,56,123197,5,2
184,96,123352,1,0
184,16,123507,1,0
48,104,123816,2,2,B|48:208|136:264,1,180,2|10
464,280,124434,2,2,B|464:176|376:120,1,180
385,126,125053,1,8
256,232,125362,5,10
216,304,125517,1,0
296,304,125672,1,0
256,144,125981,6,0,B|256:48,2,90,4|0|0
176,120,126445,2,0,B|160:224|72:264,1,180
96,336,126909,1,0
256,336,127218,6,0,B|384:336,2,90
272,256,127682,2,0,B|384:248|424:136,1,180,0|0
456,88,128146,1,0
384,48,128300,6,0,B|360:88|376:168,1,90,0|4
384,336,128610,2,0,B|360:296|376:216,1,90
288,80,128919,2,0,B|264:120|280:200,1,90,0|8
288,304,129228,2,0,B|264:264|280:184,1,90
48,192,129692,5,4
192,264,130001,1,8
232,192,130156,1,0
192,120,130311,1,12
336,192,130620,1,0
456,104,130929,6,0,B|435:55|374:44,1,90,4|0
308,50,131239,1,0
456,280,131548,2,0,B|435:329|374:340,1,90,8|0
308,334,131857,1,0
328,192,132166,2,0,B|264:192|264:192|246:116|156:121,2,180,0|8|8
168,221,133094,6,2,B|19:257|-29:48|90:1|199:24,1,360
308,46,134022,2,0,B|428:46,1,90,8|0
396,126,134331,1,0
203,338,134641,6,0,B|91:338,1,90,2|0
115,258,134950,1,8
192,128,135259,2,2,B|368:296,2,180,10|0|6
72,192,136496,5,8
88,272,136651,1,0
136,336,136806,1,0
216,368,136960,1,0
296,368,137115,1,0
368,336,137270,1,0
424,272,137424,1,8
440,192,137579,1,0
424,112,137733,1,8
368,56,137888,1,0
296,24,138043,1,0
216,24,138197,1,0
144,56,138352,1,4
256,192,138971,5,12
256,192,139589,1,4
256,192,139744,1,0
256,192,139898,1,8
256,192,140208,1,8
176,144,140517,5,0
336,144,140672,1,0
256,272,140826,1,4
32,168,151032,5,0
88,104,151187,1,0
168,80,151342,1,8
248,80,151496,2,2,B|360:64|488:144|368:288,1,270
256,168,152270,1,0
256,328,152579,1,10
136,224,152888,1,0
136,224,153043,1,0
376,224,153507,5,0
376,224,153661,1,0
344,64,153971,2,2,B|256:24|168:64,1,180
216,128,154434,1,0
296,128,154589,1,0
256,200,154744,1,0
256,280,154898,1,0
184,240,155053,2,2,B|96:296|8:240,2,180,10|0|6
96,104,155981,5,0
416,104,156290,1,8
416,184,156445,6,0,B|416:280,2,90
336,184,156909,1,0
256,328,157218,1,0
256,328,157373,1,0
176,184,157682,1,0
176,184,157837,1,0
256,40,158146,6,0,B|208:24|160:40,1,90,4|0
88,64,158455,1,0
24,120,158610,1,0
0,200,158764,1,8
24,280,158919,1,0
80,344,159074,1,0
256,344,159383,6,0,B|304:360|352:344,1,90,4|0
424,320,159692,1,0
488,264,159847,1,0
512,184,160001,1,8
488,104,160156,1,0
432,40,160311,1,0
256,192,160620,6,0,B|224:296|104:296,2,180,4|8|2
256,32,162166,1,8
400,112,162476,1,8
400,272,162785,2,0,B|320:328|208:280,1,180,2|0
96,192,163713,6,0,B|96:88,1,90,8|0
256,128,164331,2,0,B|256:232,1,90,2|8
416,192,164950,2,0,B|416:88,1,90,8|0
256,328,165568,5,4
96,328,165878,1,0
96,328,166032,1,0
96,328,166187,1,8
176,192,166496,2,0,B|176:88,1,90,0|2
256,240,167115,1,0
256,240,167270,1,0
256,240,167424,1,8
328,280,167579,6,0,B|352:304|408:288,1,45
384,208,167888,2,0,B|417:208|446:157,1,45,0|2
384,112,168197,2,0,B|408:88|392:32,1,45
312,56,168507,2,0,B|312:22|261:-6,1,45,0|8
208,40,168816,2,0,B|184:16|128:32,1,45
88,64,169125,1,0
48,144,169280,5,4
464,240,169898,1,4
48,336,170517,1,4
216,360,170826,5,0
296,360,170981,1,0
256,296,171135,1,8
216,232,171290,1,0
296,232,171445,1,0
185,114,171754,2,0,B|199:65|266:51|329:63|335:154,2,180,0|8|8
256,296,172682,5,2
72,32,173300,1,0
160,128,173610,2,2,B|272:128|304:24,1,180,10|0
216,40,174074,2,2,B|243:132|355:132,1,180,0|2
424,168,174538,1,8
256,232,174847,1,10
88,168,175156,1,0
48,328,175465,6,0,B|120:400|240:384,1,180,4|0
376,360,176084,1,8
464,224,176393,2,2,B|528:136|488:16|352:-16|272:72,1,360
256,192,177630,8,4,179177
184,56,179486,5,8
184,56,179641,1,0
328,56,179795,1,8
328,56,179950,1,8
256,136,180105,1,0
256,56,180414,5,4
176,192,180723,1,0
256,168,180878,1,0
336,192,181032,1,8
256,336,181342,1,0
400,264,181651,2,0,B|440:176|400:88,2,180,0|8|8
256,336,182579,1,2
112,264,182888,6,2,B|72:176|112:88,2,180,0|2|10
256,192,183816,1,0
160,64,184125,5,2
384,96,184434,1,8
352,320,184744,1,10
128,288,185053,1,0
216,152,185362,6,0,B|128:192|40:152,2,180,4|0|8
256,224,186135,1,0
296,152,186290,2,0,B|384:192|472:152,2,180,0|0|8
256,80,187063,1,0
176,80,187218,1,8
96,80,187373,1,0
96,160,187527,1,0
96,240,187682,1,0
96,320,187837,5,4
416,320,188455,1,4
256,40,189074,1,4
256,120,189228,1,0
256,200,189383,1,8
256,360,189692,1,8
336,216,190001,1,0
256,200,190156,1,0
176,216,190311,5,4
320,288,190620,1,0
224,160,190929,1,8
256,320,191239,1,0
296,160,191548,1,0
192,288,191857,1,0
344,224,192166,2,0,L|464:224,2,90,8|0|0
384,64,192785,6,0,B|288:32|176:72,2,180,4|0|8
384,64,193713,1,0
128,320,194022,2,0,B|224:352|336:312,2,180,4|0|8
128,320,194950,1,0
56,176,195259,5,4
104,112,195414,1,0
152,176,195568,1,0
256,56,195878,2,0,B|288:104|384:104,1,90,8|0
384,160,196187,1,0
320,216,196342,1,0
376,272,196496,2,0,B|304:344|184:320,1,180,4|0
152,264,196960,2,0,B|216:208|200:72,1,180
128,56,197424,1,0
48,192,197733,6,0,B|24:272|64:336,1,90,4|0
80,352,198043,1,0
160,336,198197,1,0
240,352,198352,2,0,B|296:376|360:352,1,90,8|0
376,296,198661,2,0,B|320:272|256:296,1,90
224,240,198971,5,4
224,240,199125,1,0
176,176,199280,1,0
200,104,199434,1,0
272,64,199589,2,0,B|336:144|464:120,1,180,8|0
488,184,200053,1,0
456,256,200208,6,2,B|416:384|208:384|112:328|72:168|128:-16|336:16,1,720,6|2
384,32,201599,1,0
448,80,201754,1,0
464,160,201909,1,0
392,192,202063,5,8
392,192,202682,2,0,B|104:192,2,270,4|8|8
400,352,203919,2,0,B|216:352,1,180,4|0
112,32,204538,2,0,B|296:32,1,180,8|0
392,160,205156,6,0,B|512:160|528:272|520:328|456:368,2,270,4|8|8
328,104,206393,2,0,B|276:72|181:89|151:159,1,180,4|0
192,272,206857,2,0,B|244:304|339:287|369:217,1,180,8|0
256,192,207321,1,0
256,192,207630,5,4
256,368,208249,1,8
256,192,208867,12,0,210105
